Skip to main content

Topic: Create cue sheet from EAC log (Read 13390 times) previous topic - next topic

0 Members and 1 Guest are viewing this topic.
  • JERECHO
  • [*]
Create cue sheet from EAC log
Can I somehow create a cue sheet from a v1.0 EAC log extraction file?

Create cue sheet from EAC log
Reply #1
EAC Helper's Log2Cue webpage:
http://eachelper.uphero.com/convloghtml.php

Never had to use it myself, but probably worth a try.
  • Last Edit: 11 May, 2011, 08:43:32 AM by HotShotFR

  • mjb2006
  • [*][*][*][*][*]
Create cue sheet from EAC log
Reply #2
This thread belongs in General Audio, not Lossless.

You can derive a cue sheet from a rip log, but it will only be correct if the following conditions are met:
  • The original CD either has no gaps (index 00 sections), or it does have gaps which were manually detected before ripping (F4)
  • The original CD has no indexes greater than 01 (in my collection, this is 2 or 3 out of ~1000 CDs)
  • The original CD has no MCN, ISRCs, copyright flags, pre-emphasis flags, or CD-Text data (most CDs have the first two, at least)

Why not just stick the disc back in the drive and have EAC generate a cue sheet from it?
  • Last Edit: 11 May, 2011, 06:36:46 PM by mjb2006

  • pdq
  • [*][*][*][*][*]
Create cue sheet from EAC log
Reply #3
Why not just stick the disc back in the drive and have EAC generate a cue sheet from it?

Unless, of course, you never had the original CD.

Edit: This probably belongs in CD Hardware/Software.
  • Last Edit: 12 May, 2011, 08:43:32 AM by pdq

Create cue sheet from EAC log
Reply #4
Can I somehow create a cue sheet from a v1.0 EAC log extraction file?


Edit a copy of the EAC v1.0 log to make it resemble a v.99 log. I'm guessing you probably have one on hand somewhere. From thence you would proceed to the aforementioned site linked by HotShot FR and do your thing. (It wouldn't be as difficult to do this as it sound...just open both in your text editor. Use the Log to Cue option with current gaps as the setting on the EAC Helper.)

BTW, people here are pretty judgmental about P2P and such as you can see.  That should work out for you though. If you need any other help don't be afraid to ask (me, if no one else here.)
The Loudness War is over. Now it's a hopeless occupation.

Create cue sheet from EAC log
Reply #5
EAC Helper's Log2Cue webpage:
http://eachelper.uphero.com/convloghtml.php

Never had to use it myself, but probably worth a try.


Sadly the site has moved again. Where? Unknown to me.

  • mjb2006
  • [*][*][*][*][*]
Create cue sheet from EAC log
Reply #6
It was down for a while, but is back, as of a few hours ago.

http://eachelper.uphero.com/

The admin told me it was just down due to technical difficulties; his ISP had botched some "maintenance".

  • derty2
  • [*][*][*][*][*]
Create cue sheet from EAC log
Reply #7
     > "Edit a copy of the EAC v1.0 log to make it resemble a v.99 log"

I am curious for knowledge...
Could you please explain to me, and anyone else reading this thread, what is the difference between 1.0 and 0.9 cue sheets?
One cue sheet is more "compliant" than the other with regards to what ...a particular program? ...a particular specification?
Are these facts documented anywhere?
Thankyou.
  • Last Edit: 08 June, 2011, 08:02:16 PM by derty2

Create cue sheet from EAC log
Reply #8
Unless, of course, you never had the original CD.

Unless, of course, you have to live for a few months/years some 1000 miles from your original CDs.

That's quite off-topic, anyway - and on the wrong forum category, agreed

  • db1989
  • [*][*][*][*][*]
  • Global Moderator
Create cue sheet from EAC log
Reply #9
     > "Edit a copy of the EAC v1.0 log to make it resemble a v.99 log"

I am curious for knowledge...
Could you please explain to me, and anyone else reading this thread, what is the difference between 1.0 and 0.9 cue sheets?
They said log, not cue sheet. Presumably the utility only works with the older version’s log files.

Quote
One cue sheet is more "compliant" than the other with regards to what ...a particular program? ...a particular specification?
Are these facts documented anywhere?
Googling cue specification is a fair start. Oft-cited is the CDRWIN version, since it pioneered the format. Specifically, declared tracks are not supposed to comprise audio from more than one file, as occurs in “noncompliant” cue sheets where the pregap (INDEX 00) of one track is taken from the file of the one prior.
  • Last Edit: 08 June, 2011, 11:31:46 PM by dv1989

  • shantiq
  • [*]
Create cue sheet from EAC log
Reply #10
EAC Helper's Log2Cue webpage: [2015]
http://eachelper.atwebpages.com/convlog.php
yea yer roight !

  • Mr.Fox
  • [*]
Create cue sheet from EAC log
Reply #11
CUE Corrector can create cuesheet from log.
for windows http://cuecorrector.ucoz.net
original cue sheet
Code: [Select]
REM DATE 1999
REM DISCID DB0E8810
REM COMMENT "ExactAudioCopy v1.0b3"
PERFORMER "Various Artists"
TITLE "Grand Theft Auto: London 1969"
FILE "<Filename>.iso" BINARY
  TRACK 01 MODEx/2xxx
   TITLE "[data track]"
   PERFORMER "[data]"
   INDEX 01 00:00:00
  TRACK 02 AUDIO
   TITLE "Le malizie di Venere: Seq. 3"
   PERFORMER "Gian Franco Reverberi"
   INDEX 00 04:03:37
FILE "02. Gian Franco Reverberi - Le malizie di Venere- Seq. 3.wav" WAVE
   INDEX 01 00:00:00
  TRACK 03 AUDIO
   TITLE "Bush Sounds: Return of Django / Dollar in the Teeth"
   PERFORMER "The Upsetters"
   INDEX 00 01:29:02
FILE "03. The Upsetters - Bush Sounds- Return of Django , Dollar in the Teeth.wav" WAVE
   INDEX 01 00:00:00
  TRACK 04 AUDIO
   TITLE "Heavy Heavy Monster Sound: Liquidator / Skinhead Moonstomp"
   PERFORMER "Harry J. All Stars / Symarip"
   INDEX 00 04:40:59
FILE "04. Harry J. All Stars , Symarip - Heavy Heavy Monster Sound- Liquidator , Skinhead Moonstomp.wav" WAVE
   INDEX 01 00:00:00
  TRACK 05 AUDIO
   TITLE "Blowup Radio: Beat Fuga Shake"
   PERFORMER "Riz Ortolani"
   INDEX 00 05:43:48
FILE "05. Riz Ortolani - Blowup Radio- Beat Fuga Shake.wav" WAVE
   INDEX 01 00:00:00
  TRACK 06 AUDIO
   TITLE "Kaleidoscope: Hot Camera Shake / L'uomo che sapra"
   PERFORMER "Francesco De Masi & Alessandro Alessandroni"
   INDEX 00 01:52:73
FILE "06. Francesco De Masi & Alessandro Alessandroni - Kaleidoscope- Hot Camera Shake , L'uomo che sapra.wav" WAVE
   INDEX 01 00:00:00
  TRACK 07 AUDIO
   TITLE "Sound of Soho: Tema di Londra / [unknown]"
   PERFORMER "Francesco De Masi & Alessandro Alessandroni"
   INDEX 00 03:10:26
FILE "07. Francesco De Masi & Alessandro Alessandroni - Sound of Soho- Tema di Londra , [unknown].wav" WAVE
   INDEX 01 00:00:00
  TRACK 08 AUDIO
   TITLE "Radio Penelope: The Roaring Twenties / Teresa l'illusa"
   PERFORMER "Riz Ortolani"
   INDEX 00 04:58:27
FILE "08. Riz Ortolani - Radio Penelope- The Roaring Twenties , Teresa l'illusa.wav" WAVE
   INDEX 01 00:00:00
  TRACK 09 AUDIO
   TITLE "Radio Andorra: Tiffany Sequence M. 8 / Tiffany Sequence M. 22"
   PERFORMER "Riz Ortolani"
   INDEX 00 06:58:54
FILE "09. Riz Ortolani - Radio Andorra- Tiffany Sequence M. 8 , Tiffany Sequence M. 22.wav" WAVE
   INDEX 01 00:00:00
  TRACK 10 AUDIO
   TITLE "Westminster Wireless: Le malizie di Venere: Seq. 3 / Le malizie di Venere: Se..."
   PERFORMER "Gian Franco Reverberi"
   INDEX 00 02:20:30
FILE "10. Gian Franco Reverberi - Westminster Wireless- Le malizie di Venere- Seq. 3 , Le malizie di Venere- Seq. 4 , Le malizie di Venere- Seq. 6.wav" WAVE
   INDEX 01 00:00:00
  TRACK 11 AUDIO
   TITLE "Radio 7: [unknown] / [unknown]"
   PERFORMER "[unknown]"
   INDEX 00 07:16:18
FILE "11. [unknown] - Radio 7- [unknown] , [unknown].wav" WAVE
   INDEX 01 00:00:00
  TRACK 12 AUDIO
   TITLE "Police Radio Track"
   PERFORMER "[no artist]"
   INDEX 00 05:46:24
FILE "12. [no artist] - Police Radio Track.wav" WAVE
   INDEX 01 00:00:00
  TRACK 13 AUDIO
   TITLE "GTA Pomp"
   PERFORMER "Charlie Clarke feat. JL, Sarah Daly & Paul Powell"
   INDEX 00 03:07:46
FILE "13. Charlie Clarke feat. JL, Sarah Daly & Paul Powell - GTA Pomp.wav" WAVE
   INDEX 01 00:00:00
  TRACK 14 AUDIO
   TITLE "GTA Spy"
   PERFORMER "Charlie Clarke feat. JL, Sarah Daly & Paul Powell"
   INDEX 00 02:39:36
FILE "14. Charlie Clarke feat. JL, Sarah Daly & Paul Powell - GTA Spy.wav" WAVE
   INDEX 01 00:00:00
  TRACK 15 AUDIO
   TITLE "[ambience]"
   PERFORMER "[no artist]"
   INDEX 00 02:58:12
FILE "15. [no artist] - [ambience].wav" WAVE
   INDEX 01 00:00:00
  TRACK 16 AUDIO
   TITLE "Austin Allegro Drag Race"
   PERFORMER "Chris Sears feat. Jim Browski, Dr. Gilo Allen & Duncan 'limpdick' Scott"
   INDEX 00 01:08:60
FILE "16. Chris Sears feat. Jim Browski, Dr. Gilo Allen & Duncan 'limpdick' Scott - Austin Allegro Drag Race.wav" WAVE
   INDEX 01 00:00:00
EAC log
Code: [Select]
Exact Audio Copy V1.0 beta 3 from 29. August 2011

EAC extraction logfile from 12. February 2015, 22:16

Various Artists / Grand Theft Auto: London 1969

Used drive  : DTSOFT  BDROM  Adapter: 2  ID: 0

Read mode              : Secure
Utilize accurate stream : Yes
Defeat audio cache      : Yes
Make use of C2 pointers : No

Read offset correction                      : 0
Overread into Lead-In and Lead-Out          : No
Fill up missing offset samples with silence : Yes
Delete leading and trailing silent blocks  : No
Null samples used in CRC calculations      : Yes
Used interface                              : Native Win32 interface for Win NT & 2000
Gap handling                                : Appended to previous track

Used output format              : User Defined Encoder
Selected bitrate                : 768 kBit/s
Quality                        : High
Add ID3 tag                    : No
Command line compressor        : C:\Program Files (x86)\Exact Audio Copy\FLAC\FLAC.EXE
Additional command line options : -6 -V -T "ARTIST=%artist%" -T "TITLE=%title%" -T "ALBUM=%albumtitle%" -T "DATE=%year%" -T "TRACKNUMBER=%tracknr%" -T "GENRE=%genre%" -T "COMMENT=%comment%" -T "BAND=%albuminterpret%" -T "ALBUMARTIST=%albuminterpret%" -T "COMPOSER=%composer%" %haslyrics%--tag-from-file=LYRICS="%lyricsfile%"%haslyrics% -T "DISCNUMBER=%cdnumber%" -T "TOTALDISCS=%totalcds%" -T "TOTALTRACKS=%numtracks%" %hascover%--picture="%coverfile%"%hascover% %source% -o %dest%


TOC of the extracted CD

     Track |  Start  |  Length  | Start sector | End sector
   ---------------------------------------------------------
       1  |  0:00.00 |  4:05.36 |        0    |    18410 
       2  |  4:05.36 |  1:31.02 |    18411    |    25237 
       3  |  5:36.38 |  4:42.59 |    25238    |    46446 
       4  | 10:19.22 |  5:45.48 |    46447    |    72369 
       5  | 16:04.70 |  1:54.73 |    72370    |    80992 
       6  | 17:59.68 |  3:12.26 |    80993    |    95418 
       7  | 21:12.19 |  5:00.26 |    95419    |  117944 
       8  | 26:12.45 |  7:00.54 |    117945    |  149498 
       9  | 33:13.24 |  2:22.29 |    149499    |  160177 
       10  | 35:35.53 |  7:18.18 |    160178    |  193045 
       11  | 42:53.71 |  5:48.24 |    193046    |  219169 
       12  | 48:42.20 |  3:09.46 |    219170    |  233390 
       13  | 51:51.66 |  2:46.14 |    233391    |  245854 
       14  | 54:38.05 |  3:00.12 |    245855    |  259366 
       15  | 57:38.17 |  1:10.59 |    259367    |  264675 
       16  | 58:49.01 |  3:11.45 |    264676    |  279045 


Track  2

     Filename C:\temp\Grand Theft Auto London 1969\02. Gian Franco Reverberi - Le malizie di Venere- Seq. 3.wav

     Pre-gap length  0:00:01.74

     Peak level 72.4 %
     Extraction speed 23.9 X
     Track quality 100.0 %
     Test CRC C75EE2B9
     Copy CRC C75EE2B9
     Copy OK

Track  3

     Filename C:\temp\Grand Theft Auto London 1969\03. The Upsetters - Bush Sounds- Return of Django , Dollar in the Teeth.wav

     Pre-gap length  0:00:02.00

     Peak level 95.4 %
     Extraction speed 35.6 X
     Track quality 100.0 %
     Test CRC 7A76A64A
     Copy CRC 7A76A64A
     Copy OK

Track  4

     Filename C:\temp\Grand Theft Auto London 1969\04. Harry J. All Stars , Symarip - Heavy Heavy Monster Sound- Liquidator , Skinhead Moonstomp.wav

     Pre-gap length  0:00:02.00

     Peak level 100.0 %
     Extraction speed 29.4 X
     Track quality 99.9 %
     Test CRC 816EBE75
     Copy CRC 816EBE75
     Copy OK

Track  5

     Filename C:\temp\Grand Theft Auto London 1969\05. Riz Ortolani - Blowup Radio- Beat Fuga Shake.wav

     Pre-gap length  0:00:02.00

     Peak level 100.0 %
     Extraction speed 24.9 X
     Track quality 100.0 %
     Test CRC 82776E75
     Copy CRC 82776E75
     Copy OK

Track  6

     Filename C:\temp\Grand Theft Auto London 1969\06. Francesco De Masi & Alessandro Alessandroni - Kaleidoscope- Hot Camera Shake , L'uomo che saprà.wav

     Pre-gap length  0:00:02.00

     Peak level 100.0 %
     Extraction speed 42.6 X
     Track quality 100.0 %
     Test CRC 0638EE86
     Copy CRC 0638EE86
     Copy OK

Track  7

     Filename C:\temp\Grand Theft Auto London 1969\07. Francesco De Masi & Alessandro Alessandroni - Sound of Soho- Tema di Londra , [unknown].wav

     Pre-gap length  0:00:02.00

     Peak level 100.0 %
     Extraction speed 34.9 X
     Track quality 100.0 %
     Test CRC 964D75BD
     Copy CRC 964D75BD
     Copy OK

Track  8

     Filename C:\temp\Grand Theft Auto London 1969\08. Riz Ortolani - Radio Penelope- The Roaring Twenties , Teresa l'illusa.wav

     Pre-gap length  0:00:01.74

     Peak level 100.0 %
     Extraction speed 26.7 X
     Track quality 100.0 %
     Test CRC D42F93F7
     Copy CRC D42F93F7
     Copy OK

Track  9

     Filename C:\temp\Grand Theft Auto London 1969\09. Riz Ortolani - Radio Andorra- Tiffany Sequence M. 8 , Tiffany Sequence M. 22.wav

     Pre-gap length  0:00:02.00

     Peak level 100.0 %
     Extraction speed 31.2 X
     Track quality 100.0 %
     Test CRC C0919BB9
     Copy CRC C0919BB9
     Copy OK

Track 10

     Filename C:\temp\Grand Theft Auto London 1969\10. Gian Franco Reverberi - Westminster Wireless- Le malizie di Venere- Seq. 3 , Le malizie di Venere- Seq. 4 , Le malizie di Venere- Seq. 6.wav

     Pre-gap length  0:00:01.74

     Peak level 92.8 %
     Extraction speed 29.8 X
     Track quality 99.9 %
     Test CRC 9C9DA670
     Copy CRC 9C9DA670
     Copy OK

Track 11

     Filename C:\temp\Grand Theft Auto London 1969\11. [unknown] - Radio 7- [unknown] , [unknown].wav

     Pre-gap length  0:00:02.00

     Peak level 94.9 %
     Extraction speed 25.9 X
     Track quality 100.0 %
     Test CRC 36440EEA
     Copy CRC 36440EEA
     Copy OK

Track 12

     Filename C:\temp\Grand Theft Auto London 1969\12. [no artist] - Police Radio Track.wav

     Pre-gap length  0:00:02.00

     Peak level 45.0 %
     Extraction speed 30.7 X
     Track quality 100.0 %
     Test CRC BE60056A
     Copy CRC BE60056A
     Copy OK

Track 13

     Filename C:\temp\Grand Theft Auto London 1969\13. Charlie Clarke feat. JL, Sarah Daly & Paul Powell - GTA Pomp.wav

     Pre-gap length  0:00:02.00

     Peak level 86.9 %
     Extraction speed 26.7 X
     Track quality 100.0 %
     Test CRC 63F2A21C
     Copy CRC 63F2A21C
     Copy OK

Track 14

     Filename C:\temp\Grand Theft Auto London 1969\14. Charlie Clarke feat. JL, Sarah Daly & Paul Powell - GTA Spy.wav

     Pre-gap length  0:00:06.53

     Peak level 94.0 %
     Extraction speed 28.3 X
     Track quality 100.0 %
     Test CRC EF404BB8
     Copy CRC EF404BB8
     Copy OK

Track 15

     Filename C:\temp\Grand Theft Auto London 1969\15. [no artist] - [ambience].wav

     Pre-gap length  0:00:02.00

     Peak level 55.7 %
     Extraction speed 29.1 X
     Track quality 100.0 %
     Test CRC 80D38297
     Copy CRC 80D38297
     Copy OK

Track 16

     Filename C:\temp\Grand Theft Auto London 1969\16. Chris Sears feat. Jim Browski, Dr. Gilo Allen & Duncan 'limpdick' Scott - Austin Allegro Drag Race.wav

     Pre-gap length  0:00:01.74

     Peak level 82.3 %
     Extraction speed 35.5 X
     Track quality 99.9 %
     Test CRC A39C362F
     Copy CRC A39C362F
     Copy OK

No errors occurred

End of status report

---- CUETools DB Plugin V2.1.3

[CTDB TOCID: 13d3Znfpzm9vrbA22d0iU88qAaI-] found, Submit result: unrecognized or virtual drive
[3c7907e6] (1/1) Accurately ripped


==== Log checksum 253E27695D52A20433656A9B9E6EAE41D658E2CBBFC283CE80491FD364117738 ====

cue sheet from EAC log (without editing)
Code: [Select]
REM GENRE Other
REM DATE ----
REM DISCID DB0E8810
REM COMMENT "CUE Corrector v. 7.5.2 / b. 567 (Sep. 27, 2015)"
PERFORMER "Various Artists"
TITLE "Grand Theft Auto: London 1969"
FILE "<data>.iso" BINARY
  TRACK 01 MODEx/2xxx
   TITLE "Unknown Title"
   PERFORMER "Various Artists"
   INDEX 01 00:00:00
  TRACK 02 AUDIO
   TITLE "Gian Franco Reverberi-Le Malizie Di Venere-Seq. 3"
   PERFORMER "Various Artists"
   INDEX 00 04:03:37
FILE "02. Gian Franco Reverberi - Le malizie di Venere- Seq. 3.flac" WAVE
   INDEX 01 00:00:00
  TRACK 03 AUDIO
   TITLE "The Upsetters-Bush Sounds-Return Of Django, Dollar In The Teeth"
   PERFORMER "Various Artists"
   INDEX 00 01:29:02
FILE "03. The Upsetters - Bush Sounds- Return of Django , Dollar in the Teeth.flac" WAVE
   INDEX 01 00:00:00
  TRACK 04 AUDIO
   TITLE "Harry J. All Stars, Symarip-Heavy Heavy Monster Sound-Liquidator, Skinhead Moonstomp"
   PERFORMER "Various Artists"
   INDEX 00 04:40:59
FILE "04. Harry J. All Stars , Symarip - Heavy Heavy Monster Sound- Liquidator , Skinhead Moonstomp.flac" WAVE
   INDEX 01 00:00:00
  TRACK 05 AUDIO
   TITLE "Riz Ortolani-Blowup Radio-Beat Fuga Shake"
   PERFORMER "Various Artists"
   INDEX 00 05:43:48
FILE "05. Riz Ortolani - Blowup Radio- Beat Fuga Shake.flac" WAVE
   INDEX 01 00:00:00
  TRACK 06 AUDIO
   TITLE "Francesco De Masi & Alessandro Alessandroni-Kaleidoscope-Hot Camera Shake, L'uomo Che Saprà"
   PERFORMER "Various Artists"
   INDEX 00 01:52:73
FILE "06. Francesco De Masi & Alessandro Alessandroni - Kaleidoscope- Hot Camera Shake , L'uomo che saprà.wav" WAVE
   INDEX 01 00:00:00
  TRACK 07 AUDIO
   TITLE "Francesco De Masi & Alessandro Alessandroni-Sound Of Soho-Tema Di Londra, (Unknown)"
   PERFORMER "Various Artists"
   INDEX 00 03:10:26
FILE "07. Francesco De Masi & Alessandro Alessandroni - Sound of Soho- Tema di Londra , [unknown].flac" WAVE
   INDEX 01 00:00:00
  TRACK 08 AUDIO
   TITLE "Riz Ortolani-Radio Penelope-The Roaring Twenties, Teresa L'illusa"
   PERFORMER "Various Artists"
   INDEX 00 04:58:27
FILE "08. Riz Ortolani - Radio Penelope- The Roaring Twenties , Teresa l'illusa.flac" WAVE
   INDEX 01 00:00:00
  TRACK 09 AUDIO
   TITLE "Riz Ortolani-Radio Andorra-Tiffany Sequence M. 8, Tiffany Sequence M. 22"
   PERFORMER "Various Artists"
   INDEX 00 06:58:54
FILE "09. Riz Ortolani - Radio Andorra- Tiffany Sequence M. 8 , Tiffany Sequence M. 22.flac" WAVE
   INDEX 01 00:00:00
  TRACK 10 AUDIO
   TITLE "Gian Franco Reverberi-Westminster Wireless-Le Malizie Di Venere-Seq. 3, Le Malizie Di Venere-Seq. 4, Le Malizie Di Venere-Seq. 6"
   PERFORMER "Various Artists"
   INDEX 00 02:20:30
FILE "10. Gian Franco Reverberi - Westminster Wireless- Le malizie di Venere- Seq. 3 , Le malizie di Venere- Seq. 4 , Le malizie di Venere- Seq. 6.flac" WAVE
   INDEX 01 00:00:00
  TRACK 11 AUDIO
   TITLE "Unknown) -Radio 7-(Unknown) , (Unknown)"
   PERFORMER "Various Artists"
   INDEX 00 07:16:18
FILE "11. [unknown] - Radio 7- [unknown] , [unknown].flac" WAVE
   INDEX 01 00:00:00
  TRACK 12 AUDIO
   TITLE "No Artist) -Police Radio Track"
   PERFORMER "Various Artists"
   INDEX 00 05:46:24
FILE "12. [no artist] - Police Radio Track.flac" WAVE
   INDEX 01 00:00:00
  TRACK 13 AUDIO
   TITLE "Charlie Clarke Feat. Jl, Sarah Daly & Paul Powell-Gta Pomp"
   PERFORMER "Various Artists"
   INDEX 00 03:07:46
FILE "13. Charlie Clarke feat. JL, Sarah Daly & Paul Powell - GTA Pomp.flac" WAVE
   INDEX 01 00:00:00
  TRACK 14 AUDIO
   TITLE "Charlie Clarke Feat. Jl, Sarah Daly & Paul Powell-Gta Spy"
   PERFORMER "Various Artists"
   INDEX 00 02:39:36
FILE "14. Charlie Clarke feat. JL, Sarah Daly & Paul Powell - GTA Spy.flac" WAVE
   INDEX 01 00:00:00
  TRACK 15 AUDIO
   TITLE "No Artist) -(Ambience)"
   PERFORMER "Various Artists"
   INDEX 00 02:58:12
FILE "15. [no artist] - [ambience].flac" WAVE
   INDEX 01 00:00:00
  TRACK 16 AUDIO
   TITLE "Chris Sears Feat. Jim Browski, Dr. Gilo Allen & Duncan 'Limpdick' Scott-Austin Allegro Drag Race"
   PERFORMER "Various Artists"
   INDEX 00 01:08:60
FILE "16. Chris Sears feat. Jim Browski, Dr. Gilo Allen & Duncan 'limpdick' Scott - Austin Allegro Drag Race.flac" WAVE
   INDEX 01 00:00:00

  • alondon
  • [*][*]
Create cue sheet from EAC log
Reply #12

  • greynol
  • [*][*][*][*][*]
  • Global Moderator
Create cue sheet from EAC log
Reply #13
Thanks for keeping the site alive, and while you haven't been around much lately, I appreciate that you've demonstrated that you're interested in more than just dropping links.
13 February 2016: The world was blessed with the passing of a truly vile and wretched person.

Your eyes cannot hear.

  • ssri
  • [*]
Create cue sheet from EAC log
Reply #14
     > "Edit a copy of the EAC v1.0 log to make it resemble a v.99 log"

I am curious for knowledge...
Could you please explain to me, and anyone else reading this thread, what is the difference between 1.0 and 0.9 cue sheets?
One cue sheet is more "compliant" than the other with regards to what ...a particular program? ...a particular specification?
Are these facts documented anywhere?
Thankyou.
I don't know why this hasn't been answered, but for the sake of FYI and google searches (how I found this thread) it is two simple steps.  This assumes that one analyzed for pre-gaps (F4) before ripping.  First, one replaces the first line with the appropriate EAC version recognized by http://eachelper.host56.com/convloghtml.php:

Code: [Select]
Exact Audio Copy V1.1 from 23. June 2015

to
Code: [Select]
Exact Audio Copy V0.99 prebeta 4 from 23. January 2008


Second, with new EAC logs, if one has CUETools plugins installed, there will be additional information after the line "End of status report".  Simply delete everything after "End of status report".  After performing these two steps, the 1.0+ log will now be compatible with the log2cue converter.

I tested it out with one of my recent CD rips and the accuraterip logs from CUETools both old and new (edited) cues.
  • Last Edit: 30 November, 2015, 01:29:17 PM by ssri

  • greynol
  • [*][*][*][*][*]
  • Global Moderator
Create cue sheet from EAC log
Reply #15
Besides the obvious differences that can be seen via visual inspection, the new logs are in unicode.
13 February 2016: The world was blessed with the passing of a truly vile and wretched person.

Your eyes cannot hear.