Hydrogenaudio Forums

CD-R and Audio Hardware => CD Hardware/Software => Topic started by: JERECHO on 2011-05-11 13:22:18

Title: Create cue sheet from EAC log
Post by: JERECHO on 2011-05-11 13:22:18
Can I somehow create a cue sheet from a v1.0 EAC log extraction file?
Title: Create cue sheet from EAC log
Post by: HotShotFR on 2011-05-11 13:42:59
EAC Helper's Log2Cue webpage:
http://eachelper.uphero.com/convloghtml.php (http://eachelper.uphero.com/convloghtml.php)

Never had to use it myself, but probably worth a try.
Title: Create cue sheet from EAC log
Post by: mjb2006 on 2011-05-11 23:36:10
This thread belongs in General Audio, not Lossless.

You can derive a cue sheet from a rip log, but it will only be correct if the following conditions are met:

Why not just stick the disc back in the drive and have EAC generate a cue sheet from it?
Title: Create cue sheet from EAC log
Post by: pdq on 2011-05-12 13:42:11
Why not just stick the disc back in the drive and have EAC generate a cue sheet from it?

Unless, of course, you never had the original CD.

Edit: This probably belongs in CD Hardware/Software.
Title: Create cue sheet from EAC log
Post by: Engelsstaub on 2011-05-13 03:37:51
Can I somehow create a cue sheet from a v1.0 EAC log extraction file?


Edit a copy of the EAC v1.0 log to make it resemble a v.99 log. I'm guessing you probably have one on hand somewhere. From thence you would proceed to the aforementioned site linked by HotShot FR and do your thing. (It wouldn't be as difficult to do this as it sound...just open both in your text editor. Use the Log to Cue option with current gaps as the setting on the EAC Helper.)

BTW, people here are pretty judgmental about P2P and such as you can see.  That should work out for you though. If you need any other help don't be afraid to ask (me, if no one else here.)
Title: Create cue sheet from EAC log
Post by: Steenbreek on 2011-06-07 22:48:38
EAC Helper's Log2Cue webpage:
http://eachelper.uphero.com/convloghtml.php (http://eachelper.uphero.com/convloghtml.php)

Never had to use it myself, but probably worth a try.


Sadly the site has moved again. Where? Unknown to me.
Title: Create cue sheet from EAC log
Post by: mjb2006 on 2011-06-09 00:04:52
It was down for a while, but is back, as of a few hours ago.

http://eachelper.uphero.com/ (http://eachelper.uphero.com/)

The admin told me it was just down due to technical difficulties; his ISP had botched some "maintenance".
Title: Create cue sheet from EAC log
Post by: derty2 on 2011-06-09 00:56:22
     > "Edit a copy of the EAC v1.0 log to make it resemble a v.99 log"

I am curious for knowledge...
Could you please explain to me, and anyone else reading this thread, what is the difference between 1.0 and 0.9 cue sheets?
One cue sheet is more "compliant" than the other with regards to what ...a particular program? ...a particular specification?
Are these facts documented anywhere?
Thankyou.
Title: Create cue sheet from EAC log
Post by: HotShotFR on 2011-06-09 04:21:24
Unless, of course, you never had the original CD.

Unless, of course, you have to live for a few months/years some 1000 miles from your original CDs.

That's quite off-topic, anyway - and on the wrong forum category, agreed
Title: Create cue sheet from EAC log
Post by: db1989 on 2011-06-09 04:27:30
     > "Edit a copy of the EAC v1.0 log to make it resemble a v.99 log"

I am curious for knowledge...
Could you please explain to me, and anyone else reading this thread, what is the difference between 1.0 and 0.9 cue sheets?
They said log, not cue sheet. Presumably the utility only works with the older version’s log files.

Quote
One cue sheet is more "compliant" than the other with regards to what ...a particular program? ...a particular specification?
Are these facts documented anywhere?
Googling cue specification is a fair start. Oft-cited is the CDRWIN version, since it pioneered the format. Specifically, declared tracks are not supposed to comprise audio from more than one file, as occurs in “noncompliant” cue sheets where the pregap (INDEX 00) of one track is taken from the file of the one prior.
Title: Create cue sheet from EAC log
Post by: shantiq on 2015-09-03 11:29:50
EAC Helper's Log2Cue webpage: [2015]
http://eachelper.atwebpages.com/convlog.php (http://eachelper.atwebpages.com/convlog.php)
Title: Create cue sheet from EAC log
Post by: Mr.Fox on 2015-09-27 15:32:20
CUE Corrector can create cuesheet from log.
for windows http://cuecorrector.ucoz.net (http://cuecorrector.ucoz.net)
original cue sheet
Code: [Select]
REM DATE 1999
REM DISCID DB0E8810
REM COMMENT "ExactAudioCopy v1.0b3"
PERFORMER "Various Artists"
TITLE "Grand Theft Auto: London 1969"
FILE "<Filename>.iso" BINARY
  TRACK 01 MODEx/2xxx
    TITLE "[data track]"
    PERFORMER "[data]"
    INDEX 01 00:00:00
  TRACK 02 AUDIO
    TITLE "Le malizie di Venere: Seq. 3"
    PERFORMER "Gian Franco Reverberi"
    INDEX 00 04:03:37
FILE "02. Gian Franco Reverberi - Le malizie di Venere- Seq. 3.wav" WAVE
    INDEX 01 00:00:00
  TRACK 03 AUDIO
    TITLE "Bush Sounds: Return of Django / Dollar in the Teeth"
    PERFORMER "The Upsetters"
    INDEX 00 01:29:02
FILE "03. The Upsetters - Bush Sounds- Return of Django , Dollar in the Teeth.wav" WAVE
    INDEX 01 00:00:00
  TRACK 04 AUDIO
    TITLE "Heavy Heavy Monster Sound: Liquidator / Skinhead Moonstomp"
    PERFORMER "Harry J. All Stars / Symarip"
    INDEX 00 04:40:59
FILE "04. Harry J. All Stars , Symarip - Heavy Heavy Monster Sound- Liquidator , Skinhead Moonstomp.wav" WAVE
    INDEX 01 00:00:00
  TRACK 05 AUDIO
    TITLE "Blowup Radio: Beat Fuga Shake"
    PERFORMER "Riz Ortolani"
    INDEX 00 05:43:48
FILE "05. Riz Ortolani - Blowup Radio- Beat Fuga Shake.wav" WAVE
    INDEX 01 00:00:00
  TRACK 06 AUDIO
    TITLE "Kaleidoscope: Hot Camera Shake / L'uomo che sapra"
    PERFORMER "Francesco De Masi & Alessandro Alessandroni"
    INDEX 00 01:52:73
FILE "06. Francesco De Masi & Alessandro Alessandroni - Kaleidoscope- Hot Camera Shake , L'uomo che sapra.wav" WAVE
    INDEX 01 00:00:00
  TRACK 07 AUDIO
    TITLE "Sound of Soho: Tema di Londra / [unknown]"
    PERFORMER "Francesco De Masi & Alessandro Alessandroni"
    INDEX 00 03:10:26
FILE "07. Francesco De Masi & Alessandro Alessandroni - Sound of Soho- Tema di Londra , [unknown].wav" WAVE
    INDEX 01 00:00:00
  TRACK 08 AUDIO
    TITLE "Radio Penelope: The Roaring Twenties / Teresa l'illusa"
    PERFORMER "Riz Ortolani"
    INDEX 00 04:58:27
FILE "08. Riz Ortolani - Radio Penelope- The Roaring Twenties , Teresa l'illusa.wav" WAVE
    INDEX 01 00:00:00
  TRACK 09 AUDIO
    TITLE "Radio Andorra: Tiffany Sequence M. 8 / Tiffany Sequence M. 22"
    PERFORMER "Riz Ortolani"
    INDEX 00 06:58:54
FILE "09. Riz Ortolani - Radio Andorra- Tiffany Sequence M. 8 , Tiffany Sequence M. 22.wav" WAVE
    INDEX 01 00:00:00
  TRACK 10 AUDIO
    TITLE "Westminster Wireless: Le malizie di Venere: Seq. 3 / Le malizie di Venere: Se..."
    PERFORMER "Gian Franco Reverberi"
    INDEX 00 02:20:30
FILE "10. Gian Franco Reverberi - Westminster Wireless- Le malizie di Venere- Seq. 3 , Le malizie di Venere- Seq. 4 , Le malizie di Venere- Seq. 6.wav" WAVE
    INDEX 01 00:00:00
  TRACK 11 AUDIO
    TITLE "Radio 7: [unknown] / [unknown]"
    PERFORMER "[unknown]"
    INDEX 00 07:16:18
FILE "11. [unknown] - Radio 7- [unknown] , [unknown].wav" WAVE
    INDEX 01 00:00:00
  TRACK 12 AUDIO
    TITLE "Police Radio Track"
    PERFORMER "[no artist]"
    INDEX 00 05:46:24
FILE "12. [no artist] - Police Radio Track.wav" WAVE
    INDEX 01 00:00:00
  TRACK 13 AUDIO
    TITLE "GTA Pomp"
    PERFORMER "Charlie Clarke feat. JL, Sarah Daly & Paul Powell"
    INDEX 00 03:07:46
FILE "13. Charlie Clarke feat. JL, Sarah Daly & Paul Powell - GTA Pomp.wav" WAVE
    INDEX 01 00:00:00
  TRACK 14 AUDIO
    TITLE "GTA Spy"
    PERFORMER "Charlie Clarke feat. JL, Sarah Daly & Paul Powell"
    INDEX 00 02:39:36
FILE "14. Charlie Clarke feat. JL, Sarah Daly & Paul Powell - GTA Spy.wav" WAVE
    INDEX 01 00:00:00
  TRACK 15 AUDIO
    TITLE "[ambience]"
    PERFORMER "[no artist]"
    INDEX 00 02:58:12
FILE "15. [no artist] - [ambience].wav" WAVE
    INDEX 01 00:00:00
  TRACK 16 AUDIO
    TITLE "Austin Allegro Drag Race"
    PERFORMER "Chris Sears feat. Jim Browski, Dr. Gilo Allen & Duncan 'limpdick' Scott"
    INDEX 00 01:08:60
FILE "16. Chris Sears feat. Jim Browski, Dr. Gilo Allen & Duncan 'limpdick' Scott - Austin Allegro Drag Race.wav" WAVE
    INDEX 01 00:00:00
EAC log
Code: [Select]
Exact Audio Copy V1.0 beta 3 from 29. August 2011

EAC extraction logfile from 12. February 2015, 22:16

Various Artists / Grand Theft Auto: London 1969

Used drive  : DTSOFT  BDROM  Adapter: 2  ID: 0

Read mode              : Secure
Utilize accurate stream : Yes
Defeat audio cache      : Yes
Make use of C2 pointers : No

Read offset correction                      : 0
Overread into Lead-In and Lead-Out          : No
Fill up missing offset samples with silence : Yes
Delete leading and trailing silent blocks  : No
Null samples used in CRC calculations      : Yes
Used interface                              : Native Win32 interface for Win NT & 2000
Gap handling                                : Appended to previous track

Used output format              : User Defined Encoder
Selected bitrate                : 768 kBit/s
Quality                        : High
Add ID3 tag                    : No
Command line compressor        : C:\Program Files (x86)\Exact Audio Copy\FLAC\FLAC.EXE
Additional command line options : -6 -V -T "ARTIST=%artist%" -T "TITLE=%title%" -T "ALBUM=%albumtitle%" -T "DATE=%year%" -T "TRACKNUMBER=%tracknr%" -T "GENRE=%genre%" -T "COMMENT=%comment%" -T "BAND=%albuminterpret%" -T "ALBUMARTIST=%albuminterpret%" -T "COMPOSER=%composer%" %haslyrics%--tag-from-file=LYRICS="%lyricsfile%"%haslyrics% -T "DISCNUMBER=%cdnumber%" -T "TOTALDISCS=%totalcds%" -T "TOTALTRACKS=%numtracks%" %hascover%--picture="%coverfile%"%hascover% %source% -o %dest%


TOC of the extracted CD

    Track |  Start  |  Length  | Start sector | End sector
    ---------------------------------------------------------
        1  |  0:00.00 |  4:05.36 |        0    |    18410 
        2  |  4:05.36 |  1:31.02 |    18411    |    25237 
        3  |  5:36.38 |  4:42.59 |    25238    |    46446 
        4  | 10:19.22 |  5:45.48 |    46447    |    72369 
        5  | 16:04.70 |  1:54.73 |    72370    |    80992 
        6  | 17:59.68 |  3:12.26 |    80993    |    95418 
        7  | 21:12.19 |  5:00.26 |    95419    |  117944 
        8  | 26:12.45 |  7:00.54 |    117945    |  149498 
        9  | 33:13.24 |  2:22.29 |    149499    |  160177 
      10  | 35:35.53 |  7:18.18 |    160178    |  193045 
      11  | 42:53.71 |  5:48.24 |    193046    |  219169 
      12  | 48:42.20 |  3:09.46 |    219170    |  233390 
      13  | 51:51.66 |  2:46.14 |    233391    |  245854 
      14  | 54:38.05 |  3:00.12 |    245855    |  259366 
      15  | 57:38.17 |  1:10.59 |    259367    |  264675 
      16  | 58:49.01 |  3:11.45 |    264676    |  279045 


Track  2

    Filename C:\temp\Grand Theft Auto London 1969\02. Gian Franco Reverberi - Le malizie di Venere- Seq. 3.wav

    Pre-gap length  0:00:01.74

    Peak level 72.4 %
    Extraction speed 23.9 X
    Track quality 100.0 %
    Test CRC C75EE2B9
    Copy CRC C75EE2B9
    Copy OK

Track  3

    Filename C:\temp\Grand Theft Auto London 1969\03. The Upsetters - Bush Sounds- Return of Django , Dollar in the Teeth.wav

    Pre-gap length  0:00:02.00

    Peak level 95.4 %
    Extraction speed 35.6 X
    Track quality 100.0 %
    Test CRC 7A76A64A
    Copy CRC 7A76A64A
    Copy OK

Track  4

    Filename C:\temp\Grand Theft Auto London 1969\04. Harry J. All Stars , Symarip - Heavy Heavy Monster Sound- Liquidator , Skinhead Moonstomp.wav

    Pre-gap length  0:00:02.00

    Peak level 100.0 %
    Extraction speed 29.4 X
    Track quality 99.9 %
    Test CRC 816EBE75
    Copy CRC 816EBE75
    Copy OK

Track  5

    Filename C:\temp\Grand Theft Auto London 1969\05. Riz Ortolani - Blowup Radio- Beat Fuga Shake.wav

    Pre-gap length  0:00:02.00

    Peak level 100.0 %
    Extraction speed 24.9 X
    Track quality 100.0 %
    Test CRC 82776E75
    Copy CRC 82776E75
    Copy OK

Track  6

    Filename C:\temp\Grand Theft Auto London 1969\06. Francesco De Masi & Alessandro Alessandroni - Kaleidoscope- Hot Camera Shake , L'uomo che saprà.wav

    Pre-gap length  0:00:02.00

    Peak level 100.0 %
    Extraction speed 42.6 X
    Track quality 100.0 %
    Test CRC 0638EE86
    Copy CRC 0638EE86
    Copy OK

Track  7

    Filename C:\temp\Grand Theft Auto London 1969\07. Francesco De Masi & Alessandro Alessandroni - Sound of Soho- Tema di Londra , [unknown].wav

    Pre-gap length  0:00:02.00

    Peak level 100.0 %
    Extraction speed 34.9 X
    Track quality 100.0 %
    Test CRC 964D75BD
    Copy CRC 964D75BD
    Copy OK

Track  8

    Filename C:\temp\Grand Theft Auto London 1969\08. Riz Ortolani - Radio Penelope- The Roaring Twenties , Teresa l'illusa.wav

    Pre-gap length  0:00:01.74

    Peak level 100.0 %
    Extraction speed 26.7 X
    Track quality 100.0 %
    Test CRC D42F93F7
    Copy CRC D42F93F7
    Copy OK

Track  9

    Filename C:\temp\Grand Theft Auto London 1969\09. Riz Ortolani - Radio Andorra- Tiffany Sequence M. 8 , Tiffany Sequence M. 22.wav

    Pre-gap length  0:00:02.00

    Peak level 100.0 %
    Extraction speed 31.2 X
    Track quality 100.0 %
    Test CRC C0919BB9
    Copy CRC C0919BB9
    Copy OK

Track 10

    Filename C:\temp\Grand Theft Auto London 1969\10. Gian Franco Reverberi - Westminster Wireless- Le malizie di Venere- Seq. 3 , Le malizie di Venere- Seq. 4 , Le malizie di Venere- Seq. 6.wav

    Pre-gap length  0:00:01.74

    Peak level 92.8 %
    Extraction speed 29.8 X
    Track quality 99.9 %
    Test CRC 9C9DA670
    Copy CRC 9C9DA670
    Copy OK

Track 11

    Filename C:\temp\Grand Theft Auto London 1969\11. [unknown] - Radio 7- [unknown] , [unknown].wav

    Pre-gap length  0:00:02.00

    Peak level 94.9 %
    Extraction speed 25.9 X
    Track quality 100.0 %
    Test CRC 36440EEA
    Copy CRC 36440EEA
    Copy OK

Track 12

    Filename C:\temp\Grand Theft Auto London 1969\12. [no artist] - Police Radio Track.wav

    Pre-gap length  0:00:02.00

    Peak level 45.0 %
    Extraction speed 30.7 X
    Track quality 100.0 %
    Test CRC BE60056A
    Copy CRC BE60056A
    Copy OK

Track 13

    Filename C:\temp\Grand Theft Auto London 1969\13. Charlie Clarke feat. JL, Sarah Daly & Paul Powell - GTA Pomp.wav

    Pre-gap length  0:00:02.00

    Peak level 86.9 %
    Extraction speed 26.7 X
    Track quality 100.0 %
    Test CRC 63F2A21C
    Copy CRC 63F2A21C
    Copy OK

Track 14

    Filename C:\temp\Grand Theft Auto London 1969\14. Charlie Clarke feat. JL, Sarah Daly & Paul Powell - GTA Spy.wav

    Pre-gap length  0:00:06.53

    Peak level 94.0 %
    Extraction speed 28.3 X
    Track quality 100.0 %
    Test CRC EF404BB8
    Copy CRC EF404BB8
    Copy OK

Track 15

    Filename C:\temp\Grand Theft Auto London 1969\15. [no artist] - [ambience].wav

    Pre-gap length  0:00:02.00

    Peak level 55.7 %
    Extraction speed 29.1 X
    Track quality 100.0 %
    Test CRC 80D38297
    Copy CRC 80D38297
    Copy OK

Track 16

    Filename C:\temp\Grand Theft Auto London 1969\16. Chris Sears feat. Jim Browski, Dr. Gilo Allen & Duncan 'limpdick' Scott - Austin Allegro Drag Race.wav

    Pre-gap length  0:00:01.74

    Peak level 82.3 %
    Extraction speed 35.5 X
    Track quality 99.9 %
    Test CRC A39C362F
    Copy CRC A39C362F
    Copy OK

No errors occurred

End of status report

---- CUETools DB Plugin V2.1.3

[CTDB TOCID: 13d3Znfpzm9vrbA22d0iU88qAaI-] found, Submit result: unrecognized or virtual drive
[3c7907e6] (1/1) Accurately ripped


==== Log checksum 253E27695D52A20433656A9B9E6EAE41D658E2CBBFC283CE80491FD364117738 ====

cue sheet from EAC log (without editing)
Code: [Select]
REM GENRE Other
REM DATE ----
REM DISCID DB0E8810
REM COMMENT "CUE Corrector v. 7.5.2 / b. 567 (Sep. 27, 2015)"
PERFORMER "Various Artists"
TITLE "Grand Theft Auto: London 1969"
FILE "<data>.iso" BINARY
  TRACK 01 MODEx/2xxx
    TITLE "Unknown Title"
    PERFORMER "Various Artists"
    INDEX 01 00:00:00
  TRACK 02 AUDIO
    TITLE "Gian Franco Reverberi-Le Malizie Di Venere-Seq. 3"
    PERFORMER "Various Artists"
    INDEX 00 04:03:37
FILE "02. Gian Franco Reverberi - Le malizie di Venere- Seq. 3.flac" WAVE
    INDEX 01 00:00:00
  TRACK 03 AUDIO
    TITLE "The Upsetters-Bush Sounds-Return Of Django, Dollar In The Teeth"
    PERFORMER "Various Artists"
    INDEX 00 01:29:02
FILE "03. The Upsetters - Bush Sounds- Return of Django , Dollar in the Teeth.flac" WAVE
    INDEX 01 00:00:00
  TRACK 04 AUDIO
    TITLE "Harry J. All Stars, Symarip-Heavy Heavy Monster Sound-Liquidator, Skinhead Moonstomp"
    PERFORMER "Various Artists"
    INDEX 00 04:40:59
FILE "04. Harry J. All Stars , Symarip - Heavy Heavy Monster Sound- Liquidator , Skinhead Moonstomp.flac" WAVE
    INDEX 01 00:00:00
  TRACK 05 AUDIO
    TITLE "Riz Ortolani-Blowup Radio-Beat Fuga Shake"
    PERFORMER "Various Artists"
    INDEX 00 05:43:48
FILE "05. Riz Ortolani - Blowup Radio- Beat Fuga Shake.flac" WAVE
    INDEX 01 00:00:00
  TRACK 06 AUDIO
    TITLE "Francesco De Masi & Alessandro Alessandroni-Kaleidoscope-Hot Camera Shake, L'uomo Che Saprà"
    PERFORMER "Various Artists"
    INDEX 00 01:52:73
FILE "06. Francesco De Masi & Alessandro Alessandroni - Kaleidoscope- Hot Camera Shake , L'uomo che saprà.wav" WAVE
    INDEX 01 00:00:00
  TRACK 07 AUDIO
    TITLE "Francesco De Masi & Alessandro Alessandroni-Sound Of Soho-Tema Di Londra, (Unknown)"
    PERFORMER "Various Artists"
    INDEX 00 03:10:26
FILE "07. Francesco De Masi & Alessandro Alessandroni - Sound of Soho- Tema di Londra , [unknown].flac" WAVE
    INDEX 01 00:00:00
  TRACK 08 AUDIO
    TITLE "Riz Ortolani-Radio Penelope-The Roaring Twenties, Teresa L'illusa"
    PERFORMER "Various Artists"
    INDEX 00 04:58:27
FILE "08. Riz Ortolani - Radio Penelope- The Roaring Twenties , Teresa l'illusa.flac" WAVE
    INDEX 01 00:00:00
  TRACK 09 AUDIO
    TITLE "Riz Ortolani-Radio Andorra-Tiffany Sequence M. 8, Tiffany Sequence M. 22"
    PERFORMER "Various Artists"
    INDEX 00 06:58:54
FILE "09. Riz Ortolani - Radio Andorra- Tiffany Sequence M. 8 , Tiffany Sequence M. 22.flac" WAVE
    INDEX 01 00:00:00
  TRACK 10 AUDIO
    TITLE "Gian Franco Reverberi-Westminster Wireless-Le Malizie Di Venere-Seq. 3, Le Malizie Di Venere-Seq. 4, Le Malizie Di Venere-Seq. 6"
    PERFORMER "Various Artists"
    INDEX 00 02:20:30
FILE "10. Gian Franco Reverberi - Westminster Wireless- Le malizie di Venere- Seq. 3 , Le malizie di Venere- Seq. 4 , Le malizie di Venere- Seq. 6.flac" WAVE
    INDEX 01 00:00:00
  TRACK 11 AUDIO
    TITLE "Unknown) -Radio 7-(Unknown) , (Unknown)"
    PERFORMER "Various Artists"
    INDEX 00 07:16:18
FILE "11. [unknown] - Radio 7- [unknown] , [unknown].flac" WAVE
    INDEX 01 00:00:00
  TRACK 12 AUDIO
    TITLE "No Artist) -Police Radio Track"
    PERFORMER "Various Artists"
    INDEX 00 05:46:24
FILE "12. [no artist] - Police Radio Track.flac" WAVE
    INDEX 01 00:00:00
  TRACK 13 AUDIO
    TITLE "Charlie Clarke Feat. Jl, Sarah Daly & Paul Powell-Gta Pomp"
    PERFORMER "Various Artists"
    INDEX 00 03:07:46
FILE "13. Charlie Clarke feat. JL, Sarah Daly & Paul Powell - GTA Pomp.flac" WAVE
    INDEX 01 00:00:00
  TRACK 14 AUDIO
    TITLE "Charlie Clarke Feat. Jl, Sarah Daly & Paul Powell-Gta Spy"
    PERFORMER "Various Artists"
    INDEX 00 02:39:36
FILE "14. Charlie Clarke feat. JL, Sarah Daly & Paul Powell - GTA Spy.flac" WAVE
    INDEX 01 00:00:00
  TRACK 15 AUDIO
    TITLE "No Artist) -(Ambience)"
    PERFORMER "Various Artists"
    INDEX 00 02:58:12
FILE "15. [no artist] - [ambience].flac" WAVE
    INDEX 01 00:00:00
  TRACK 16 AUDIO
    TITLE "Chris Sears Feat. Jim Browski, Dr. Gilo Allen & Duncan 'Limpdick' Scott-Austin Allegro Drag Race"
    PERFORMER "Various Artists"
    INDEX 00 01:08:60
FILE "16. Chris Sears feat. Jim Browski, Dr. Gilo Allen & Duncan 'limpdick' Scott - Austin Allegro Drag Race.flac" WAVE
    INDEX 01 00:00:00
Title: Create cue sheet from EAC log
Post by: alondon on 2015-09-29 20:49:29
EAC Helper's Log2Cue webpage: [2015]
http://eachelper.atwebpages.com/convlog.php (http://eachelper.atwebpages.com/convlog.php)



Also this addy

http://eachelper.host56.com/ (http://eachelper.host56.com/)
Title: Create cue sheet from EAC log
Post by: greynol on 2015-09-29 22:08:18
Thanks for keeping the site alive, and while you haven't been around much lately, I appreciate that you've demonstrated that you're interested in more than just dropping links.
Title: Create cue sheet from EAC log
Post by: ssri on 2015-11-30 18:06:42
     > "Edit a copy of the EAC v1.0 log to make it resemble a v.99 log"

I am curious for knowledge...
Could you please explain to me, and anyone else reading this thread, what is the difference between 1.0 and 0.9 cue sheets?
One cue sheet is more "compliant" than the other with regards to what ...a particular program? ...a particular specification?
Are these facts documented anywhere?
Thankyou.
I don't know why this hasn't been answered, but for the sake of FYI and google searches (how I found this thread) it is two simple steps.  This assumes that one analyzed for pre-gaps (F4) before ripping.  First, one replaces the first line with the appropriate EAC version recognized by http://eachelper.host56.com/convloghtml.php: (http://eachelper.host56.com/convloghtml.php:)

Code: [Select]
Exact Audio Copy V1.1 from 23. June 2015

to
Code: [Select]
Exact Audio Copy V0.99 prebeta 4 from 23. January 2008


Second, with new EAC logs, if one has CUETools plugins installed, there will be additional information after the line "End of status report".  Simply delete everything after "End of status report".  After performing these two steps, the 1.0+ log will now be compatible with the log2cue converter.

I tested it out with one of my recent CD rips and the accuraterip logs from CUETools both old and new (edited) cues.
Title: Create cue sheet from EAC log
Post by: greynol on 2015-11-30 18:17:31
Besides the obvious differences that can be seen via visual inspection, the new logs are in unicode.
Title: Re: Create cue sheet from EAC log
Post by: dpr on 2018-06-14 23:29:41
Is the source code for cue corrector available anywhere?

And an English version of the website...
Thanks
Title: Re: Create cue sheet from EAC log
Post by: Porcus on 2018-06-15 05:54:36
By now you could also consider CUETools [edit: if your point is to get .cue out of an EAC log as per topic title]. Source code on github.
Title: Re: Create cue sheet from EAC log
Post by: Mike457 on 2018-06-16 09:35:31
How is this done using CUETools exactly? Every time I try to use the "Create CUE sheet" option, I get a cue sheet that doesn't replicate the gaps correctly at all. The CUETools cue sheet has only INDEX 01 entries and no INDEX 00 entries. Furthermore, it doesn't have the CD-TEXT fields!! I suppose I don't understand how to load an EAC log into CUETools...
Title: Re: Create cue sheet from EAC log
Post by: Porcus on 2018-06-16 20:16:15
How is this done using CUETools exactly? Every time I try to use the "Create CUE sheet" option, I get a cue sheet that doesn't replicate the gaps correctly at all. The CUETools cue sheet has only INDEX 01 entries and no INDEX 00 entries. Furthermore, it doesn't have the CD-TEXT fields!! I suppose I don't understand how to load an EAC log into CUETools...
But this info is not in the EAC log at all, uh?
Title: Re: Create cue sheet from EAC log
Post by: greynol on 2018-06-17 01:57:38
Besides possibly before the first track, CT won't include 00 index information present in a log file, unless I'm recalling incorrectly. CD-TEXT information is not available in a log file, however.

All that said, what's the point in maintaining 00 index data?  Does anyone burn CDs anymore?  It seems like it's been a decade since I've even thought about this.

As for CD-TEXT, is it common?  How useful is it when CT can pull far better information from an online database. Just feed it the generic cue sheet when encoding.
Title: Re: Create cue sheet from EAC log
Post by: Porcus on 2018-06-17 14:36:47
All that said, what's the point in maintaining 00 index data?

A very few albums have bonus tracks in pregaps of tracks other than 1 (https://hydrogenaud.io/index.php/topic,4465.msg46585.html#msg46585) - but I don't even know any software media player solution that handles that the way a CD player does, so ...

Title: Re: Create cue sheet from EAC log
Post by: greynol on 2018-06-17 16:18:11
Data as in sub-channel as opposed to the audio data which is a different issue from that which is being asked.

Title: Re: Create cue sheet from EAC log
Post by: Porcus on 2018-06-17 16:39:23
Data as in sub-channel as opposed to the audio data which is a different issue from that which is being asked.

Nobody is talking about the audio, of course. Index points as (sub-)song boundaries OTOH:
Look at this CD. (https://en.wikipedia.org/wiki/Transmission_(The_Tea_Party_album)) The bonus track is track 9 index 0.
Title: Re: Create cue sheet from EAC log
Post by: greynol on 2018-06-17 17:10:08
That's plain silliness.  They (apparently there's a second one) aren't really even hidden despite what that wiki article says.
Title: Re: Create cue sheet from EAC log
Post by: Porcus on 2018-06-18 01:18:23
No, they are not "hidden".  But a physical CD player programmed to play track 8 and then 10, will skip the "bonus" track.

Had media players supported that behaviour (of a physical CD player), it would certainly have been a case for the index mark. But which do(es)?
Title: Re: Create cue sheet from EAC log
Post by: greynol on 2018-06-18 05:51:20
A player that emulates the behavior of a programmable CD player? Place me in the category of I don't know, I don't care.  I get a CD, I rip it and chop it up and/or do whatever else as I see fit and the CD goes in storage.  The last time I used a CD player was when I moved and that was all I had handy at the moment.

I've had this very discussion countless times over the last dozen or so years. Reading your posts on the subject feels like a regurgitation of stuff I've posted in the past.  In some cases you were even at the other end.  Not so much because you didn't care, but because you hadn't yet learned.

I've largely bailed from these discussions over the minutiae and rare cases of this or that. I really find no pleasure in them.

There are methods of adding index data from a log file. I've even created such a tool myself.   CT doesn't have this functionality.  My script can be found on this forum, though I can't be bothered to search for it.  AFAIC, there is really nothing more to say about it.
Title: Re: Create cue sheet from EAC log
Post by: Mike457 on 2018-06-18 07:49:03
This may surprise you greynol, but I still burn CDs for playing in my car. My car CD player reads CD-TEXT, so I do like it when I can have it.

As for CueTools, did we definitely settle the question of whether it can properly re-create the correct cue sheet or not?

greynol, I have read many posts from you of late that have the same message. If you think these issues are outdated, have been discussed before or are not worth your time, why bother even posting a response?
Title: Re: Create cue sheet from EAC log
Post by: Porcus on 2018-06-18 08:14:54
If you think these issues are outdated, have been discussed before or are not worth your time, why bother even posting a response?

... and building a straw man and going ad hominem ...? Intrinsic value. Outweighing the worthlessness of the topic.
Title: Re: Create cue sheet from EAC log
Post by: greynol on 2018-06-18 15:23:40
This may surprise you greynol, but I still burn CDs for playing in my car. My car CD player reads CD-TEXT, so I do like it when I can have it.

As for CueTools, did we definitely settle the question of whether it can properly re-create the correct cue sheet or not?

greynol, I have read many posts from you of late that have the same message. If you think these issues are outdated, have been discussed before or are not worth your time, why bother even posting a response?
Not surprised at all, believe it or not.

No matter how many times you ask the question, CT will not incorporate pregap information from a log file into a cue sheet.  Log files contain no cd-text so they are of zero use to you for that endeavor. Since you seem to holding out hope for a different answer (because you've been misled?) I decided to go ahead and make this clear one more time.  The whole spiel about hidden tracks and the like was off-topic.

Now it's your turn to tell me why you need pregap information in order to play burned copies of CDs in the car...

...or not, but I make no apologies for my contributions to this discussion.
Title: Re: Create cue sheet from EAC log
Post by: Mike457 on 2018-06-19 00:55:19
 ::)
Title: Re: Create cue sheet from EAC log
Post by: greynol on 2018-06-19 05:30:08
::)
Pardon me for assuming this means you don't have an answer to my question about whether pregap information is needed in order to play CDs in your car.  No worries, though; you have an out*.

Now that we got that sorted I think starting a new topic requesting that cuetools be able to incorporate pregap information from a log file into a cuesheet would be a good next step. What to do about the possibility that the times are in decimal should be part of that discussion.

As for this topic, CUETools doesn't work for your purposes.  *CD playback behavior or anything else like mining for titles that make use of pregaps for "creative" means, or otherwise, are off-topic in this discussion.

If there is any question as to what is on-topic, take the title of the discussion as a guideline.
Title: Re: Create cue sheet from EAC log
Post by: Mike457 on 2018-06-20 07:26:21
Sigh.

You really never do let up, do you? Is trolling people on these forums your only joy in life?

1) I put up my post in response to Porcus's recent post that CueTools could generate the CUE from log, which happens to be a topic that I'm interested in. I wasn't "mining for titles" as you suggested.

2) No, the pregap information is not *needed* for playback in car CD player. Again, I was interested in this topic, and I thought that this discussion might yield some fruitful information. Apparently, this is the wrong answer and I should have said that somehow my life depended on it, so it could justify your valuable "contributions" to this discussion.

3) You desperately need an attitude adjustment. I know you are knowledgeable as hell but I honestly can't remember the last time I read a post from you that had a straightforward answer without a heaping of attitude to go along with it.
Title: Re: Create cue sheet from EAC log
Post by: greynol on 2018-06-20 08:03:42
How is this done using CUETools exactly? [...]
Furthermore, it doesn't have the CD-TEXT fields!!

Besides possibly before the first track, CT won't include 00 index information present in a log file
CD-TEXT information is not available in a log file

What, not straight forward enough?

Oh right, the heaping attitude part.  Well I suppose I should stay in character then...

You really never do let up, do you?
Nope
Is trolling people on these forums your only joy in life?
Yep

I wasn't "mining for titles" as you suggested.
Why assume I was talking about you?  Are you the only other person involved in the discussion since I entered it?

the pregap information is not *needed* for playback in car CD player. Again, I was interested in this topic, and I thought that this discussion might yield some fruitful information. Apparently, this is the wrong answer and I should have said that somehow my life depended on it, so it could justify your valuable "contributions" to this discussion.
It seemed to me you simply wanted a problem solved.  I'm sorry for looking at this from a practical perspective without considering whether you actually wanted to dive deep into the minutia.

Life is too short:
CUETools is a fine tool to construct a cue sheet and fill it with CD-TEXT info.
Title: Re: Create cue sheet from EAC log
Post by: korth on 2018-06-23 14:41:42
I put up my post in response to Porcus's recent post that CueTools could generate the CUE from log, which happens to be a topic that I'm interested in.
I thought Porcus was replying to a request for source code and suggesting the OP also look at CUETools' source code.

Is the source code for cue corrector available anywhere?

And an English version of the website...
Thanks
By now you could also consider CUETools [edit: if your point is to get .cue out of an EAC log as per topic title]. Source code on github.


How is this done using CUETools exactly? Every time I try to use the "Create CUE sheet" option, I get a cue sheet that doesn't replicate the gaps correctly at all. The CUETools cue sheet has only INDEX 01 entries and no INDEX 00 entries. Furthermore, it doesn't have the CD-TEXT fields!! I suppose I don't understand how to load an EAC log into CUETools...
CUETools currently cannot create a CUE sheet if all you have is

As you already know
CUETools currently can create a simple CUE sheet from a set of track files* or extract an embedded CUE sheet from an image* using the 'Create CUE Sheet' tool.

CUETools currently can create a CUE sheet from a set of track files* and parse an EAC log for gap information using the Action: Encode.
tips
Code: [Select]
Exact Audio Copy V1.3 from 2. September 2016

EAC extraction logfile from 21. June 2018, 9:08

Styx / The Grand Illusion

Used drive  : ASUS    DRW-24B1ST   a   Adapter: 1  ID: 0

Read mode               : Secure
Utilize accurate stream : Yes
Defeat audio cache      : No
Make use of C2 pointers : No

Read offset correction                      : 6
Overread into Lead-In and Lead-Out          : No
Fill up missing offset samples with silence : Yes
Delete leading and trailing silent blocks   : No
Null samples used in CRC calculations       : Yes
Used interface                              : Native Win32 interface for Win NT & 2000
Gap handling                                : Appended to previous track

Used output format              : User Defined Encoder
Selected bitrate                : 1024 kBit/s
Quality                         : High
Add ID3 tag                     : No
Command line compressor         : E:\MyApps\AudTools\Exact Audio Copy\Flac\flac.exe
Additional command line options : -6 -T "ARTIST=%artist%" -T "TITLE=%title%" -T "ALBUM=%albumtitle%" -T "DATE=%year%"
-T "TRACKNUMBER=%tracknr%" -T "GENRE=%genre%" -T "COMMENT=%comment%" -T "ALBUMARTIST= %albumartist%"
-T "COMPOSER=%composer%" %haslyrics%--tag-from-file=LYRICS="%lyricsfile%"%haslyrics% -T "DISCNUMBER=%cdnumber%"
-T "TOTALDISCS=%totalcds%" -T "TOTALTRACKS=%numtracks%" %hascover%--picture="%coverfile%"%hascover% %source%


TOC of the extracted CD

     Track |   Start  |  Length  | Start sector | End sector
    ---------------------------------------------------------
        1  |  0:00.00 |  4:38.18 |         0    |    20867 
        2  |  4:38.18 |  5:31.25 |     20868    |    45717 
        3  | 10:09.43 |  4:02.57 |     45718    |    63924 
        4  | 14:12.25 |  6:08.25 |     63925    |    91549 
        5  | 20:20.50 |  5:04.03 |     91550    |   114352 
        6  | 25:24.53 |  5:51.47 |    114353    |   140724 
        7  | 31:16.25 |  6:00.00 |    140725    |   167724 
        8  | 37:16.25 |  1:57.55 |    167725    |   176554 


Track  1

     Filename 01 The Grand Illusion.wav

     Pre-gap length  0:00:02.00

     Peak level 100.0 %
     Extraction speed 5.6 X
     Track quality 99.9 %
     Copy CRC 98DCF831
     Accurately ripped (confidence 13)  [84A4965F]  (AR v2)
     Copy OK

Track  2

     Filename 02 Fooling Yourself (The Angry Young Man).wav

     Pre-gap length  0:00:01.25

     Peak level 100.0 %
     Extraction speed 6.6 X
     Track quality 99.9 %
     Copy CRC DD25D91C
     Accurately ripped (confidence 13)  [782A1C9E]  (AR v2)
     Copy OK

Track  3

     Filename 03 Superstars.wav

     Pre-gap length  0:00:03.28

     Peak level 100.0 %
     Extraction speed 7.4 X
     Track quality 100.0 %
     Copy CRC F4E9F4C0
     Accurately ripped (confidence 12)  [D486A74E]  (AR v2)
     Copy OK

Track  4

     Filename 04 Come Sail Away.wav

     Pre-gap length  0:00:03.60

     Peak level 100.0 %
     Extraction speed 8.2 X
     Track quality 100.0 %
     Copy CRC 41D59F5C
     Accurately ripped (confidence 12)  [188DA08E]  (AR v2)
     Copy OK

Track  5

     Filename 05 Miss America.wav

     Pre-gap length  0:00:02.60

     Peak level 99.5 %
     Extraction speed 8.7 X
     Track quality 100.0 %
     Copy CRC 40840ECF
     Accurately ripped (confidence 13)  [787799AD]  (AR v2)
     Copy OK

Track  6

     Filename 06 Man In The Wilderness.wav

     Pre-gap length  0:00:01.15

     Peak level 100.0 %
     Extraction speed 9.3 X
     Track quality 100.0 %
     Copy CRC 782A1C7C
     Accurately ripped (confidence 13)  [80F9231F]  (AR v2)
     Copy OK

Track  7

     Filename 07 Castle Walls.wav

     Pre-gap length  0:00:02.62

     Peak level 100.0 %
     Extraction speed 9.8 X
     Track quality 100.0 %
     Copy CRC 7A4EE833
     Accurately ripped (confidence 13)  [EF054206]  (AR v2)
     Copy OK

Track  8

     Filename 08 The Grand Finale.wav

     Peak level 100.0 %
     Extraction speed 9.8 X
     Track quality 100.0 %
     Copy CRC 9CDD59E5
     Accurately ripped (confidence 12)  [126A31DA]  (AR v2)
     Copy OK


All tracks accurately ripped

No errors occurred

End of status report


---- CUETools DB Plugin V2.1.6

[CTDB TOCID: rRcE7bbN4KblS7DsmdYuvSh042A-] found
Submit result: already submitted
Track | CTDB Status
  1   | (52/52) Accurately ripped
  2   | (52/52) Accurately ripped
  3   | (52/52) Accurately ripped
  4   | (51/52) Accurately ripped
  5   | (52/52) Accurately ripped
  6   | (51/52) Accurately ripped
  7   | (51/52) Accurately ripped
  8   | (52/52) Accurately ripped
Code: [Select]
REM COMMENT "CUETools generated dummy CUE sheet"
PERFORMER " Styx"
TITLE "The Grand Illusion"
REM DATE 1977
REM DISCNUMBER 1
REM TOTALDISCS 1
REM GENRE "Pop/Rock"
FILE "01 The Grand Illusion.flac" WAVE
  TRACK 01 AUDIO
    PERFORMER "Styx"
    TITLE "The Grand Illusion"
    INDEX 01 00:00:00
  TRACK 02 AUDIO
    PERFORMER "Styx"
    TITLE "Fooling Yourself (The Angry Young Man)"
    INDEX 00 04:36:74
FILE "02 Fooling Yourself (The Angry Young Man).flac" WAVE
    INDEX 01 00:00:00
  TRACK 03 AUDIO
    PERFORMER "Styx"
    TITLE "Superstars"
    INDEX 00 05:28:04
FILE "03 Superstars.flac" WAVE
    INDEX 01 00:00:00
  TRACK 04 AUDIO
    PERFORMER "Styx"
    TITLE "Come Sail Away"
    INDEX 00 03:59:12
FILE "04 Come Sail Away.flac" WAVE
    INDEX 01 00:00:00
  TRACK 05 AUDIO
    PERFORMER "Styx"
    TITLE "Miss America"
    INDEX 00 06:05:55
FILE "05 Miss America.flac" WAVE
    INDEX 01 00:00:00
  TRACK 06 AUDIO
    PERFORMER "Styx"
    TITLE "Man In The Wilderness"
    INDEX 00 05:02:67
FILE "06 Man In The Wilderness.flac" WAVE
    INDEX 01 00:00:00
  TRACK 07 AUDIO
    PERFORMER "Styx"
    TITLE "Castle Walls"
    INDEX 00 05:49:00
FILE "07 Castle Walls.flac" WAVE
    INDEX 01 00:00:00
FILE "08 The Grand Finale.flac" WAVE
  TRACK 08 AUDIO
    PERFORMER "Styx"
    TITLE "The Grand Finale"
    INDEX 01 00:00:00


*audio files must be uncompressed or lossless compressed Red Book 2-channel 16-bit LPCM sampled at 44,100 Hz

Title: Re: Create cue sheet from EAC log
Post by: Pepzhez on 2018-06-26 13:10:59
Provided of course that one has the necessary files and EAC log, I  find it easier to create a CUE sheet in CUETools using the "verify" command, then "create CUE sheet". In that order. If you do not verify first, the CUE sheet will not contain the pre-gap data. Also, it is important to keep in mind that CUETools assumes that all pre-gap values in the log are expressed in hundredths of a second, not frames, and the CUE sheet it creates will reflect that.  If the pre-gap values on the log are expressed in frames, the CUE sheet will actually be wrong, as it mistakes frames for hundredths/sec. It is a trifle, but one to be aware of.

Why is CUETools inflexible on this issue? I have no idea. As for CD-TEXT info, I don't know and don't care.
Title: Re: Create cue sheet from EAC log
Post by: Porcus on 2018-06-26 18:20:29
Also, it is important to keep in mind that CUETools assumes that all pre-gap values in the log are expressed in hundredths of a second, not frames, and the CUE sheet it creates will reflect that.  If the pre-gap values on the log are expressed in frames, the CUE sheet will actually be wrong, as it mistakes frames for hundredths/sec. It is a trifle, but one to be aware of.

Isn't there a distinction between ":01" and ".01" ... ?
Title: Re: Create cue sheet from EAC log
Post by: Pepzhez on 2018-06-27 11:00:43
Also, it is important to keep in mind that CUETools assumes that all pre-gap values in the log are expressed in hundredths of a second, not frames, and the CUE sheet it creates will reflect that.  If the pre-gap values on the log are expressed in frames, the CUE sheet will actually be wrong, as it mistakes frames for hundredths/sec. It is a trifle, but one to be aware of.

Isn't there a distinction between ":01" and ".01" ... ?


There is no actual difference between :01 and .01, but there is a difference between, say, :02 and .02, and so on. The problem is that the pre-gap info as written on an EAC log does not allow for such distinctions. For example, if your EAC log says that a given pre-gap is "1.20" that could either mean that the pre-gap is 1 second and 20 frames or it could mean that the pre-gap is actually 1 and 20/100 second (which would be 1 second and 15 frames). That is a fault of the way the EAC log is designed.
Title: Re: Create cue sheet from EAC log
Post by: Porcus on 2018-06-27 11:13:45
For example, if your EAC log says that a given pre-gap is "1.20" that could either mean that the pre-gap is 1 second and 20 frames or it could mean that the pre-gap is actually 1 and 20/100 second (which would be 1 second and 15 frames). That is a fault of the way the EAC log is designed.

Isn't EAC consistent on what it means when it writes 1.20? Doesn't CUETools get that right?

(I have only used EAC every once in a while.)
Title: Re: Create cue sheet from EAC log
Post by: Pepzhez on 2018-06-27 13:54:08
Unfortunately, no, An EAC log does not indicate if the pre-gap durations are expressed as frames or as decimal. For example, if the log states a pre-gap of "2.20", nothing on the log will spell out if this figure is in fact 2 seconds + 20 frames, or 2.20 seconds (which is actually 2 seconds + 15 frames).

As I stated previously, CUETools assumes that every EAC log contains pre-gap information expressed in hundredths, and not as frames.  As long as the pre-gap info in your log truly is expressed as seconds + hundredths, the CUE sheet you create will be accurate. If the log has the pre-gaps expressed as seconds + frames, CUETools will stlll treat those frame values as hundredths, and the CUE sheet will actually be incorrect. Of course we are talking about tiny fractions of seconds here, so in reality it will not matter, practically speaking, but the only way to be assured that the CUE sheet is in fact accurate, the pre-gap info on the EAC log *must* be expressed in seconds + hundredths.

The EAC options allow the user to choose whether s/he wants the gap timings to be expressed either as seconds + frames or seconds + hundredths of a second. The problem in question is that the choice is not really discernible on the log itself.
  
Title: Re: Create cue sheet from EAC log
Post by: Juha on 2018-06-27 14:42:41
If it frames then you should not find value greater than .75 ... I quess one could solve this by checking enough EAC logs ...
Title: Re: Create cue sheet from EAC log
Post by: Pepzhez on 2018-06-27 23:53:43
If it frames then you should not find value greater than .75 ... I quess one could solve this by checking enough EAC logs ...

That is one immediately obvious giveaway, yes, but not every disc is guaranteed to have decimal pre-gap values that will read as .75 – .99. In fact, I would say that only about half of them do.
Title: Re: Create cue sheet from EAC log
Post by: korth on 2018-06-28 05:12:24
Also, it is important to keep in mind that CUETools assumes that all pre-gap values in the log are expressed in hundredths of a second, not frames, and the CUE sheet it creates will reflect that.  If the pre-gap values on the log are expressed in frames, the CUE sheet will actually be wrong, as it mistakes frames for hundredths/sec. It is a trifle, but one to be aware of.
Thanks, I left that part out.
In the previous example (https://hydrogenaud.io/index.php/topic,88556.msg958713.html#msg958713) the log pre-gaps were in frames. Here's some more examples to show the log pre-gap times in hundredths/sec.

EAC set to display the pre-gap times in hundredths/sec.
Code: [Select]
Exact Audio Copy V1.3 from 2. September 2016

EAC extraction logfile from 27. June 2018, 12:43

Styx / The Grand Illusion

Used drive  : ASUS    DRW-24B1ST   a   Adapter: 1  ID: 0

Read mode               : Secure
Utilize accurate stream : Yes
Defeat audio cache      : No
Make use of C2 pointers : No

Read offset correction                      : 6
Overread into Lead-In and Lead-Out          : No
Fill up missing offset samples with silence : Yes
Delete leading and trailing silent blocks   : No
Null samples used in CRC calculations       : Yes
Used interface                              : Native Win32 interface for Win NT & 2000
Gap handling                                : Appended to previous track

Used output format              : User Defined Encoder
Selected bitrate                : 192 kBit/s
Quality                         : High
Add ID3 tag                     : No
Command line compressor         : E:\MyApps\AudTools\Exact Audio Copy\Flac\flac.exe
Additional command line options : -6 -T "ARTIST=%artist%" -T "TITLE=%title%" -T "ALBUM=%albumtitle%" -T "DATE=%year%"
-T "TRACKNUMBER=%tracknr%" -T "GENRE=%genre%" -T "COMMENT=%comment%" -T "ALBUMARTIST= %albumartist%"
-T "COMPOSER=%composer%" %haslyrics%--tag-from-file=LYRICS="%lyricsfile%"%haslyrics% -T "DISCNUMBER=%cdnumber%"
-T "TOTALDISCS=%totalcds%" -T "TOTALTRACKS=%numtracks%" %hascover%--picture="%coverfile%"%hascover% %source%


TOC of the extracted CD

     Track |   Start  |  Length  | Start sector | End sector
    ---------------------------------------------------------
        1  |  0:00.00 |  4:38.18 |         0    |    20867  
        2  |  4:38.18 |  5:31.25 |     20868    |    45717  
        3  | 10:09.43 |  4:02.57 |     45718    |    63924  
        4  | 14:12.25 |  6:08.25 |     63925    |    91549  
        5  | 20:20.50 |  5:04.03 |     91550    |   114352  
        6  | 25:24.53 |  5:51.47 |    114353    |   140724  
        7  | 31:16.25 |  6:00.00 |    140725    |   167724  
        8  | 37:16.25 |  1:57.55 |    167725    |   176554  


Track  1

     Filename 01 The Grand Illusion.wav

     Pre-gap length  0:00:02.00

     Peak level 100.0 %
     Extraction speed 5.7 X
     Track quality 99.9 %
     Copy CRC 98DCF831
     Accurately ripped (confidence 13)  [84A4965F]  (AR v2)
     Copy OK

Track  2

     Filename 02 Fooling Yourself (The Angry Young Man).wav

     Pre-gap length  0:00:01.33

     Peak level 100.0 %
     Extraction speed 6.6 X
     Track quality 99.9 %
     Copy CRC DD25D91C
     Accurately ripped (confidence 13)  [782A1C9E]  (AR v2)
     Copy OK

Track  3

     Filename 03 Superstars.wav

     Pre-gap length  0:00:03.37

     Peak level 100.0 %
     Extraction speed 7.3 X
     Track quality 100.0 %
     Copy CRC F4E9F4C0
     Accurately ripped (confidence 12)  [D486A74E]  (AR v2)
     Copy OK

Track  4

     Filename 04 Come Sail Away.wav

     Pre-gap length  0:00:03.80

     Peak level 100.0 %
     Extraction speed 8.1 X
     Track quality 100.0 %
     Copy CRC 41D59F5C
     Accurately ripped (confidence 12)  [188DA08E]  (AR v2)
     Copy OK

Track  5

     Filename 05 Miss America.wav

     Pre-gap length  0:00:02.80

     Peak level 99.5 %
     Extraction speed 8.7 X
     Track quality 100.0 %
     Copy CRC 40840ECF
     Accurately ripped (confidence 13)  [787799AD]  (AR v2)
     Copy OK

Track  6

     Filename 06 Man In The Wilderness.wav

     Pre-gap length  0:00:01.20

     Peak level 100.0 %
     Extraction speed 9.3 X
     Track quality 100.0 %
     Copy CRC 782A1C7C
     Accurately ripped (confidence 13)  [80F9231F]  (AR v2)
     Copy OK

Track  7

     Filename 07 Castle Walls.wav

     Pre-gap length  0:00:02.82

     Peak level 100.0 %
     Extraction speed 9.7 X
     Track quality 100.0 %
     Copy CRC 7A4EE833
     Accurately ripped (confidence 13)  [EF054206]  (AR v2)
     Copy OK

Track  8

     Filename 08 The Grand Finale.wav

     Peak level 100.0 %
     Extraction speed 9.7 X
     Track quality 100.0 %
     Copy CRC 9CDD59E5
     Accurately ripped (confidence 12)  [126A31DA]  (AR v2)
     Copy OK


All tracks accurately ripped

No errors occurred

End of status report

The CUE sheet created by CUETools using this log
Code: [Select]
REM COMMENT "CUETools generated dummy CUE sheet"
PERFORMER " Styx"
TITLE "The Grand Illusion"
REM DATE 1977
REM DISCNUMBER 1
REM TOTALDISCS 1
REM GENRE "Pop/Rock"
FILE "01 The Grand Illusion.flac" WAVE
  TRACK 01 AUDIO
    PERFORMER "Styx"
    TITLE "The Grand Illusion"
    INDEX 01 00:00:00
  TRACK 02 AUDIO
    PERFORMER "Styx"
    TITLE "Fooling Yourself (The Angry Young Man)"
    INDEX 00 04:36:68
FILE "02 Fooling Yourself (The Angry Young Man).flac" WAVE
    INDEX 01 00:00:00
  TRACK 03 AUDIO
    PERFORMER "Styx"
    TITLE "Superstars"
    INDEX 00 05:27:72
FILE "03 Superstars.flac" WAVE
    INDEX 01 00:00:00
  TRACK 04 AUDIO
    PERFORMER "Styx"
    TITLE "Come Sail Away"
    INDEX 00 03:58:72
FILE "04 Come Sail Away.flac" WAVE
    INDEX 01 00:00:00
  TRACK 05 AUDIO
    PERFORMER "Styx"
    TITLE "Miss America"
    INDEX 00 06:05:40
FILE "05 Miss America.flac" WAVE
    INDEX 01 00:00:00
  TRACK 06 AUDIO
    PERFORMER "Styx"
    TITLE "Man In The Wilderness"
    INDEX 00 05:02:63
FILE "06 Man In The Wilderness.flac" WAVE
    INDEX 01 00:00:00
  TRACK 07 AUDIO
    PERFORMER "Styx"
    TITLE "Castle Walls"
    INDEX 00 05:48:60
FILE "07 Castle Walls.flac" WAVE
    INDEX 01 00:00:00
FILE "08 The Grand Finale.flac" WAVE
  TRACK 08 AUDIO
    PERFORMER "Styx"
    TITLE "The Grand Finale"
    INDEX 01 00:00:00

A Noncompliant CUE sheet created by EAC
Code: [Select]
REM GENRE Pop/Rock
REM DATE 1977
REM DISCID 61093208
REM COMMENT "ExactAudioCopy v1.3"
PERFORMER "Styx"
TITLE "The Grand Illusion"
REM COMPOSER ""
FILE "Styx\The Grand Illusion\01 The Grand Illusion.wav" WAVE
  TRACK 01 AUDIO
    TITLE "The Grand Illusion"
    PERFORMER "Styx"
    REM COMPOSER ""
    INDEX 01 00:00:00
  TRACK 02 AUDIO
    TITLE "Fooling Yourself (The Angry Young Man)"
    PERFORMER "Styx"
    REM COMPOSER ""
    INDEX 00 04:36:68
FILE "Styx\The Grand Illusion\02 Fooling Yourself (The Angry Young Man).wav" WAVE
    INDEX 01 00:00:00
  TRACK 03 AUDIO
    TITLE "Superstars"
    PERFORMER "Styx"
    REM COMPOSER ""
    INDEX 00 05:27:72
FILE "Styx\The Grand Illusion\03 Superstars.wav" WAVE
    INDEX 01 00:00:00
  TRACK 04 AUDIO
    TITLE "Come Sail Away"
    PERFORMER "Styx"
    REM COMPOSER ""
    INDEX 00 03:58:72
FILE "Styx\The Grand Illusion\04 Come Sail Away.wav" WAVE
    INDEX 01 00:00:00
  TRACK 05 AUDIO
    TITLE "Miss America"
    PERFORMER "Styx"
    REM COMPOSER ""
    INDEX 00 06:05:40
FILE "Styx\The Grand Illusion\05 Miss America.wav" WAVE
    INDEX 01 00:00:00
  TRACK 06 AUDIO
    TITLE "Man In The Wilderness"
    PERFORMER "Styx"
    REM COMPOSER ""
    INDEX 00 05:02:63
FILE "Styx\The Grand Illusion\06 Man In The Wilderness.wav" WAVE
    INDEX 01 00:00:00
  TRACK 07 AUDIO
    TITLE "Castle Walls"
    PERFORMER "Styx"
    REM COMPOSER ""
    INDEX 00 05:48:60
FILE "Styx\The Grand Illusion\07 Castle Walls.wav" WAVE
    INDEX 01 00:00:00
FILE "Styx\The Grand Illusion\08 The Grand Finale.wav" WAVE
  TRACK 08 AUDIO
    TITLE "The Grand Finale"
    PERFORMER "Styx"
    REM COMPOSER ""
    INDEX 01 00:00:00

And an EAC-style log from CUERipper (you'll notice Pre-gaps are in hundredths/sec).
Code: [Select]
CUERipper v2.1.7 Copyright (C) 2008-13 Grigory Chudov

EAC extraction logfile from 27. June 2018, 13:44

Styx / The Grand Illusion

Used drive  : ASUS DRW-24B1ST   a   Adapter: 1  ID: 0

Read mode               : Secure
Utilize accurate stream : Yes
Defeat audio cache      : Yes
Make use of C2 pointers : No

Read offset correction                      : 6
Overread into Lead-In and Lead-Out          : No
Fill up missing offset samples with silence : Yes
Delete leading and trailing silent blocks   : No
Null samples used in CRC calculations       : Yes
Used interface                              : Native Win32 interface for Win NT & 2000
Gap handling                                : Appended to previous track

Used output format : Internal WAV Routines
Sample format      : 44.100 Hz; 16 Bit; Stereo


TOC of the extracted CD

     Track |   Start  |  Length  | Start sector | End sector
    ---------------------------------------------------------
        1  |  0:00.00 |  4:38.18 |         0    |    20867  
        2  |  4:38.18 |  5:31.25 |     20868    |    45717  
        3  | 10:09.43 |  4:02.57 |     45718    |    63924  
        4  | 14:12.25 |  6:08.25 |     63925    |    91549  
        5  | 20:20.50 |  5:04.03 |     91550    |   114352  
        6  | 25:24.53 |  5:51.47 |    114353    |   140724  
        7  | 31:16.25 |  6:00.00 |    140725    |   167724  
        8  | 37:16.25 |  1:57.55 |    167725    |   176554  


Track  1

     Filename 01 The Grand Illusion.wav

     Pre-gap length  0:00:02.00

     Peak level 100.0 %
     Track quality 100.0 %
     Copy CRC 98DCF831
     Accurately ripped (confidence 35)  [26FFD8EB]
     Copy OK

Track  2

     Filename 02 Fooling Yourself (The Angry Young Man).wav

     Pre-gap length  0:00:01.33

     Peak level 100.0 %
     Track quality 100.0 %
     Copy CRC DD25D91C
     Accurately ripped (confidence 35)  [000C4057]
     Copy OK

Track  3

     Filename 03 Superstars.wav

     Pre-gap length  0:00:03.37

     Peak level 100.0 %
     Track quality 100.0 %
     Copy CRC F4E9F4C0
     Accurately ripped (confidence 33)  [C6ACD858]
     Copy OK

Track  4

     Filename 04 Come Sail Away.wav

     Pre-gap length  0:00:03.80

     Peak level 100.0 %
     Track quality 100.0 %
     Copy CRC 41D59F5C
     Accurately ripped (confidence 34)  [26CC2ED9]
     Copy OK

Track  5

     Filename 05 Miss America.wav

     Pre-gap length  0:00:02.80

     Peak level 99.5 %
     Track quality 100.0 %
     Copy CRC 40840ECF
     Accurately ripped (confidence 35)  [4BC3097E]
     Copy OK

Track  6

     Filename 06 Man in the Wilderness.wav

     Pre-gap length  0:00:01.20

     Peak level 100.0 %
     Track quality 100.0 %
     Copy CRC 782A1C7C
     Accurately ripped (confidence 36)  [099025E2]
     Copy OK

Track  7

     Filename 07 Castle Walls.wav

     Pre-gap length  0:00:02.82

     Peak level 100.0 %
     Track quality 100.0 %
     Copy CRC 7A4EE833
     Accurately ripped (confidence 36)  [3A5CE229]
     Copy OK

Track  8

     Filename 08 The Grand Finale.wav

     Peak level 100.0 %
     Track quality 100.0 %
     Copy CRC 9CDD59E5
     Accurately ripped (confidence 32)  [5627B9D2]
     Copy OK


All tracks accurately ripped

No errors occurred

End of status report
Title: Re: Create cue sheet from EAC log
Post by: Mr.Fox on 2018-07-10 07:23:13
The EAC options allow the user to choose whether s/he wants the gap timings to be expressed either as seconds + frames or seconds + hundredths of a second. The problem in question is that the choice is not really discernible on the log itself.

for pregap only?
Title: Re: Create cue sheet from EAC log
Post by: korth on 2018-07-10 12:51:03
Not sure if you're asking about the EAC option setting or the information in the log or both.
The purpose of the setting is to change the way time information is displayed in the main window.

Title: Re: Create cue sheet from EAC log
Post by: Mike457 on 2018-07-13 01:48:05
Unfortunately, no, An EAC log does not indicate if the pre-gap durations are expressed as frames or as decimal. For example, if the log states a pre-gap of "2.20", nothing on the log will spell out if this figure is in fact 2 seconds + 20 frames, or 2.20 seconds (which is actually 2 seconds + 15 frames)....The EAC options allow the user to choose whether s/he wants the gap timings to be expressed either as seconds + frames or seconds + hundredths of a second. The problem in question is that the choice is not really discernible on the log itself.
  

When EAC 1.0 came out and the logs had a received a new look, I had hoped that there would be a line added that explicitly stated whether times were displayed in frames vs. hundredths. This, in my opinion, is one major flaw still present in EAC logs...

Also, thanks to korth for that very nice description of how CUETools can generate a correct CUE sheet provided one has a set of track files AND the EAC log in hundredths. Personally, I've been displaying times in frames in the log ever since the option became available because I wanted it to match with the cue sheet, which is always displayed in frames (iirc).
SimplePortal 1.0.0 RC1 © 2008-2019