Skip to main content
Topic: Have an odd issue ripping once CD using XLD on Mac (Read 156 times) previous topic - next topic
0 Members and 1 Guest are viewing this topic.

Have an odd issue ripping once CD using XLD on Mac

I'm using an external LG HL-DT-ST DVDRAM SP80NB80 on a Mac mini to rip CDs. The drive offset is +6.  I've been happily ripping away for weeks now.  Today, I tried to rip a copy of Vapor Trails (remixed) by Rush, and I get the following error:

Code: [Select]
X Lossless Decoder version 20191004 (152.0)

XLD extraction logfile from 2020-08-23 00:04:23 -0400

Rush / Vapor Trails Remixed

Used drive : HL-DT-ST DVDRAM SP80NB80 (revision RC00)
Media type : Pressed CD

Ripper mode             : XLD Secure Ripper
Disable audio cache     : OK for the drive with a cache less than 1375KiB
Make use of C2 pointers : YES
Read offset correction  : 6
Max retry count         : 20
Gap status              : Analyzed, Appended

TOC of the extracted CD
     Track |   Start  |  Length  | Start sector | End sector
    ---------------------------------------------------------
        1  | 00:00:00 | 05:08:42 |         0    |    23141  
        2  | 05:08:42 | 05:28:05 |     23142    |    47746  
        3  | 10:36:47 | 05:40:56 |     47747    |    73302  
        4  | 16:17:28 | 05:23:38 |     73303    |    97565  
        5  | 21:40:66 | 04:28:35 |     97566    |   117700  
        6  | 26:09:26 | 04:05:06 |    117701    |   136081  
        7  | 30:14:32 | 04:57:63 |    136082    |   158419  
        8  | 35:12:20 | 06:34:38 |    158420    |   188007  
        9  | 41:46:58 | 05:38:02 |    188008    |   213359  
       10  | 47:24:60 | 03:40:39 |    213360    |   229898  
       11  | 51:05:24 | 04:49:18 |    229899    |   251591  
       12  | 55:54:42 | 06:21:08 |    251592    |   280174  
       13  | 62:15:50 | 05:03:72 |    280175    |   302971  

List of alternate offset correction values
        #  | Absolute | Relative | Confidence
    ------------------------------------------
        1  |   -141   |   -147   |     215    
        2  |   -147   |   -153   |     121    
        3  |   -153   |   -159   |      4    
        4  |   -273   |   -279   |      2    

AccurateRip Summary (DiscID: 0020591f-0142c9d0-b40fc70d)
    Track 01 : OK (v1+v2, confidence 214/341, with different offset)
    Track 02 : OK (v1+v2, confidence 214/340, with different offset)
    Track 03 : OK (v1+v2, confidence 214/340, with different offset)
    Track 04 : OK (v1+v2, confidence 214/340, with different offset)
    Track 05 : OK (v1+v2, confidence 214/340, with different offset)
    Track 06 : OK (v1+v2, confidence 215/340, with different offset)
    Track 07 : OK (v1+v2, confidence 214/340, with different offset)
    Track 08 : OK (v1+v2, confidence 213/339, with different offset)
    Track 09 : OK (v1+v2, confidence 214/340, with different offset)
    Track 10 : OK (v1+v2, confidence 214/340, with different offset)
    Track 11 : OK (v1+v2, confidence 213/339, with different offset)
    Track 12 : OK (v1+v2, confidence 214/339, with different offset)
    Track 13 : OK (v1+v2, confidence 214/341, with different offset)
        ->All tracks accurately ripped.

All Tracks
    Statistics
        Read error                           : 0
        Jitter error (maybe fixed)           : 0
        Retry sector count                   : 0
        Damaged sector count                 : 0

Track 01
    Filename : /Users/andy/Music/Rush/Vapor Trails Remixed/1-01 Rush - One Little Victory.flac
    Pre-gap length : 00:02:00

    CRC32 hash (test run)    : D8C778DC
    CRC32 hash               : D8C778DC
    CRC32 hash (skip zero)   : BC66830E
    AccurateRip v1 signature : CFD107ED (67D0B322 w/correction)
    AccurateRip v2 signature : E7162722 (BB7E8EC0 w/correction)
        ->Accurately ripped with different offset (v1+v2, confidence 14+200/341, offset -147)
    Statistics
        Read error                           : 0
        Jitter error (maybe fixed)           : 0
        Retry sector count                   : 0
        Damaged sector count                 : 0

Track 02
    Filename : /Users/andy/Music/Rush/Vapor Trails Remixed/1-02 Rush - Ceiling Unlimited.flac

    CRC32 hash (test run)    : A2C8A7D7
    CRC32 hash               : A2C8A7D7
    CRC32 hash (skip zero)   : 1A39B419
    AccurateRip v1 signature : 9B445320 (C89189F8 w/correction)
    AccurateRip v2 signature : 9380B873 (007E4DF0 w/correction)
        ->Accurately ripped with different offset (v1+v2, confidence 14+200/340, offset -147)
    Statistics
        Read error                           : 0
        Jitter error (maybe fixed)           : 0
        Retry sector count                   : 0
        Damaged sector count                 : 0

Track 03
    Filename : /Users/andy/Music/Rush/Vapor Trails Remixed/1-03 Rush - Ghost Rider.flac

    CRC32 hash (test run)    : 7230CC1C
    CRC32 hash               : 7230CC1C
    CRC32 hash (skip zero)   : 18EE1F45
    AccurateRip v1 signature : 88057E8A (5D19408B w/correction)
    AccurateRip v2 signature : D5F80D34 (ECCCD570 w/correction)
        ->Accurately ripped with different offset (v1+v2, confidence 14+200/340, offset -147)
    Statistics
        Read error                           : 0
        Jitter error (maybe fixed)           : 0
        Retry sector count                   : 0
        Damaged sector count                 : 0

Track 04
    Filename : /Users/andy/Music/Rush/Vapor Trails Remixed/1-04 Rush - Peaceable Kingdom.flac

    CRC32 hash (test run)    : 31330ED7
    CRC32 hash               : 31330ED7
    CRC32 hash (skip zero)   : 0E994564
    AccurateRip v1 signature : 56DEB44E (B7F434FE w/correction)
    AccurateRip v2 signature : CDEDF3C7 (6D341C33 w/correction)
        ->Accurately ripped with different offset (v1+v2, confidence 14+200/340, offset -147)
    Statistics
        Read error                           : 0
        Jitter error (maybe fixed)           : 0
        Retry sector count                   : 0
        Damaged sector count                 : 0

Track 05
    Filename : /Users/andy/Music/Rush/Vapor Trails Remixed/1-05 Rush - The Stars Look Down.flac

    CRC32 hash (test run)    : 0F56516B
    CRC32 hash               : 0F56516B
    CRC32 hash (skip zero)   : 8C03F2D6
    AccurateRip v1 signature : 9341E3AC (D8913211 w/correction)
    AccurateRip v2 signature : 099A7BFD (60486E3C w/correction)
        ->Accurately ripped with different offset (v1+v2, confidence 14+200/340, offset -147)
    Statistics
        Read error                           : 0
        Jitter error (maybe fixed)           : 0
        Retry sector count                   : 0
        Damaged sector count                 : 0

Track 06
    Filename : /Users/andy/Music/Rush/Vapor Trails Remixed/1-06 Rush - How It Is.flac

    CRC32 hash (test run)    : A48F6145
    CRC32 hash               : A48F6145
    CRC32 hash (skip zero)   : 66A4C76C
    AccurateRip v1 signature : 201960CC (6F0D5EDC w/correction)
    AccurateRip v2 signature : F50AA25B (73081EE5 w/correction)
        ->Accurately ripped with different offset (v1+v2, confidence 15+200/340, offset -147)
    Statistics
        Read error                           : 0
        Jitter error (maybe fixed)           : 0
        Retry sector count                   : 0
        Damaged sector count                 : 0

Track 07
    Filename : /Users/andy/Music/Rush/Vapor Trails Remixed/1-07 Rush - Vapor Trail.flac

    CRC32 hash (test run)    : A09B99E6
    CRC32 hash               : A09B99E6
    CRC32 hash (skip zero)   : FD7370D6
    AccurateRip v1 signature : B73878B6 (0D68C2C2 w/correction)
    AccurateRip v2 signature : 6ADF2FED (FA2AA6AA w/correction)
        ->Accurately ripped with different offset (v1+v2, confidence 14+200/340, offset -147)
    Statistics
        Read error                           : 0
        Jitter error (maybe fixed)           : 0
        Retry sector count                   : 0
        Damaged sector count                 : 0

Track 08
    Filename : /Users/andy/Music/Rush/Vapor Trails Remixed/1-08 Rush - Secret Touch.flac

    CRC32 hash (test run)    : C94ED346
    CRC32 hash               : C94ED346
    CRC32 hash (skip zero)   : 41C79A53
    AccurateRip v1 signature : F0FE0E0C (71111D60 w/correction)
    AccurateRip v2 signature : 65DE4AFB (31533C08 w/correction)
        ->Accurately ripped with different offset (v1+v2, confidence 13+200/339, offset -147)
    Statistics
        Read error                           : 0
        Jitter error (maybe fixed)           : 0
        Retry sector count                   : 0
        Damaged sector count                 : 0

Track 09
    Filename : /Users/andy/Music/Rush/Vapor Trails Remixed/1-09 Rush - Earthshine.flac

    CRC32 hash (test run)    : 23B87E47
    CRC32 hash               : 23B87E47
    CRC32 hash (skip zero)   : EA4C08D7
    AccurateRip v1 signature : 3E803328 (9C2BF583 w/correction)
    AccurateRip v2 signature : 09FCBCFB (A8D488C9 w/correction)
        ->Accurately ripped with different offset (v1+v2, confidence 14+200/340, offset -147)
    Statistics
        Read error                           : 0
        Jitter error (maybe fixed)           : 0
        Retry sector count                   : 0
        Damaged sector count                 : 0

Track 10
    Filename : /Users/andy/Music/Rush/Vapor Trails Remixed/1-10 Rush - Sweet Miracle.flac

    CRC32 hash (test run)    : 8DD12A5D
    CRC32 hash               : 8DD12A5D
    CRC32 hash (skip zero)   : CF981083
    AccurateRip v1 signature : A9E47296 (D25C05F3 w/correction)
    AccurateRip v2 signature : 470401B2 (99D14C62 w/correction)
        ->Accurately ripped with different offset (v1+v2, confidence 14+200/340, offset -147)
    Statistics
        Read error                           : 0
        Jitter error (maybe fixed)           : 0
        Retry sector count                   : 0
        Damaged sector count                 : 0

Track 11
    Filename : /Users/andy/Music/Rush/Vapor Trails Remixed/1-11 Rush - Nocturne.flac

    CRC32 hash (test run)    : 66B1F5CE
    CRC32 hash               : 66B1F5CE
    CRC32 hash (skip zero)   : 203F5F36
    AccurateRip v1 signature : DF0002E0 (58B0BBD4 w/correction)
    AccurateRip v2 signature : 16F26EBD (C7D1073C w/correction)
        ->Accurately ripped with different offset (v1+v2, confidence 13+200/339, offset -147)
    Statistics
        Read error                           : 0
        Jitter error (maybe fixed)           : 0
        Retry sector count                   : 0
        Damaged sector count                 : 0

Track 12
    Filename : /Users/andy/Music/Rush/Vapor Trails Remixed/1-12 Rush - Freeze (Part IV Of "Fear").flac

    CRC32 hash (test run)    : 5D450A9A
    CRC32 hash               : 5D450A9A
    CRC32 hash (skip zero)   : 0809F425
    AccurateRip v1 signature : 09658F5A (FE25DBAE w/correction)
    AccurateRip v2 signature : 65B3ABF8 (A418EE49 w/correction)
        ->Accurately ripped with different offset (v1+v2, confidence 14+200/339, offset -147)
    Statistics
        Read error                           : 0
        Jitter error (maybe fixed)           : 0
        Retry sector count                   : 0
        Damaged sector count                 : 0

Track 13
    Filename : /Users/andy/Music/Rush/Vapor Trails Remixed/1-13 Rush - Out Of The Cradle.flac

    CRC32 hash (test run)    : AFB6278A
    CRC32 hash               : AFB6278A
    CRC32 hash (skip zero)   : 7C66C596
    AccurateRip v1 signature : 5C42F07B (A88F9A29 w/correction)
    AccurateRip v2 signature : E7FC8669 (6EAB9EC9 w/correction)
        ->Accurately ripped with different offset (v1+v2, confidence 14+200/341, offset -147)
    Statistics
        Read error                           : 0
        Jitter error (maybe fixed)           : 0
        Retry sector count                   : 0
        Damaged sector count                 : 0

No errors occurred

End of status report

So it's telling me that the offset is wrong.  I used to get this error all the time before I set the proper offset for the drive.

I downloaded a trial copy of dbPowerAmp for Mac and ripped the CD using that software and it claimed it ripped the CD accurately.  dbPowerAmp also set the offset to +6, the same as xld.  I'm not familar enough with dbPowerAmp to know if it reports offset errrors or just says that it ripped accurately, if there is an offset errror.

I'm curious if this is a problem with the AccurateRip database and it might have a bad entry for this specific CD.  Is there a way to query the database to see the entries for this CD?

Re: Have an odd issue ripping once CD using XLD on Mac

Reply #1
Here is the dbPowerAmp log

Code: [Select]
dBpoweramp Release 17.1 Digital Audio Extraction Log from 2020-08-23 08:58:45
OS version: Version 10.15.6 (Build 19G2021)

Drive & Settings
----------------

Ripping with drive 'disk2   [HL-DT-ST - DVDRAM SP80NB80]',  Drive offset: 6,  Overread Lead-in/out: No
AccurateRip: Active,  Using C2: Yes,  Cache: 1024 KB,  FUA Cache Invalidate: No
Pass 1 Drive Speed: Max,  Pass 2 Drive Speed: Max
Bad Sector Re-rip::  Drive Speed: Max,  Maximum Re-reads: 34

Encoder: FLAC -compression-level-8

Extraction Log
--------------

Track 1:  Ripped LBA 0 to 23142 (5:08) in 1:06. Filename: /Users/andy/Music/Rush/Vapor Trails Remixed/01 Rush - One Little Victory.flac
  AccurateRip: Accurate (confidence 200)     [Pass 1]
  CRC32: D8C778DC     AccurateRip CRC: BB7E8EC0     [DiscID: 013-0020591f-0142c9d0-b40fc70d-1]
  AccurateRip Verified Confidence 200 [CRCv2 bb7e8ec0], Using Pressing Offset -147
  AccurateRip Verified Confidence 14 [CRCv1 67d0b322], Using Pressing Offset -147
  AccurateRip Verified Confidence 111 [CRCv2 21e9f5b7], Using Pressing Offset -153
  AccurateRip Verified Confidence 10 [CRCv1 cbc4e0ca], Using Pressing Offset -153

Track 2:  Ripped LBA 23142 to 47747 (5:28) in 1:02. Filename: /Users/andy/Music/Rush/Vapor Trails Remixed/02 Rush - Ceiling Unlimited.flac
  AccurateRip: Accurate (confidence 200)     [Pass 1]
  CRC32: A2C8A7D7     AccurateRip CRC: 007E4DF0     [DiscID: 013-0020591f-0142c9d0-b40fc70d-2]
  AccurateRip Verified Confidence 200 [CRCv2 7e4df0], Using Pressing Offset -147
  AccurateRip Verified Confidence 14 [CRCv1 c89189f8], Using Pressing Offset -147
  AccurateRip Verified Confidence 110 [CRCv2 392fd3e4], Using Pressing Offset -153
  AccurateRip Verified Confidence 10 [CRCv1 fea996a8], Using Pressing Offset -153

Track 3:  Ripped LBA 47747 to 73303 (5:40) in 0:58. Filename: /Users/andy/Music/Rush/Vapor Trails Remixed/03 Rush - Ghost Rider.flac
  AccurateRip: Accurate (confidence 200)     [Pass 1]
  CRC32: 7230CC1C     AccurateRip CRC: ECCCD570     [DiscID: 013-0020591f-0142c9d0-b40fc70d-3]
  AccurateRip Verified Confidence 200 [CRCv2 ecccd570], Using Pressing Offset -147
  AccurateRip Verified Confidence 14 [CRCv1 5d19408b], Using Pressing Offset -147
  AccurateRip Verified Confidence 110 [CRCv2 9f5d5291], Using Pressing Offset -153
  AccurateRip Verified Confidence 10 [CRCv1 cfab62d], Using Pressing Offset -153

Track 4:  Ripped LBA 73303 to 97566 (5:23) in 0:51. Filename: /Users/andy/Music/Rush/Vapor Trails Remixed/04 Rush - Peaceable Kingdom.flac
  AccurateRip: Accurate (confidence 200)     [Pass 1]
  CRC32: 31330ED7     AccurateRip CRC: 6D341C33     [DiscID: 013-0020591f-0142c9d0-b40fc70d-4]
  AccurateRip Verified Confidence 200 [CRCv2 6d341c33], Using Pressing Offset -147
  AccurateRip Verified Confidence 14 [CRCv1 b7f434fe], Using Pressing Offset -147
  AccurateRip Verified Confidence 110 [CRCv2 a7f30b53], Using Pressing Offset -153
  AccurateRip Verified Confidence 10 [CRCv1 f029545e], Using Pressing Offset -153

Track 5:  Ripped LBA 97566 to 117701 (4:28) in 0:39. Filename: /Users/andy/Music/Rush/Vapor Trails Remixed/05 Rush - The Stars Look Down.flac
  AccurateRip: Accurate (confidence 200)     [Pass 1]
  CRC32: 0F56516B     AccurateRip CRC: 60486E3C     [DiscID: 013-0020591f-0142c9d0-b40fc70d-5]
  AccurateRip Verified Confidence 200 [CRCv2 60486e3c], Using Pressing Offset -147
  AccurateRip Verified Confidence 14 [CRCv1 d8913211], Using Pressing Offset -147
  AccurateRip Verified Confidence 110 [CRCv2 1aa9a6f9], Using Pressing Offset -153
  AccurateRip Verified Confidence 10 [CRCv1 950f32c7], Using Pressing Offset -153

Track 6:  Ripped LBA 117701 to 136082 (4:05) in 0:34. Filename: /Users/andy/Music/Rush/Vapor Trails Remixed/06 Rush - How It Is.flac
  AccurateRip: Accurate (confidence 200)     [Pass 1]
  CRC32: A48F6145     AccurateRip CRC: 73081EE5     [DiscID: 013-0020591f-0142c9d0-b40fc70d-6]
  AccurateRip Verified Confidence 200 [CRCv2 73081ee5], Using Pressing Offset -147
  AccurateRip Verified Confidence 15 [CRCv1 6f0d5edc], Using Pressing Offset -147
  AccurateRip Verified Confidence 109 [CRCv2 d1a6cc61], Using Pressing Offset -153
  AccurateRip Verified Confidence 10 [CRCv1 cbc08de4], Using Pressing Offset -153

Track 7:  Ripped LBA 136082 to 158420 (4:57) in 0:40. Filename: /Users/andy/Music/Rush/Vapor Trails Remixed/07 Rush - Vapor Trail.flac
  AccurateRip: Accurate (confidence 200)     [Pass 1]
  CRC32: A09B99E6     AccurateRip CRC: FA2AA6AA     [DiscID: 013-0020591f-0142c9d0-b40fc70d-7]
  AccurateRip Verified Confidence 200 [CRCv2 fa2aa6aa], Using Pressing Offset -147
  AccurateRip Verified Confidence 14 [CRCv1 d68c2c2], Using Pressing Offset -147
  AccurateRip Verified Confidence 110 [CRCv2 49288512], Using Pressing Offset -153
  AccurateRip Verified Confidence 10 [CRCv1 5a11ea5a], Using Pressing Offset -153

Track 8:  Ripped LBA 158420 to 188008 (6:34) in 0:50. Filename: /Users/andy/Music/Rush/Vapor Trails Remixed/08 Rush - Secret Touch.flac
  AccurateRip: Accurate (confidence 200)     [Pass 1]
  CRC32: C94ED346     AccurateRip CRC: 31533C08     [DiscID: 013-0020591f-0142c9d0-b40fc70d-8]
  AccurateRip Verified Confidence 200 [CRCv2 31533c08], Using Pressing Offset -147
  AccurateRip Verified Confidence 13 [CRCv1 71111d60], Using Pressing Offset -147
  AccurateRip Verified Confidence 110 [CRCv2 3467b316], Using Pressing Offset -153
  AccurateRip Verified Confidence 10 [CRCv1 7111e488], Using Pressing Offset -153

Track 9:  Ripped LBA 188008 to 213360 (5:38) in 0:40. Filename: /Users/andy/Music/Rush/Vapor Trails Remixed/09 Rush - Earthshine.flac
  AccurateRip: Accurate (confidence 200)     [Pass 1]
  CRC32: 23B87E47     AccurateRip CRC: A8D488C9     [DiscID: 013-0020591f-0142c9d0-b40fc70d-9]
  AccurateRip Verified Confidence 200 [CRCv2 a8d488c9], Using Pressing Offset -147
  AccurateRip Verified Confidence 14 [CRCv1 9c2bf583], Using Pressing Offset -147
  AccurateRip Verified Confidence 110 [CRCv2 41995d2f], Using Pressing Offset -153
  AccurateRip Verified Confidence 10 [CRCv1 3247de19], Using Pressing Offset -153

Track 10:  Ripped LBA 213360 to 229899 (3:40) in 0:25. Filename: /Users/andy/Music/Rush/Vapor Trails Remixed/10 Rush - Sweet Miracle.flac
  AccurateRip: Accurate (confidence 200)     [Pass 1]
  CRC32: 8DD12A5D     AccurateRip CRC: 99D14C62     [DiscID: 013-0020591f-0142c9d0-b40fc70d-10]
  AccurateRip Verified Confidence 200 [CRCv2 99d14c62], Using Pressing Offset -147
  AccurateRip Verified Confidence 14 [CRCv1 d25c05f3], Using Pressing Offset -147
  AccurateRip Verified Confidence 110 [CRCv2 78a034e3], Using Pressing Offset -153
  AccurateRip Verified Confidence 10 [CRCv1 af7093cd], Using Pressing Offset -153

Track 11:  Ripped LBA 229899 to 251592 (4:49) in 0:32. Filename: /Users/andy/Music/Rush/Vapor Trails Remixed/11 Rush - Nocturne.flac
  AccurateRip: Accurate (confidence 200)     [Pass 1]
  CRC32: 66B1F5CE     AccurateRip CRC: C7D1073C     [DiscID: 013-0020591f-0142c9d0-b40fc70d-11]
  AccurateRip Verified Confidence 200 [CRCv2 c7d1073c], Using Pressing Offset -147
  AccurateRip Verified Confidence 13 [CRCv1 58b0bbd4], Using Pressing Offset -147
  AccurateRip Verified Confidence 110 [CRCv2 56df5ffc], Using Pressing Offset -153
  AccurateRip Verified Confidence 10 [CRCv1 e57e7a3c], Using Pressing Offset -153

Track 12:  Ripped LBA 251592 to 280175 (6:21) in 0:41. Filename: /Users/andy/Music/Rush/Vapor Trails Remixed/12 Rush - Freeze -- Part IV Of 'Fear'.flac
  AccurateRip: Accurate (confidence 200)     [Pass 1]
  CRC32: 5D450A9A     AccurateRip CRC: A418EE49     [DiscID: 013-0020591f-0142c9d0-b40fc70d-12]
  AccurateRip Verified Confidence 200 [CRCv2 a418ee49], Using Pressing Offset -147
  AccurateRip Verified Confidence 14 [CRCv1 fe25dbae], Using Pressing Offset -147
  AccurateRip Verified Confidence 109 [CRCv2 9e8cbfb], Using Pressing Offset -153
  AccurateRip Verified Confidence 10 [CRCv1 60f43cd6], Using Pressing Offset -153

Track 13:  Ripped LBA 280175 to 302972 (5:03) in 0:31. Filename: /Users/andy/Music/Rush/Vapor Trails Remixed/13 Rush - Out Of The Cradle.flac
  AccurateRip: Accurate (confidence 200)     [Pass 1]
  CRC32: AFB6278A     AccurateRip CRC: 6EAB9EC9     [DiscID: 013-0020591f-0142c9d0-b40fc70d-13]
  AccurateRip Verified Confidence 200 [CRCv2 6eab9ec9], Using Pressing Offset -147
  AccurateRip Verified Confidence 14 [CRCv1 a88f9a29], Using Pressing Offset -147
  AccurateRip Verified Confidence 109 [CRCv2 2b065b0c], Using Pressing Offset -153
  AccurateRip Verified Confidence 10 [CRCv1 62884845], Using Pressing Offset -153

--------------

13 Tracks Ripped Accurately

Does this mean it's just a pressing issue?

Re: Have an odd issue ripping once CD using XLD on Mac

Reply #2
The pressing of the CD you ripped wasn't in the database. The audio matched other pressings that were in the database.
korth

Re: Have an odd issue ripping once CD using XLD on Mac

Reply #3
So, does the software automatically adjust for this offset, or does it not matter?

Re: Have an odd issue ripping once CD using XLD on Mac

Reply #4
As the link explains, the software just mathematically cross-checks against other pressings that may be in the database.
The audio isn't altered.
korth

Re: Have an odd issue ripping once CD using XLD on Mac

Reply #5
Thank you!

 
SimplePortal 1.0.0 RC1 © 2008-2020