Skip to main content
Topic: Unable to open item for playback (Error parsing cuesheet: unknown cuesheet item) (Read 145 times) previous topic - next topic
0 Members and 1 Guest are viewing this topic.

Unable to open item for playback (Error parsing cuesheet: unknown cuesheet item)

Hello, I'm new here and would like some need help please, I'm having some troubles with a ten ripped discs. I have ten seperate large mp3 files and ten separate .cue file for each. The cue files open in a notepad file now. Foobar2000 can't seem to split in tracks, because it gives the error. Here's the cue. Can someone help me please? I even tried other programs and no luck. Is something missing and can someone tell me if there are other problems as well. I'm hoping fixing one of them should help fix the remaining nine I have to do. Thanks in advance.

Unable to open item for playback (Error parsing cuesheet: unknown cuesheet item (line 1)):

Code: [Select]
TRACK 01 AUDIO
    TITLE "Track 01"
    INDEX 00 00:00:00
  TRACK 02 AUDIO
    TITLE "Track 02"
    INDEX 0-650106112 04:46:70
  TRACK 03 AUDIO
    TITLE "Track 03"
    INDEX 00 11:56:80
  TRACK 04 AUDIO
    TITLE "Track 04"
    INDEX 00 16:47:00
  TRACK 05 AUDIO
    TITLE "Track 05"
    INDEX 00 21:34:60
  TRACK 06 AUDIO
    TITLE "Track 06"
    INDEX 0808464432 26:18:40
  TRACK 07 AUDIO
    TITLE "Track 07"
    INDEX 0808464432 32:24:20
  TRACK 08 AUDIO
    TITLE "Track 08"
    INDEX 01030971764 37:17:80
  TRACK 09 AUDIO
    TITLE "Track 09"
    INDEX 0168637748 43:05:00
  TRACK 10 AUDIO
    TITLE "Track 10"
    INDEX 0893215845 47:12:40
  TRACK 11 AUDIO
    TITLE "Track 11"
    INDEX 01953653101 53:12:40
  TRACK 12 AUDIO
    TITLE "Track 12"
    INDEX 01936617321 56:58:60
  TRACK 13 AUDIO
    TITLE "Track 13"
    INDEX 0809333349 61:50:90

Re: Unable to open item for playback (Error parsing cuesheet: unknown cuesheet item)

Reply #1
Are you saying that cue sheet comes from a CD ripper? It has a lot of issues, like no indication of the file it refers to, no track start indexes, nonsensical index values, and wrong length units.

Try this cue sheet, just fix the "file.mp3" to refer to the actual filename you have.
Code: [Select]
FILE "file.mp3" WAVE
  TRACK 01 AUDIO
    TITLE "Track 01"
    INDEX 01 00:00:00
  TRACK 02 AUDIO
    TITLE "Track 02"
    INDEX 01 04:46:53
  TRACK 03 AUDIO
    TITLE "Track 03"
    INDEX 01 11:56:45
  TRACK 04 AUDIO
    TITLE "Track 04"
    INDEX 01 16:47:00
  TRACK 05 AUDIO
    TITLE "Track 05"
    INDEX 01 21:34:45
  TRACK 06 AUDIO
    TITLE "Track 06"
    INDEX 01 26:18:30
  TRACK 07 AUDIO
    TITLE "Track 07"
    INDEX 01 32:24:15
  TRACK 08 AUDIO
    TITLE "Track 08"
    INDEX 01 37:17:60
  TRACK 09 AUDIO
    TITLE "Track 09"
    INDEX 01 43:05:00
  TRACK 10 AUDIO
    TITLE "Track 10"
    INDEX 01 47:12:30
  TRACK 11 AUDIO
    TITLE "Track 11"
    INDEX 01 53:12:30
  TRACK 12 AUDIO
    TITLE "Track 12"
    INDEX 01 56:58:45
  TRACK 13 AUDIO
    TITLE "Track 13"
    INDEX 01 61:50:70

 

Re: Unable to open item for playback (Error parsing cuesheet: unknown cuesheet item)

Reply #2
Yes I had ripped a few of my old CDs I bought and wanted to digitialize them and that was the output. I had an idea it just didn't look right.

Thank you so much Case, it's fixed the problem. Your a star!! Have a great day :)

 
SimplePortal 1.0.0 RC1 © 2008-2020