Skip to main content

Notice

If you are using a Hotmail or Outlook email address, please change it now, as Microsoft is rejecting all email from our service outright.
Topic: 1 track could not be verified as accurate (Read 843 times) previous topic - next topic
0 Members and 1 Guest are viewing this topic.

1 track could not be verified as accurate

I am new to trying to rip my CD collection. I recently downloaded cueripper and ripped one album and 13 out of 14 tracks ripped accurately, but track 1 says this in the notepad file:

     Suspicious position 0:00:13

     Peak level 86.8 %
     Track quality 99.7 %
     Copy CRC 86EA29BD
     Cannot be verified as accurate (confidence 3002)  [CC9F9C37], AccurateRip returned [ABB483FF]
     Copy OK

Should I try cleaning the CD  and re-ripping? or is that useless? Can I just re-rip the one track? Why does it say Copy OK, if it cannot be verified as accurate?
Thank you

Re: 1 track could not be verified as accurate

Reply #1
I need prefer the full log.
Quote
    Suspicious position 0:00:13

     Track quality 99.7 %
Looks like only a small area. May be repairable if you extracted lossless.
Quote
Should I try cleaning the CD  and re-ripping?
That may work too.
Quote
Can I just re-rip the one track?
Not with CUERipper (in wishlist).
Quote
Why does it say Copy OK, if it cannot be verified as accurate?
Unrelated.




edit: I added a couple of reference links
korth

Re: 1 track could not be verified as accurate

Reply #2
Ok, thanks for the info Korth. By full log, do you mean just the full text document or all 3 (.log, .CUE, .ACCURIP)? I will try cleaning/re-ripping, and perhaps repairing with CUETools, and post the results.
Chris

Re: 1 track could not be verified as accurate

Reply #3
Never mind! I just realized, full .log file, that's what you mean.


Code: [Select]
CUERipper v2.1.6 Copyright (C) 2008-13 Grigory Chudov

EAC extraction logfile from 4. April 2020, 22:40

The Beatles / Revolver

Used drive  : HL-DT-ST DVDRAM GSA-T50N   Adapter: 1  ID: 0

Read mode               : Secure
Utilize accurate stream : Yes
Defeat audio cache      : Yes
Make use of C2 pointers : No

Read offset correction                      : 667
Overread into Lead-In and Lead-Out          : No
Fill up missing offset samples with silence : Yes
Delete leading and trailing silent blocks   : No
Null samples used in CRC calculations       : Yes
Used interface                              : Native Win32 interface for Win NT & 2000
Gap handling                                : Appended to previous track

Used output format : Internal WAV Routines
Sample format      : 44.100 Hz; 16 Bit; Stereo


TOC of the extracted CD

     Track |   Start  |  Length  | Start sector | End sector
    ---------------------------------------------------------
        1  |  0:00.33 |  2:39.00 |        33    |    11957  
        2  |  2:39.33 |  2:07.50 |     11958    |    21532  
        3  |  4:47.08 |  3:01.50 |     21533    |    35157  
        4  |  7:48.58 |  3:01.15 |     35158    |    48747  
        5  | 10:49.73 |  2:25.65 |     48748    |    59687  
        6  | 13:15.63 |  2:40.30 |     59688    |    71717  
        7  | 15:56.18 |  2:37.10 |     71718    |    83502  
        8  | 18:33.28 |  2:09.57 |     83503    |    93234  
        9  | 20:43.10 |  2:01.55 |     93235    |   102364  
       10  | 22:44.65 |  2:01.53 |    102365    |   111492  
       11  | 24:46.43 |  2:15.15 |    111493    |   121632  
       12  | 27:01.58 |  2:29.65 |    121633    |   132872  
       13  | 29:31.48 |  2:30.47 |    132873    |   144169  
       14  | 32:02.20 |  2:57.30 |    144170    |   157474  


Track  1

     Filename C:\Users\cmang\Music\The Beatles\1966 - Revolver\01. Taxman.wav

     Pre-gap length  0:00:02.44

     Suspicious position 0:00:13

     Peak level 86.8 %
     Track quality 99.7 %
     Copy CRC 86EA29BD
     Cannot be verified as accurate (confidence 3002)  [CC9F9C37], AccurateRip returned [ABB483FF]
     Copy OK

Track  2

     Filename C:\Users\cmang\Music\The Beatles\1966 - Revolver\02. Eleanor Rigby.wav

     Pre-gap length  0:00:01.74

     Peak level 64.6 %
     Track quality 100.0 %
     Copy CRC D25B3432
     Accurately ripped (confidence 400)  [BE588E2D]
     Copy OK

Track  3

     Filename C:\Users\cmang\Music\The Beatles\1966 - Revolver\03. I’m Only Sleeping.wav

     Pre-gap length  0:00:02.84

     Peak level 71.0 %
     Track quality 100.0 %
     Copy CRC CC932C84
     Accurately ripped (confidence 400)  [79227192]
     Copy OK

Track  4

     Filename C:\Users\cmang\Music\The Beatles\1966 - Revolver\04. Love You To.wav

     Pre-gap length  0:00:03.44

     Peak level 77.0 %
     Track quality 100.0 %
     Copy CRC 27B272F7
     Accurately ripped (confidence 400)  [AA30FCB8]
     Copy OK

Track  5

     Filename C:\Users\cmang\Music\The Beatles\1966 - Revolver\05. Here, There and Everywhere.wav

     Pre-gap length  0:00:03.17

     Peak level 59.6 %
     Track quality 100.0 %
     Copy CRC E8748871
     Accurately ripped (confidence 400)  [F95EAD33]
     Copy OK

Track  6

     Filename C:\Users\cmang\Music\The Beatles\1966 - Revolver\06. Yellow Submarine.wav

     Pre-gap length  0:00:02.84

     Peak level 86.6 %
     Track quality 100.0 %
     Copy CRC 2781010C
     Accurately ripped (confidence 400)  [204AC3EE]
     Copy OK

Track  7

     Filename C:\Users\cmang\Music\The Beatles\1966 - Revolver\07. She Said She Said.wav

     Pre-gap length  0:00:03.10

     Peak level 75.8 %
     Track quality 100.0 %
     Copy CRC 3796E2FB
     Accurately ripped (confidence 400)  [45AB8161]
     Copy OK

Track  8

     Filename C:\Users\cmang\Music\The Beatles\1966 - Revolver\08. Good Day Sunshine.wav

     Pre-gap length  0:00:02.30

     Peak level 97.7 %
     Track quality 100.0 %
     Copy CRC EDFF8410
     Accurately ripped (confidence 400)  [AEC0FE0C]
     Copy OK

Track  9

     Filename C:\Users\cmang\Music\The Beatles\1966 - Revolver\09. And Your Bird Can Sing.wav

     Pre-gap length  0:00:01.73

     Peak level 88.9 %
     Track quality 100.0 %
     Copy CRC DB548D86
     Accurately ripped (confidence 400)  [7550DFEF]
     Copy OK

Track 10

     Filename C:\Users\cmang\Music\The Beatles\1966 - Revolver\10. For No One.wav

     Pre-gap length  0:00:02.60

     Peak level 73.7 %
     Track quality 100.0 %
     Copy CRC 9DF76187
     Accurately ripped (confidence 400)  [C4B27A26]
     Copy OK

Track 11

     Filename C:\Users\cmang\Music\The Beatles\1966 - Revolver\11. Doctor Robert.wav

     Pre-gap length  0:00:03.37

     Peak level 88.3 %
     Track quality 100.0 %
     Copy CRC 0AB11728
     Accurately ripped (confidence 400)  [674B91C6]
     Copy OK

Track 12

     Filename C:\Users\cmang\Music\The Beatles\1966 - Revolver\12. I Want to Tell You.wav

     Pre-gap length  0:00:02.06

     Peak level 82.2 %
     Track quality 100.0 %
     Copy CRC 9E70FAAD
     Accurately ripped (confidence 400)  [38F4A4F6]
     Copy OK

Track 13

     Filename C:\Users\cmang\Music\The Beatles\1966 - Revolver\13. Got to Get You Into My Life.wav

     Pre-gap length  0:00:03.00

     Peak level 69.8 %
     Track quality 100.0 %
     Copy CRC 5F6DFA0E
     Accurately ripped (confidence 400)  [D1775CF6]
     Copy OK

Track 14

     Filename C:\Users\cmang\Music\The Beatles\1966 - Revolver\14. Tomorrow Never Knows.wav

     Pre-gap length  0:00:02.36

     Peak level 74.6 %
     Track quality 100.0 %
     Copy CRC 5ECD7D03
     Accurately ripped (confidence 400)  [D8C9AF77]
     Copy OK


13 track(s) accurately ripped

Some tracks could not be verified as accurate

There were errors

End of status report



mod edit: moved log to codebox

Re: 1 track could not be verified as accurate

Reply #4
Thanks for putting that in a code box Korth. I did a search for code box on this site, and realize I should have done that, but I don't know how.

Re: 1 track could not be verified as accurate

Reply #5
I attempted a repair using CUETools but really don't know what I'm doing there either! I couldn't even populate the screen with the file at first. I was able to drag and drop the problematic file (Track 1) in, but again I'm not sure if I'm supposed to attempt to repair the whole disc, or just the one track? Any way CUETools displayed the below screen:

[attachimg=1]


The catalog numbers on my CD partially match all of those, so does it matter which one I choose? I bought this CD off Discogs to replace a lost disc, specifically because the catalog numbers were an exact match with my original case, which I still have. Those numbers read: AAD CDP 7 46441 2 (DIDX 1481). Does the fact it's not in the list mean the pressing I have is not in the database? That would be surprising since it's such a popular and widespread CD. I chose the last one in the list and this screen resulted:



At the end this is what resulted in the box at the bottom ( I couldn't insert the whole log because I got an error message about exceeding 2,000 characters:

Code: [Select]
[CUETools log; Date: 4/5/2020 2:33:33 PM; Version: 2.1.6]
Pregap length 00:00:33.
CUETools DB: corrected 2 errors.
[AccurateRip ID: 00123e3f-00c12448-c808330e] found.
Track   [  CRC   |   V2   ] Status
 01     [7a74a26a|1651b534] (200+200/3002) Accurately ripped
 02     [be588e2d|c392c334] (200+200/3032) Accurately ripped
 03     [79227192|73b12d90] (200+200/3017) Accurately ripped
 04     [aa30fcb8|21c0d870] (200+200/3019) Accurately ripped
 05     [f95ead33|fc0b5898] (200+200/3029) Accurately ripped
 06     [204ac3ee|999b3f16] (200+200/3017) Accurately ripped
 07     [45ab8161|f469625f] (200+200/3027) Accurately ripped
 08     [aec0fe0c|2056baa8] (200+200/3036) Accurately ripped
 09     [7550dfef|f20cc50c] (200+200/3036) Accurately ripped
 10     [c4b27a26|3ab413b2] (200+200/3030) Accurately ripped
 11     [674b91c6|a8cce179] (200+200/3032) Accurately ripped
 12     [38f4a4f6|4e6d9ea1] (200+200/3021) Accurately ripped
 13     [d1775cf6|95c4fb71] (200+200/3015) Accurately ripped
 14     [d8c9af77|d96cf5d4] (200+200/3020) Accurately ripped
Offsetted by -2130:
 01     [b885dc90] (108/3002) Accurately ripped
 02     [e908d381] (113/3032) Accurately ripped
 03     [0d74466c] (113/3017) Accurately ripped
 04     [8b5e7dd2] (115/3019) Accurately ripped
 05     [21177c6d] (112/3029) Accurately ripped
 06     [c2d8f90e] (112/3017) Accurately ripped
 07     [4f6d3375] (113/3027) Accurately ripped
 08     [74fa1650] (113/3036) Accurately ripped
 09     [506dae39] (115/3036) Accurately ripped
 10     [60821ba4] (115/3030) Accurately ripped
 11     [5dd8e18a] (114/3032) Accurately ripped
 12     [eef77212] (115/3021) Accurately ripped
 13     [6ab6363c] (113/3015) Accurately ripped
 14     [0053874b] (115/3020) Accurately ripped
Offsetted by -1724:
 01     [863b6d3e] (007/3002) Accurately ripped
 02     [94b2d345] (007/3032) Accurately ripped
 03     [33c458be] (007/3017) Accurately ripped
 04     [fde4d764] (007/3019) Accurately ripped
 05     [57c7119f] (007/3029) Accurately ripped
 06     [0a80cfae] (007/3017) Accurately ripped
 07     [d09250f9] (007/3027) Accurately ripped
 08     [4102ea44] (008/3036) Accurately ripped
 09     [26e7593b] (007/3036) Accurately ripped
 10     [f05c36ca] (007/3030) Accurately ripped
 11     [cdbd76fe] (007/3032) Accurately ripped
 12     [36476ffe] (007/3021) Accurately ripped
 13     [f6013f8a] (007/3015) Accurately ripped
 14     [1096478f] (007/3020) Accurately ripped
Offsetted by -1072:
 01     [f2a1d77a] (005/3002) Accurately ripped
 02     [f40a730d] (005/3032) Accurately ripped
 03     [39ce6482] (005/3017) Accurately ripped
 04     [df6d25a8] (005/3019) Accurately ripped
 05     [ed643123] (005/3029) Accurately ripped
 06     [74bf86ee] (005/3017) Accurately ripped
 07     [eba1c841] (005/3027) Accurately ripped
 08     [4350256c] (005/3036) Accurately ripped
 09     [b309515f] (005/3036) Accurately ripped
 10     [21c71576] (005/3030) Accurately ripped
 11     [83f3cd26] (005/3032) Accurately ripped
 12     [ef6bd696] (005/3021) Accurately ripped
 13     [28edc506] (005/3015) Accurately ripped
 14     [25a7f057] (005/3020) Accurately ripped
Offsetted by -861:
 01     [cf09a8f9] (051/3002) Accurately ripped
 02     [c978de1f] (051/3032) Accurately ripped
 03     [6a178883] (050/3017) Accurately ripped
 04     [a5aa2449] (051/3019) Accurately ripped
 05     [2d1f4914] (052/3029) Accurately ripped
 06     [a73ab1be] (052/3017) Accurately ripped
 07     [aaf74733] (051/3027) Accurately ripped
 08     [f0d194d6] (051/3036) Accurately ripped
 09     [f983d1f8] (051/3036) Accurately ripped
 10     [8f37cdd1] (052/3030) Accurately ripped
 11     [712d6f50] (051/3032) Accurately ripped
 12     [aa8d369c] (051/3021) Accurately ripped
 13     [86c22a55] (051/3015) Accurately ripped
 14     [47f581a9] (052/3020) Accurately ripped
Offsetted by -847:
 01     [1cc078ff] (028/3002) Accurately ripped
 02     [88c559b3] (028/3032) Accurately ripped
 03     [7d11777d] (028/3017) Accurately ripped
 04     [1c5f5383] (028/3019) Accurately ripped
 05     [6ccd106e] (028/3029) Accurately ripped
 06     [a0df60de] (028/3017) Accurately ripped
 07     [68cc6b87] (028/3027) Accurately ripped
 08     [8dec5e5a] (028/3036) Accurately ripped
 09     [592fbd62] (028/3036) Accurately ripped
 10     [70de38af] (028/3030) Accurately ripped
 11     [2e6a4854] (028/3032) Accurately ripped
 12     [f3a1a078] (028/3021) Accurately ripped
 13     [7114337b] (028/3015) Accurately ripped
 14     [d5c2d7bd] (029/3020) Accurately ripped
Offsetted by -509:
 01     [03473bd9] (046/3002) Accurately ripped
 02     [b7d74a5f] (047/3032) Accurately ripped
 03     [6bc825a3] (047/3017) Accurately ripped
 04     [e09a3569] (047/3019) Accurately ripped
 05     [6e309434] (046/3029) Accurately ripped
 06     [2bf99bbe] (047/3017) Accurately ripped
 07     [74788f73] (047/3027) Accurately ripped
 08     [3a4e8416] (047/3036) Accurately ripped
 09     [a81d3a18] (047/3036) Accurately ripped
 10     [01d92831] (047/3030) Accurately ripped
 11     [99707690] (047/3032) Accurately ripped
 12     [b369e55c] (047/3021) Accurately ripped
 13     [aed0c735] (045/3015) Accurately ripped
 14     [c78df5e9] (047/3020) Accurately ripped
Offsetted by -427:
 01     [382cd9b3] (011/3002) Accurately ripped
 02     [f3bbd50b] (011/3032) Accurately ripped
 03     [b65b78c9] (011/3017) Accurately ripped
 04     [059adc4f] (011/3019) Accurately ripped
 05     [e32a6cfa] (011/3029) Accurately ripped
 06     [e22be69e] (010/3017) Accurately ripped
 07     [a7c6ad5f] (010/3027) Accurately ripped
 08     [f70ffbd2] (010/3036) Accurately ripped
 09     [8f5553ce] (010/3036) Accurately ripped
 10     [e25ebeb3] (011/3030) Accurately ripped
 11     [5b8bb6cc] (011/3032) Accurately ripped
 12     [84060840] (011/3021) Accurately ripped
 13     [e6b145ef] (011/3015) Accurately ripped
 14     [73d2ee15] (011/3020) Accurately ripped
Offsetted by -396:
 01     [bfaf5d2e] (200/3002) Accurately ripped
 02     [522e5465] (200/3032) Accurately ripped
 03     [173bc0ce] (200/3017) Accurately ripped
 04     [67e2e974] (200/3019) Accurately ripped
 05     [f02b38af] (200/3029) Accurately ripped
 06     [8af3fcae] (200/3017) Accurately ripped
 07     [02fa1019] (200/3027) Accurately ripped
 08     [9c1470e4] (200/3036) Accurately ripped
 09     [50e44acb] (200/3036) Accurately ripped
 10     [43bcf47a] (200/3030) Accurately ripped
 11     [5a00299e] (200/3032) Accurately ripped
 12     [6efc605e] (200/3021) Accurately ripped
 13     [a466ec7a] (200/3015) Accurately ripped
 14     [093e2caf] (200/3020) Accurately ripped
Offsetted by -305:
 01     [b8d3a555] (077/3002) Accurately ripped
 02     [2d9f77a7] (076/3032) Accurately ripped
 03     [12945227] (075/3017) Accurately ripped
 04     [eb7c9c6d] (076/3019) Accurately ripped
 05     [0e14c878] (076/3029) Accurately ripped
 06     [61a26efe] (075/3017) Accurately ripped
 07     [d4e37c3b] (077/3027) Accurately ripped
 08     [99428ebe] (076/3036) Accurately ripped
 09     [3ec1c4fc] (076/3036) Accurately ripped
 10     [fe76ab1d] (076/3030) Accurately ripped
 11     [a80bac38] (076/3032) Accurately ripped
 12     [4a011074] (075/3021) Accurately ripped
 13     [977c27f1] (075/3015) Accurately ripped
 14     [22f4dc31] (076/3020) Accurately ripped
Offsetted by -266:
 01     [b5e331f8] (110/3002) Accurately ripped
 02     [8bab6231] (112/3032) Accurately ripped
 03     [1095b504] (114/3017) Accurately ripped
 04     [dabe7b6a] (112/3019) Accurately ripped
 05     [3f78e185] (111/3029) Accurately ripped
 06     [9911c48e] (112/3017) Accurately ripped
 07     [2ed9cf25] (111/3027) Accurately ripped
 08     [05c40940] (113/3036) Accurately ripped
 09     [5b8e6711] (112/3036) Accurately ripped
 10     [05588bac] (112/3030) Accurately ripped
 11     [5bc7767a] (112/3032) Accurately ripped
 12     [cc70c9a2] (110/3021) Accurately ripped
 13     [6d60af24] (110/3015) Accurately ripped
 14     [528c4bfb] (112/3020) Accurately ripped
Offsetted by -243:
 01     [c7d8ac4b] (071/3002) Accurately ripped
 02     [ea84765b] (072/3032) Accurately ripped
 03     [d454e231] (071/3017) Accurately ripped
 04     [b00cb6b7] (070/3019) Accurately ripped
 05     [28165fe2] (072/3029) Accurately ripped
 06     [b3329b1e] (071/3017) Accurately ripped
 07     [8b4a41af] (070/3027) Accurately ripped
 08     [e34b78e2] (071/3036) Accurately ripped
 09     [c1dfb2f6] (073/3036) Accurately ripped
 10     [c13316ab] (072/3030) Accurately ripped
 11     [a4f491dc] (072/3032) Accurately ripped
 12     [1fedc0b0] (071/3021) Accurately ripped
 13     [12e77507] (072/3015) Accurately ripped
 14     [4dcb5965] (070/3020) Accurately ripped
Offsetted by -180:
 01     [258f5466] (200/3002) Accurately ripped
 02     [475ca275] (200/3032) Accurately ripped
 03     [a9b99596] (200/3017) Accurately ripped
 04     [463c0b3c] (200/3019) Accurately ripped
 05     [c6a460f7] (200/3029) Accurately ripped
 06     [9697af2e] (200/3017) Accurately ripped
 07     [e1896529] (200/3027) Accurately ripped
 08     [a64403b4] (200/3036) Accurately ripped
 09     [f0655653] (200/3036) Accurately ripped
 10     [b89ff792] (200/3030) Accurately ripped
 11     [7886626e] (200/3032) Accurately ripped
 12     [68c99d0e] (200/3021) Accurately ripped
 13     [31589e32] (200/3015) Accurately ripped
 14     [4be75cbf] (200/3020) Accurately ripped
Offsetted by -98:
 01     [5a74f240] (003/3002) Accurately ripped
 02     [83412d21] (003/3032) Accurately ripped
 03     [f44ce8bc] (003/3017) Accurately ripped
 04     [6b3cb222] (003/3019) Accurately ripped
 05     [3b9e39bd] (003/3029) Accurately ripped
 06     [4cc9fa0e] (003/3017) Accurately ripped
 07     [14d78315] (003/3027) Accurately ripped
 08     [63057b70] (003/3036) Accurately ripped
 09     [d79d7009] (003/3036) Accurately ripped
 10     [99258e14] (003/3030) Accurately ripped
 11     [3aa1a2aa] (003/3032) Accurately ripped
 12     [3965bff2] (003/3021) Accurately ripped
 13     [69391cec] (003/3015) Accurately ripped
 14     [f82c54eb] (003/3020) Accurately ripped
Offsetted by -84:
 01     [a82bc246] (040/3002) Accurately ripped
 02     [428da8b5] (041/3032) Accurately ripped
 03     [0746d7b6] (039/3017) Accurately ripped
 04     [e1f1e15c] (039/3019) Accurately ripped
 05     [7b4c0117] (041/3029) Accurately ripped
 06     [466ea92e] (042/3017) Accurately ripped
 07     [d2aca769] (041/3027) Accurately ripped
 08     [002044f4] (042/3036) Accurately ripped
 09     [37495b73] (041/3036) Accurately ripped
 10     [7acbf8f2] (040/3030) Accurately ripped
 11     [f7de7bae] (040/3032) Accurately ripped
 12     [827a29ce] (041/3021) Accurately ripped
 13     [538b2612] (041/3015) Accurately ripped
 14     [85f9aaff] (041/3020) Accurately ripped
Offsetted by -6:
 01     [a24adb8c] (002/3002) Accurately ripped
 02     [fea57dc9] (002/3032) Accurately ripped
 03     [03499d70] (002/3017) Accurately ripped
 04     [c0759f56] (002/3019) Accurately ripped
 05     [de143331] (002/3029) Accurately ripped
 06     [b54d544e] (002/3017) Accurately ripped
 07     [86994d3d] (002/3027) Accurately ripped
 08     [d92339f8] (002/3036) Accurately ripped
 09     [70e29f9d] (002/3036) Accurately ripped
 10     [888fba10] (002/3030) Accurately ripped
 11     [5f561032] (002/3032) Accurately ripped
 12     [87599c2a] (002/3021) Accurately ripped
 13     [ff543478] (002/3015) Accurately ripped
 14     [e5288a93] (002/3020) Accurately ripped
Offsetted by 20:
 01     [a055394e] (070/3002) Accurately ripped
 02     [3d581a25] (071/3032) Accurately ripped
 03     [01f534ae] (068/3017) Accurately ripped
 04     [0aa18954] (069/3019) Accurately ripped
 05     [5456ee8f] (070/3029) Accurately ripped
 06     [84ece2ae] (068/3017) Accurately ripped
 07     [c292d9d9] (070/3027) Accurately ripped
 08     [21798ba4] (071/3036) Accurately ripped
 09     [d96b0bab] (069/3036) Accurately ripped
 10     [e27ba51a] (068/3030) Accurately ripped
 11     [2c7dec5e] (069/3032) Accurately ripped
 12     [33a4179e] (070/3021) Accurately ripped
 13     [8dec8e9a] (070/3015) Accurately ripped
 14     [5a382a6f] (068/3020) Accurately ripped
Offsetted by 1330:
 01     [514bd4a4] (006/3002) Accurately ripped
 02     [bbba6a19] (006/3032) Accurately ripped
 03     [83e22058] (006/3017) Accurately ripped
 04     [b76d833e] (006/3019) Accurately ripped
 05     [9adba799] (006/3029) Accurately ripped
 06     [c467c0ce] (006/3017) Accurately ripped
 07     [b7c3fc8d] (006/3027) Accurately ripped
 08     [fbb1c608] (006/3036) Accurately ripped
 09     [f61d3c45] (006/3036) Accurately ripped
 10     [81742288] (006/3030) Accurately ripped
 11     [a0e01a42] (006/3032) Accurately ripped
 12     [5787ed9a] (006/3021) Accurately ripped
 13     [c5e8c210] (006/3015) Accurately ripped
 14     [77fca0e3] (006/3020) Accurately ripped
More than 16 offsets match!

Re: 1 track could not be verified as accurate

Reply #6
Sorry, I don't really know how to insert those jpgs I made from CUETools screens properly in line with the text.

Re: 1 track could not be verified as accurate

Reply #7
That's fine, they're still viewable.

Re: 1 track could not be verified as accurate

Reply #8
The catalog numbers on my CD partially match all of those, so does it matter which one I choose? I bought this CD off Discogs to replace a lost disc, specifically because the catalog numbers were an exact match with my original case, which I still have. Those numbers read: AAD CDP 7 46441 2 (DIDX 1481). Does the fact it's not in the list mean the pressing I have is not in the database? That would be surprising since it's such a popular and widespread CD. I chose the last one in the list and this screen resulted:
That window is just for selecting the metadata. You could keep your original metadata (and prevent this window from appearing) by un-ticking 'edit tags'.

MusicBrainz won't always have all possible TOCs attached to a release. Your CD release may be in their database without the TOC attached.

The next window is where you select the recovery record. With several choices of minor repair, most people would select the one with the highest confidence.

korth

Re: 1 track could not be verified as accurate

Reply #9
Ahh, ok, thank you both. So I ran it again, (unchecked the edit tags first), and chose the one with confidence 3012 and pretty much got that same result. Does that mean it fixed the incorrect samples? It sounds like it worked from what I gather. Should I try to verify it now? Or was that a verification in its own right?

Re: 1 track could not be verified as accurate

Reply #10
Yes it should be repaired. The process only verifies before the repair and doesn't re-verify after so it isn't a bad idea to verify.
korth

Re: 1 track could not be verified as accurate

Reply #11
Ok, thank you. Below in the codebox is what resulted after verifying.
Does this say track 1 does match the CUETools Data Base? I do not yet know how to interpret what all the "or...differs in..." phrases mean. I assume the lower the numerator and higher the denominator, the better here?
The AccuRip part says no match for track 1, so I guess according to the AR database it is still off?
Are any of the "offsetted by..." sections pertinent?
There is no end of status report message, so is this complete? Am I good to go? If so, how should I amend the original log files in the album folder, if at all?

Code: [Select]
[CUETools log; Date: 4/6/2020 6:24:35 AM; Version: 2.1.6]
Pregap length 00:00:33.
[CTDB TOCID: s0merxIqph6EbhuydhNYZAsOga4-] found.
Track | CTDB Status
  1   | (  1/4180) Accurately ripped, or (376/4180) differs in 2 samples @00:14:22, or (3014/4180) differs in 2 samples @00:14:22, or (343/4180) differs in 2 samples @00:14:22, or (157/4180) differs in 2 samples @00:14:22, or (2/4180) differs in 10929 samples @00:14:22,00:29:24,00:29:30-00:29:39
  2   | (4104/4180) Accurately ripped
  3   | (4104/4180) Accurately ripped
  4   | (4125/4180) Accurately ripped
  5   | (4125/4180) Accurately ripped
  6   | (4131/4180) Accurately ripped
  7   | (3968/4180) Accurately ripped, or (157/4180) differs in 2 samples @01:53:48, or (2/4180) differs in 2 samples @01:53:48
  8   | (4130/4180) Accurately ripped
  9   | (4135/4180) Accurately ripped
 10   | (4134/4180) Accurately ripped
 11   | (4137/4180) Accurately ripped
 12   | (4129/4180) Accurately ripped
 13   | (4109/4180) Accurately ripped
 14   | (4100/4180) Accurately ripped
[AccurateRip ID: 00123e3f-00c12448-c808330e] found.
Track   [  CRC   |   V2   ] Status
 01     [cc9f9c37|687caf27] (000+000/3002) No match
 02     [be588e2d|c392c334] (200+200/3032) Accurately ripped
 03     [79227192|73b12d90] (200+200/3017) Accurately ripped
 04     [aa30fcb8|21c0d870] (200+200/3019) Accurately ripped
 05     [f95ead33|fc0b5898] (200+200/3029) Accurately ripped
 06     [204ac3ee|999b3f16] (200+200/3017) Accurately ripped
 07     [45ab8161|f469625f] (200+200/3027) Accurately ripped
 08     [aec0fe0c|2056baa8] (200+200/3036) Accurately ripped
 09     [7550dfef|f20cc50c] (200+200/3036) Accurately ripped
 10     [c4b27a26|3ab413b2] (200+200/3030) Accurately ripped
 11     [674b91c6|a8cce179] (200+200/3032) Accurately ripped
 12     [38f4a4f6|4e6d9ea1] (200+200/3021) Accurately ripped
 13     [d1775cf6|95c4fb71] (200+200/3015) Accurately ripped
 14     [d8c9af77|d96cf5d4] (200+200/3020) Accurately ripped
Offsetted by -2130:
 01     [2bfd07af] (000/3002) No match (V2 was not tested)
 02     [e908d381] (113/3032) Accurately ripped
 03     [0d74466c] (113/3017) Accurately ripped
 04     [8b5e7dd2] (115/3019) Accurately ripped
 05     [21177c6d] (112/3029) Accurately ripped
 06     [c2d8f90e] (112/3017) Accurately ripped
 07     [4f6d3375] (113/3027) Accurately ripped
 08     [74fa1650] (113/3036) Accurately ripped
 09     [506dae39] (115/3036) Accurately ripped
 10     [60821ba4] (115/3030) Accurately ripped
 11     [5dd8e18a] (114/3032) Accurately ripped
 12     [eef77212] (115/3021) Accurately ripped
 13     [6ab6363c] (113/3015) Accurately ripped
 14     [0053874b] (115/3020) Accurately ripped
Offsetted by -1724:
 01     [f359cbc7] (000/3002) No match (V2 was not tested)
 02     [94b2d345] (007/3032) Accurately ripped
 03     [33c458be] (007/3017) Accurately ripped
 04     [fde4d764] (007/3019) Accurately ripped
 05     [57c7119f] (007/3029) Accurately ripped
 06     [0a80cfae] (007/3017) Accurately ripped
 07     [d09250f9] (007/3027) Accurately ripped
 08     [4102ea44] (008/3036) Accurately ripped
 09     [26e7593b] (007/3036) Accurately ripped
 10     [f05c36ca] (007/3030) Accurately ripped
 11     [cdbd76fe] (007/3032) Accurately ripped
 12     [36476ffe] (007/3021) Accurately ripped
 13     [f6013f8a] (007/3015) Accurately ripped
 14     [1096478f] (007/3020) Accurately ripped
Offsetted by -1479:
 01     [3f8488bb] (000/3002) No match (V2 was not tested)
 02     [a86d45e3] (000/3032) No match (V2 was not tested)
 03     [ffda2ed5] (000/3017) No match (V2 was not tested)
 04     [9b4791db] (000/3019) No match (V2 was not tested)
 05     [32283246] (000/3029) No match (V2 was not tested)
 06     [9b42c85e] (000/3017) No match (V2 was not tested)
 07     [caa44cb7] (000/3027) No match (V2 was not tested)
 08     [fe57b0ca] (000/3036) No match (V2 was not tested)
 09     [3127f0fa] (000/3036) No match (V2 was not tested)
 10     [5d3c84f7] (000/3030) No match (V2 was not tested)
 11     [3d664cc4] (000/3032) No match (V2 was not tested)
 12     [352cac88] (000/3021) No match (V2 was not tested)
 13     [fa9cdfa3] (000/3015) No match (V2 was not tested)
 14     [421fa9ed] (000/3020) No match (V2 was not tested)
Offsetted by -1072:
 01     [558eed77] (000/3002) No match (V2 was not tested)
 02     [f40a730d] (005/3032) Accurately ripped
 03     [39ce6482] (005/3017) Accurately ripped
 04     [df6d25a8] (005/3019) Accurately ripped
 05     [ed643123] (005/3029) Accurately ripped
 06     [74bf86ee] (005/3017) Accurately ripped
 07     [eba1c841] (005/3027) Accurately ripped
 08     [4350256c] (005/3036) Accurately ripped
 09     [b309515f] (005/3036) Accurately ripped
 10     [21c71576] (005/3030) Accurately ripped
 11     [83f3cd26] (005/3032) Accurately ripped
 12     [ef6bd696] (005/3021) Accurately ripped
 13     [28edc506] (005/3015) Accurately ripped
 14     [25a7f057] (005/3020) Accurately ripped
Offsetted by -1063:
 01     [19a9933b] (000/3002) No match (V2 was not tested)
 02     [93970ba3] (000/3032) No match (V2 was not tested)
 03     [ea93a2b5] (000/3017) No match (V2 was not tested)
 04     [3e0631bb] (000/3019) No match (V2 was not tested)
 05     [9653e826] (000/3029) No match (V2 was not tested)
 06     [953bae5e] (000/3017) No match (V2 was not tested)
 07     [8a3d1677] (000/3027) No match (V2 was not tested)
 08     [83bccb8a] (000/3036) No match (V2 was not tested)
 09     [b9aeb1da] (000/3036) No match (V2 was not tested)
 10     [fbfb3597] (000/3030) No match (V2 was not tested)
 11     [0fe40f84] (000/3032) No match (V2 was not tested)
 12     [f9d463c8] (000/3021) No match (V2 was not tested)
 13     [e42281c3] (000/3015) No match (V2 was not tested)
 14     [9319a7ad] (000/3020) No match (V2 was not tested)
Offsetted by -1060:
 01     [05b27527] (000/3002) No match (V2 was not tested)
 02     [737093d5] (002/3032) Accurately ripped
 03     [25800cc6] (002/3017) Accurately ripped
 04     [b2e3e06c] (002/3019) Accurately ripped
 05     [23f92527] (002/3029) Accurately ripped
 06     [4aba662e] (000/3017) No match (V2 was not tested)
 07     [69c63089] (002/3027) Accurately ripped
 08     [ee8bad94] (002/3036) Accurately ripped
 09     [bbe5d203] (002/3036) Accurately ripped
 10     [9a0c95a2] (002/3030) Accurately ripped
 11     [93ded04e] (002/3032) Accurately ripped
 12     [52a1e82e] (002/3021) Accurately ripped
 13     [cd341602] (002/3015) Accurately ripped
 14     [0cea3a1f] (002/3020) Accurately ripped
Offsetted by -930:
 01     [f9de086f] (000/3002) No match (V2 was not tested)
 02     [aceda1a1] (000/3032) No match (V2 was not tested)
 03     [1eda00fc] (000/3017) No match (V2 was not tested)
 04     [25bf7262] (000/3019) No match (V2 was not tested)
 05     [7346cdfd] (000/3029) No match (V2 was not tested)
 06     [58d82e0e] (000/3017) No match (V2 was not tested)
 07     [95a5ef95] (002/3027) Accurately ripped
 08     [583b45f0] (002/3036) Accurately ripped
 09     [c68fee49] (000/3036) No match (V2 was not tested)
 10     [5ba82cd4] (000/3030) No match (V2 was not tested)
 11     [95a61d2a] (000/3032) No match (V2 was not tested)
 12     [b0165172] (000/3021) No match (V2 was not tested)
 13     [962dd8ac] (000/3015) No match (V2 was not tested)
 14     [5638596b] (000/3020) No match (V2 was not tested)
Offsetted by -861:
 01     [2eaa54a3] (000/3002) No match (V2 was not tested)
 02     [c978de1f] (051/3032) Accurately ripped
 03     [6a178883] (050/3017) Accurately ripped
 04     [a5aa2449] (051/3019) Accurately ripped
 05     [2d1f4914] (052/3029) Accurately ripped
 06     [a73ab1be] (052/3017) Accurately ripped
 07     [aaf74733] (051/3027) Accurately ripped
 08     [f0d194d6] (051/3036) Accurately ripped
 09     [f983d1f8] (051/3036) Accurately ripped
 10     [8f37cdd1] (052/3030) Accurately ripped
 11     [712d6f50] (051/3032) Accurately ripped
 12     [aa8d369c] (051/3021) Accurately ripped
 13     [86c22a55] (051/3015) Accurately ripped
 14     [47f581a9] (052/3020) Accurately ripped
Offsetted by -847:
 01     [7c291d9b] (000/3002) No match (V2 was not tested)
 02     [88c559b3] (028/3032) Accurately ripped
 03     [7d11777d] (028/3017) Accurately ripped
 04     [1c5f5383] (028/3019) Accurately ripped
 05     [6ccd106e] (028/3029) Accurately ripped
 06     [a0df60de] (028/3017) Accurately ripped
 07     [68cc6b87] (028/3027) Accurately ripped
 08     [8dec5e5a] (028/3036) Accurately ripped
 09     [592fbd62] (028/3036) Accurately ripped
 10     [70de38af] (028/3030) Accurately ripped
 11     [2e6a4854] (028/3032) Accurately ripped
 12     [f3a1a078] (028/3021) Accurately ripped
 13     [7114337b] (028/3015) Accurately ripped
 14     [d5c2d7bd] (029/3020) Accurately ripped
Offsetted by -659:
 01     [43ab160b] (000/3002) No match (V2 was not tested)
 02     [ff5ab09b] (060/3032) Accurately ripped
 03     [e99b6e51] (059/3017) Accurately ripped
 04     [0d4e16d7] (058/3019) Accurately ripped
 05     [c3eaaa02] (061/3029) Accurately ripped
 06     [b939b51e] (059/3017) Accurately ripped
 07     [cbb177ef] (000/3027) No match (V2 was not tested)
 08     [5de65e22] (058/3036) Accurately ripped
 09     [3958f216] (059/3036) Accurately ripped
 10     [2274660b] (057/3030) Accurately ripped
 11     [d276cf1c] (058/3032) Accurately ripped
 12     [5b460970] (057/3021) Accurately ripped
 13     [2961d2e7] (058/3015) Accurately ripped
 14     [fcd15ba5] (058/3020) Accurately ripped
Offsetted by -653:
 01     [1bbcd9e3] (000/3002) No match
 02     [bf0dc0ff] (000/3032) No match
 03     [5f744273] (000/3017) No match
 04     [f7097439] (000/3019) No match
 05     [df352404] (000/3029) No match
 06     [243724be] (000/3017) No match
 07     [8ac3ac13] (000/3027) No match
 08     [33842236] (000/3036) No match
 09     [3dc73268] (000/3036) No match
 10     [5e972621] (002/3030) Accurately ripped
 11     [da6c50b0] (000/3032) No match
 12     [0ce1123c] (000/3021) No match (V2 was not tested)
 13     [fb84fb65] (000/3015) No match
 14     [f0728089] (000/3020) No match
Offsetted by -574:
 01     [63516c7f] (000/3002) No match (V2 was not tested)
 02     [1b18c379] (000/3032) No match
 03     [6f1b2b88] (000/3017) No match
 04     [a72c6c6e] (000/3019) No match
 05     [c689bfc9] (000/3029) No match
 06     [24eab7ce] (000/3017) No match
 07     [de88afed] (000/3027) No match
 08     [8576b7e8] (000/3036) No match
 09     [22c82bf5] (000/3036) No match
 10     [a10b5c98] (000/3030) No match
 11     [188cd022] (000/3032) No match
 12     [84afb0ba] (000/3021) No match
 13     [4a53e5e0] (000/3015) No match
 14     [22e6e643] (000/3020) No match
Offsetted by -528:
 01     [868449f7] (000/3002) No match (V2 was not tested)
 02     [d8caebcd] (002/3032) Accurately ripped
 03     [f69985e2] (002/3017) Accurately ripped
 04     [51c8e308] (002/3019) Accurately ripped
 05     [97c4bc83] (002/3029) Accurately ripped
 06     [592c64ee] (002/3017) Accurately ripped
 07     [97699501] (002/3027) Accurately ripped
 08     [4085972c] (002/3036) Accurately ripped
 09     [ef6ac3bf] (002/3036) Accurately ripped
 10     [18c07296] (000/3030) No match (V2 was not tested)
 11     [aae706e6] (002/3032) Accurately ripped
 12     [2ba99ed6] (002/3021) Accurately ripped
 13     [956171a6] (002/3015) Accurately ripped
 14     [19650117] (002/3020) Accurately ripped
Offsetted by -509:
 01     [5d673623] (000/3002) No match (V2 was not tested)
 02     [b7d74a5f] (047/3032) Accurately ripped
 03     [6bc825a3] (047/3017) Accurately ripped
 04     [e09a3569] (047/3019) Accurately ripped
 05     [6e309434] (046/3029) Accurately ripped
 06     [2bf99bbe] (047/3017) Accurately ripped
 07     [74788f73] (047/3027) Accurately ripped
 08     [3a4e8416] (047/3036) Accurately ripped
 09     [a81d3a18] (047/3036) Accurately ripped
 10     [01d92831] (047/3030) Accurately ripped
 11     [99707690] (047/3032) Accurately ripped
 12     [b369e55c] (047/3021) Accurately ripped
 13     [aed0c735] (045/3015) Accurately ripped
 14     [c78df5e9] (047/3020) Accurately ripped
Offsetted by -492:
 01     [96eee107] (000/3002) No match (V2 was not tested)
 02     [56fd4e25] (000/3032) No match (V2 was not tested)
 03     [b9ae7eae] (000/3017) No match (V2 was not tested)
 04     [cc2d1354] (000/3019) No match (V2 was not tested)
 05     [3b83988f] (000/3029) No match (V2 was not tested)
 06     [db1d02ae] (000/3017) No match (V2 was not tested)
 07     [11d6cdd9] (000/3027) No match (V2 was not tested)
 08     [42382fa4] (000/3036) No match (V2 was not tested)
 09     [0a0045ab] (000/3036) No match (V2 was not tested)
 10     [8190f31a] (000/3030) No match (V2 was not tested)
 11     [daa8105e] (000/3032) No match (V2 was not tested)
 12     [554bd39e] (000/3021) No match (V2 was not tested)
 13     [8234649a] (000/3015) No match (V2 was not tested)
 14     [cf2bde6f] (000/3020) No match (V2 was not tested)
Offsetted by -427:
 01     [9104aaab] (000/3002) No match (V2 was not tested)
 02     [f3bbd50b] (011/3032) Accurately ripped
 03     [b65b78c9] (011/3017) Accurately ripped
 04     [059adc4f] (011/3019) Accurately ripped
 05     [e32a6cfa] (011/3029) Accurately ripped
 06     [e22be69e] (010/3017) Accurately ripped
 07     [a7c6ad5f] (010/3027) Accurately ripped
 08     [f70ffbd2] (010/3036) Accurately ripped
 09     [8f5553ce] (010/3036) Accurately ripped
 10     [e25ebeb3] (011/3030) Accurately ripped
 11     [5b8bb6cc] (011/3032) Accurately ripped
 12     [84060840] (011/3021) Accurately ripped
 13     [e6b145ef] (011/3015) Accurately ripped
 14     [73d2ee15] (011/3020) Accurately ripped
Offsetted by -402:
 01     [3ff95aaf] (000/3002) No match (V2 was not tested)
 02     [927b4401] (000/3032) No match
 03     [a162ecac] (000/3017) No match
 04     [7e278c12] (000/3019) No match
 05     [d4e0bead] (000/3029) No match
 06     [1ff68d0e] (000/3017) No match
 07     [43e7dbf5] (000/3027) No match
 08     [c676acd0] (000/3036) No match
 09     [4c760a79] (000/3036) No match
 10     [079a3464] (000/3030) No match
 11     [520aa80a] (000/3032) No match
 12     [bd615792] (000/3021) No match
 13     [d243c3fc] (000/3015) No match
 14     [159d07cb] (000/3020) No match
More than 16 offsets match!

Track Peak [ CRC32  ] [W/O NULL] [  LOG   ]
 --   97.7 [EC33B0DC] [9A6187FD]          
 01   86.8 [86EA29BD] [97B058BE]   CRC32  
 02   64.6 [D25B3432] [981C587C]   CRC32  
 03   71.0 [CC932C84] [726A6349]   CRC32  
 04   77.0 [27B272F7] [F6239E4F]   CRC32  
 05   59.6 [E8748871] [4D5CAF43]   CRC32  
 06   86.6 [2781010C] [B287C92A]   CRC32  
 07   75.8 [3796E2FB] [97F31ECC]   CRC32  
 08   97.7 [EDFF8410] [BC827393]   CRC32  
 09   88.9 [DB548D86] [4ED6679A]   CRC32  
 10   73.7 [9DF76187] [FBCD15D7]   CRC32  
 11   88.3 [0AB11728] [38A6E63D]   CRC32  
 12   82.2 [9E70FAAD] [216EECD0]   CRC32  
 13   69.8 [5F6DFA0E] [3BD7F051]   CRC32  
 14   74.6 [5ECD7D03] [DE68C79F]   CRC32  

Re: 1 track could not be verified as accurate

Reply #12
That's your original rip (not repaired). There should be a new set files saved at a location specified In the Output. 

https://hydrogenaud.io/index.php?msg=976362
korth

Re: 1 track could not be verified as accurate

Reply #13
Ah, ok I didn't realize that. I did not have all the things checked as you laid out in that post. For one, I left it on Embedded instead of Tracks which resulted in the album as one file. So I changed everything to what you suggested and started with this (image below). Is it important to have libFLAC checked for encoder? Should that always be the case for repairs?

After it finished (2nd image below), a folder labeled 'repair' was created within the original album folder. It also had the original log file in it. It doesn't create a new log file I guess? The Accurip file was different from the original.

After verifying it produced this result (some of report deleted)
Code: [Select]
[CUETools log; Date: 4/6/2020 9:44:22 PM; Version: 2.1.6]
Pregap length 00:00:33.
[CTDB TOCID: s0merxIqph6EbhuydhNYZAsOga4-] found.
Track | CTDB Status
  1   | (4078/4186) Accurately ripped, or (2/4186) differs in 10927 samples @00:29:24,00:29:30-00:29:39
  2   | (4110/4186) Accurately ripped
  3   | (4110/4186) Accurately ripped
  4   | (4131/4186) Accurately ripped
  5   | (4131/4186) Accurately ripped
  6   | (4137/4186) Accurately ripped
  7   | (3974/4186) Accurately ripped, or (157/4186) differs in 2 samples @01:53:48, or (2/4186) differs in 2 samples @01:53:48
  8   | (4136/4186) Accurately ripped
  9   | (4141/4186) Accurately ripped
 10   | (4140/4186) Accurately ripped
 11   | (4143/4186) Accurately ripped
 12   | (4135/4186) Accurately ripped
 13   | (4115/4186) Accurately ripped
 14   | (4106/4186) Accurately ripped
[AccurateRip ID: 00123e3f-00c12448-c808330e] found.
Track   [  CRC   |   V2   ] Status
 01     [7a74a26a|1651b534] (200+200/3002) Accurately ripped
 02     [be588e2d|c392c334] (200+200/3032) Accurately ripped
 03     [79227192|73b12d90] (200+200/3017) Accurately ripped
 04     [aa30fcb8|21c0d870] (200+200/3019) Accurately ripped
 05     [f95ead33|fc0b5898] (200+200/3029) Accurately ripped
 06     [204ac3ee|999b3f16] (200+200/3017) Accurately ripped
 07     [45ab8161|f469625f] (200+200/3027) Accurately ripped
 08     [aec0fe0c|2056baa8] (200+200/3036) Accurately ripped
 09     [7550dfef|f20cc50c] (200+200/3036) Accurately ripped
 10     [c4b27a26|3ab413b2] (200+200/3030) Accurately ripped
 11     [674b91c6|a8cce179] (200+200/3032) Accurately ripped
 12     [38f4a4f6|4e6d9ea1] (200+200/3021) Accurately ripped
 13     [d1775cf6|95c4fb71] (200+200/3015) Accurately ripped
 14     [d8c9af77|d96cf5d4] (200+200/3020) Accurately ripped
Offsetted by -2130:
 01     [b885dc90] (108/3002) Accurately ripped
 02     [e908d381] (113/3032) Accurately ripped
 03     [0d74466c] (113/3017) Accurately ripped
 04     [8b5e7dd2] (115/3019) Accurately ripped
 05     [21177c6d] (112/3029) Accurately ripped
 06     [c2d8f90e] (112/3017) Accurately ripped
 07     [4f6d3375] (113/3027) Accurately ripped
 08     [74fa1650] (113/3036) Accurately ripped
 09     [506dae39] (115/3036) Accurately ripped
 10     [60821ba4] (115/3030) Accurately ripped
 11     [5dd8e18a] (114/3032) Accurately ripped
 12     [eef77212] (115/3021) Accurately ripped
 13     [6ab6363c] (113/3015) Accurately ripped
 14     [0053874b] (115/3020) Accurately ripped
Offsetted by -1724:
 01     [863b6d3e] (007/3002) Accurately ripped
 02     [94b2d345] (007/3032) Accurately ripped
 03     [33c458be] (007/3017) Accurately ripped
 04     [fde4d764] (007/3019) Accurately ripped
 05     [57c7119f] (007/3029) Accurately ripped
 06     [0a80cfae] (007/3017) Accurately ripped
 07     [d09250f9] (007/3027) Accurately ripped
 08     [4102ea44] (008/3036) Accurately ripped
 09     [26e7593b] (007/3036) Accurately ripped
 10     [f05c36ca] (007/3030) Accurately ripped
 11     [cdbd76fe] (007/3032) Accurately ripped
 12     [36476ffe] (007/3021) Accurately ripped
 13     [f6013f8a] (007/3015) Accurately ripped
 14     [1096478f] (007/3020) Accurately ripped
Offsetted by -1072:
 01     [f2a1d77a] (005/3002) Accurately ripped
 02     [f40a730d] (005/3032) Accurately ripped
 03     [39ce6482] (005/3017) Accurately ripped
 04     [df6d25a8] (005/3019) Accurately ripped
 05     [ed643123] (005/3029) Accurately ripped
 06     [74bf86ee] (005/3017) Accurately ripped
 07     [eba1c841] (005/3027) Accurately ripped
 08     [4350256c] (005/3036) Accurately ripped
 09     [b309515f] (005/3036) Accurately ripped
 10     [21c71576] (005/3030) Accurately ripped
 11     [83f3cd26] (005/3032) Accurately ripped
 12     [ef6bd696] (005/3021) Accurately ripped
 13     [28edc506] (005/3015) Accurately ripped
 14     [25a7f057] (005/3020) Accurately ripped
Offsetted by -861:
 01     [cf09a8f9] (051/3002) Accurately ripped
 02     [c978de1f] (051/3032) Accurately ripped
 03     [6a178883] (050/3017) Accurately ripped
 04     [a5aa2449] (051/3019) Accurately ripped
 05     [2d1f4914] (052/3029) Accurately ripped
 06     [a73ab1be] (052/3017) Accurately ripped
 07     [aaf74733] (051/3027) Accurately ripped
 08     [f0d194d6] (051/3036) Accurately ripped
 09     [f983d1f8] (051/3036) Accurately ripped
 10     [8f37cdd1] (052/3030) Accurately ripped
 11     [712d6f50] (051/3032) Accurately ripped
 12     [aa8d369c] (051/3021) Accurately ripped
 13     [86c22a55] (051/3015) Accurately ripped
 14     [47f581a9] (052/3020) Accurately ripped
Offsetted by -847:
 01     [1cc078ff] (028/3002) Accurately ripped
 02     [88c559b3] (028/3032) Accurately ripped
 03     [7d11777d] (028/3017) Accurately ripped
 04     [1c5f5383] (028/3019) Accurately ripped
 05     [6ccd106e] (028/3029) Accurately ripped
 06     [a0df60de] (028/3017) Accurately ripped
 07     [68cc6b87] (028/3027) Accurately ripped
 08     [8dec5e5a] (028/3036) Accurately ripped
 09     [592fbd62] (028/3036) Accurately ripped
 10     [70de38af] (028/3030) Accurately ripped
 11     [2e6a4854] (028/3032) Accurately ripped
 12     [f3a1a078] (028/3021) Accurately ripped
 13     [7114337b] (028/3015) Accurately ripped
 14     [d5c2d7bd] (029/3020) Accurately ripped
Offsetted by -509:
 01     [03473bd9] (046/3002) Accurately ripped
 02     [b7d74a5f] (047/3032) Accurately ripped
 03     [6bc825a3] (047/3017) Accurately ripped
 04     [e09a3569] (047/3019) Accurately ripped
 05     [6e309434] (046/3029) Accurately ripped
 06     [2bf99bbe] (047/3017) Accurately ripped
 07     [74788f73] (047/3027) Accurately ripped
 08     [3a4e8416] (047/3036) Accurately ripped
 09     [a81d3a18] (047/3036) Accurately ripped
 10     [01d92831] (047/3030) Accurately ripped
 11     [99707690] (047/3032) Accurately ripped
 12     [b369e55c] (047/3021) Accurately ripped
 13     [aed0c735] (045/3015) Accurately ripped
 14     [c78df5e9] (047/3020) Accurately ripped
Offsetted by -427:
 01     [382cd9b3] (011/3002) Accurately ripped
 02     [f3bbd50b] (011/3032) Accurately ripped
 03     [b65b78c9] (011/3017) Accurately ripped
 04     [059adc4f] (011/3019) Accurately ripped
 05     [e32a6cfa] (011/3029) Accurately ripped
 06     [e22be69e] (010/3017) Accurately ripped
 07     [a7c6ad5f] (010/3027) Accurately ripped
 08     [f70ffbd2] (010/3036) Accurately ripped
 09     [8f5553ce] (010/3036) Accurately ripped
 10     [e25ebeb3] (011/3030) Accurately ripped
 11     [5b8bb6cc] (011/3032) Accurately ripped
 12     [84060840] (011/3021) Accurately ripped
 13     [e6b145ef] (011/3015) Accurately ripped
 14     [73d2ee15] (011/3020) Accurately ripped
Is it over? Have I successfully repaired it? And if so, what should I do with the original rip? Delete it? Or should I save it for some reason? I assume I can just rename the folder in Explorer without screwing up any pathways, etc.

Re: 1 track could not be verified as accurate

Reply #14
Quote
Is it important to have libFLAC checked for encoder? Should that always be the case for repairs?
Unless you want to make changes you would probably try to replicate the original encoder and settings from the rip being repaired. In the example the original rip was made using the command-line flac.exe in EAC. CUETools uses the library version (libFLAC) instead of the command-line (flac.exe). If you used the native 'cuetools' encoder in CUERipper, you may want to stick with that. It really doesn't matter that much but some users may have a preference of encoder.
Quote
It doesn't create a new log file I guess?
The repair process won't change the contents of the extraction log. *Though the encoding of an EAC extraction log may be altered.
Quote
Is it over? Have I successfully repaired it?
Yes the rip is repaired.
Quote
And if so, what should I do with the original rip? Delete it? Or should I save it for some reason?
You can save anything that wasn't copied to the new folder, delete the rest and move the repaired files to the original folder.
korth

Re: 1 track could not be verified as accurate

Reply #15
Thanks korth. I will delete the originals. I'm not sure what "encoding of an EAC extraction log may be altered" means. I read the paragraph you linked, but coding is definitely not in my skill set so I don't understand most of it. I guess what I was asking about the log file was now that I've repaired the rip, I still have a log file that essentially says "there were errors". So should I just delete that log file as well? In fact is there any reason to keep a the log file in the folder, even for good rips? I guess the cue file is used by CUETools, and the accurip file gives pertinent information as to the accuracy of the rip, but is there any reason to keep the original log files, whether good or bad?

Re: 1 track could not be verified as accurate

Reply #16
It's up to you.
Normally I would recommend that you keep something when the CD had a data track or track 1 pregap to make any future attempt to verify against AccurateRip easier.
http://cue.tools/wiki/CUETools#Why_AccurateRip_database_lookups_sometimes_fail
Your CD has a track 1 pregap of 33 sectors but other pressings also exist with no track 1 pregap.
CUETools can find track 1 pregap information in the extraction log, or a CUE file, or AccurateRip tags, or the CDTOC tag.
korth

 

Re: 1 track could not be verified as accurate

Reply #17
So I'll always keep those .log files then (was always going to keep the .cue and .accurip files). Thanks for all your help! I've downloaded EAC as well because I want to try that too. And will probably get dbPoweramp since it sounds easy, but I want to be familiar with all three before I get too deep into the project.

 
SimplePortal 1.0.0 RC1 © 2008-2020