Skip to main content
Topic: Help! CueTools error: Access to path denied (Read 2545 times) previous topic - next topic
0 Members and 1 Guest are viewing this topic.

Help! CueTools error: Access to path denied

Hello

I have been using EAC to rip my discs for the past few years, and much more recently I discovered that I could fix not-quite-right rips using CueTools. I do remember that it was not very intuitive to learn the process, but have been successful a few times.

However, I recently had my HD crash and had to install Windows (7) from scratch. I have now downloaded CueTools 2.1.6 (which is the same version I last used), but am experiencing the following error:

Exception: Access to the path 'C:\some\path\that\doesnt\exist\and\is\not\referenced\anywhere\in\the\software' is denied.

Could one of you folks with more experience than I please help me to figure it out?

Thanks

Brian


Re: Help! CueTools error: Access to path denied

Reply #2
Thank you for your swift reply.

Unfortunately, nothing in that thread seems to be relevant to my issue.

I have checked the .cue file and there are no characters that could not be used in a path name or file name.

Incidentally, the path that it is telling me is denied is 'C:\users\Brian\Documents\My videos', which I find very odd as I cannot for the life of me imagine a reason that CueTools would want anything in that location. Both the input (.cue file and .wav file) and output (%filename%-new) are pointed to 'C:\users\Brian\Documents'.

Thanks again

Brian

Re: Help! CueTools error: Access to path denied

Reply #3
Could you post the contents of the CUE anyway (and the filename)?
korth

Re: Help! CueTools error: Access to path denied

Reply #4
Here is the .cue file and the .log file just for good luck.

Incidentally, I moved the three files (.cue, .wav and .log) to a network drive and the CueTools repair went without a hitch.

Code: [Select]
REM GENRE Rock
REM DATE 1981
REM DISCID AE114210
REM COMMENT "ExactAudioCopy v1.3"
PERFORMER "Bob Seger"
TITLE "Nine Tonight"
REM COMPOSER ""
FILE "Bob_Seger~Nine_Tonight-x.wav" WAVE
  TRACK 01 AUDIO
    TITLE "Nine Tonight"
    PERFORMER "Bob Seger"
    REM COMPOSER ""
    INDEX 00 00:00:00
    INDEX 01 00:00:33
  TRACK 02 AUDIO
    TITLE "Tryin' To Live My Life Without You"
    PERFORMER "Bob Seger"
    REM COMPOSER ""
    INDEX 00 05:15:00
    INDEX 01 05:15:08
  TRACK 03 AUDIO
    TITLE "You'll Accomp'ny Me"
    PERFORMER "Bob Seger"
    REM COMPOSER ""
    INDEX 00 09:18:50
    INDEX 01 09:18:58
  TRACK 04 AUDIO
    TITLE "Hollywood Nights"
    PERFORMER "Bob Seger"
    REM COMPOSER ""
    INDEX 00 13:31:12
    INDEX 01 13:31:18
  TRACK 05 AUDIO
    TITLE "Old Time Rock And Roll"
    PERFORMER "Bob Seger"
    REM COMPOSER ""
    INDEX 00 18:20:64
    INDEX 01 18:20:70
  TRACK 06 AUDIO
    TITLE "Mainstreet"
    PERFORMER "Bob Seger"
    REM COMPOSER ""
    INDEX 00 23:38:18
    INDEX 01 23:38:25
  TRACK 07 AUDIO
    TITLE "Against The Wind"
    PERFORMER "Bob Seger"
    REM COMPOSER ""
    INDEX 00 27:50:55
    INDEX 01 27:50:63
  TRACK 08 AUDIO
    TITLE "The Fire Down Below"
    PERFORMER "Bob Seger"
    REM COMPOSER ""
    INDEX 00 33:18:28
    INDEX 01 33:18:35
  TRACK 09 AUDIO
    TITLE "Her Strut"
    PERFORMER "Bob Seger"
    REM COMPOSER ""
    INDEX 00 38:05:35
    INDEX 01 38:05:43
  TRACK 10 AUDIO
    TITLE "Feel Like A Number"
    PERFORMER "Bob Seger"
    REM COMPOSER ""
    INDEX 00 42:03:00
    INDEX 01 42:03:08
  TRACK 11 AUDIO
    TITLE "Fire Lake"
    PERFORMER "Bob Seger"
    REM COMPOSER ""
    INDEX 00 49:57:64
    INDEX 01 49:58:48
  TRACK 12 AUDIO
    TITLE "Betty Lou's Gettin' Out Tonight"
    PERFORMER "Bob Seger"
    REM COMPOSER ""
    INDEX 00 50:04:73
    INDEX 01 50:05:05
  TRACK 13 AUDIO
    TITLE "We've Got Tonight"
    PERFORMER "Bob Seger"
    REM COMPOSER ""
    INDEX 00 53:04:36
    INDEX 01 53:04:43
  TRACK 14 AUDIO
    TITLE "Night Moves"
    PERFORMER "Bob Seger"
    REM COMPOSER ""
    INDEX 00 57:59:74
    INDEX 01 58:00:05
  TRACK 15 AUDIO
    TITLE "Rock And Roll Never Forgets"
    PERFORMER "Bob Seger"
    REM COMPOSER ""
    INDEX 00 63:44:03
    INDEX 01 63:44:10
  TRACK 16 AUDIO
    TITLE "Let It Rock"
    PERFORMER "Bob Seger"
    REM COMPOSER ""
    INDEX 00 67:19:63
    INDEX 01 67:19:68

Code: [Select]
Exact Audio Copy V1.3 from 2. September 2016

EAC extraction logfile from 23. August 2019, 16:55

Bob Seger / Nine Tonight

Used drive  : PIONEER BD-RW   BDR-209D   Adapter: 1  ID: 1

Read mode               : Secure
Utilize accurate stream : Yes
Defeat audio cache      : Yes
Make use of C2 pointers : No

Read offset correction                      : 667
Overread into Lead-In and Lead-Out          : No
Fill up missing offset samples with silence : Yes
Delete leading and trailing silent blocks   : No
Null samples used in CRC calculations       : Yes
Used interface                              : Native Win32 interface for Win NT & 2000

Used output format : Internal WAV Routines
Sample format      : 44.100 Hz; 16 Bit; Stereo


TOC of the extracted CD

     Track |   Start  |  Length  | Start sector | End sector
    ---------------------------------------------------------
        1  |  0:00.33 |  5:14.50 |        33    |    23632  
        2  |  5:15.08 |  4:03.50 |     23633    |    41907  
        3  |  9:18.58 |  4:12.35 |     41908    |    60842  
        4  | 13:31.18 |  4:49.52 |     60843    |    82569  
        5  | 18:20.70 |  5:17.30 |     82570    |   106374  
        6  | 23:38.25 |  4:12.38 |    106375    |   125312  
        7  | 27:50.63 |  5:27.47 |    125313    |   149884  
        8  | 33:18.35 |  4:47.08 |    149885    |   171417  
        9  | 38:05.43 |  3:57.40 |    171418    |   189232  
       10  | 42:03.08 |  7:55.40 |    189233    |   224897  
       11  | 49:58.48 |  0:06.32 |    224898    |   225379  
       12  | 50:05.05 |  2:59.38 |    225380    |   238842  
       13  | 53:04.43 |  4:55.37 |    238843    |   261004  
       14  | 58:00.05 |  5:44.05 |    261005    |   286809  
       15  | 63:44.10 |  3:35.58 |    286810    |   302992  
       16  | 67:19.68 |  6:18.32 |    302993    |   331374  


Range status and errors

Selected range

     Filename C:\Users\Brian\Documents\Bob_Seger~Nine_Tonight-x.wav

     Suspicious position 1:12:25

     Peak level 100.0 %
     Extraction speed 7.2 X
     Range quality 99.9 %
     Copy CRC F1114291
     Copy finished

There were errors

 
AccurateRip summary
 
Track  1  accurately ripped (confidence 1)  [1EA25F3A]  (AR v1)
Track  2  accurately ripped (confidence 2)  [37AC16B2]  (AR v1)
Track  3  cannot be verified as accurate (confidence 1)  [52DC7FD4], AccurateRip returned [FD5A51A2]  (AR v2)
Track  4  accurately ripped (confidence 1)  [63743EC3]  (AR v1)
Track  5  cannot be verified as accurate (confidence 1)  [7F730432], AccurateRip returned [CFCCF5B8]  (AR v2)
Track  6  cannot be verified as accurate (confidence 1)  [6D7AE8FA], AccurateRip returned [18B38A16]  (AR v2)
Track  7  cannot be verified as accurate (confidence 1)  [45B714F2], AccurateRip returned [0FB47147]  (AR v2)
Track  8  cannot be verified as accurate (confidence 1)  [0783B6AB], AccurateRip returned [6EA7E2A8]  (AR v2)
Track  9  cannot be verified as accurate (confidence 1)  [EF8B04E3], AccurateRip returned [D9FBC501]  (AR v2)
Track 10  cannot be verified as accurate (confidence 1)  [CA607214], AccurateRip returned [1570A137]  (AR v2)
Track 11  accurately ripped (confidence 2)  [2DC28C40]  (AR v1)
Track 12  cannot be verified as accurate (confidence 1)  [1398DFDA], AccurateRip returned [724EF291]  (AR v2)
Track 13  cannot be verified as accurate (confidence 1)  [19174053], AccurateRip returned [51A404A7]  (AR v2)
Track 14  cannot be verified as accurate (confidence 1)  [B0F09DD5], AccurateRip returned [0F2464C1]  (AR v2)
Track 15  cannot be verified as accurate (confidence 1)  [A69A149D], AccurateRip returned [CAB38D4B]  (AR v2)
Track 16  cannot be verified as accurate (confidence 1)  [7D634E54], AccurateRip returned [950281E2]  (AR v2)
 
 4 track(s) accurately ripped
12 track(s) could not be verified as accurate

Some tracks could not be verified as accurate

End of status report

---- CUETools DB Plugin V2.1.6

[CTDB TOCID: 6LzAM8rgqy5fSWkES1Ms1F5BXr0-] found
Submit result: 6LzAM8rgqy5fSWkES1Ms1F5BXr0- has been submitted
Track | CTDB Status
  1   | (2/2) Accurately ripped
  2   | (2/2) Accurately ripped
  3   | (2/2) Differs in 5 samples @03:46:35
  4   | (2/2) Accurately ripped
  5   | (2/2) Accurately ripped
  6   | (2/2) Differs in 9 samples @02:11:66,03:09:69,03:12:04
  7   | (2/2) Differs in 4 samples @00:05:10
  8   | (2/2) Differs in 6 samples @03:30:63,03:55:57
  9   | (2/2) Accurately ripped
 10   | (2/2) Differs in 2 samples @07:44:60
 11   | (2/2) Accurately ripped
 12   | (2/2) Accurately ripped
 13   | (2/2) Differs in 5 samples @04:40:34
 14   | (2/2) Accurately ripped
 15   | (2/2) Differs in 10 samples @00:21:14,03:02:44
 16   | (2/2) Accurately ripped
If you are sure that your rip contains errors, you can use CUETools to repair it.

Although there is now no longer any urgency, I would like to know why the error was thrown on the local drive, but not on the network drive.

Just for giggles, I tried every .cue/.wav pair in my Documents directory before moving that set and every one of them failed with the same error.

It might be beneficial to add that the file system is NTFS on my Windows machine and ZFS on the network drive.

Brian

Re: Help! CueTools error: Access to path denied

Reply #5
Do all the rips that failed have the tilde '~' in the filename?
korth

Re: Help! CueTools error: Access to path denied

Reply #6
All of my files have the tilde in the filename. Good rips, bad rips, album cover art, concert dvd rips, etc etc. It's my favourite separator character because it's seldom found anywhere else.

I have never before had any issue. (However, I am not completely sure (only half sure) that I have ever run CueTools on a file that was on the local Windows drive; I save everything to the NAS.)

Thanks

Brian

Re: Help! CueTools error: Access to path denied

Reply #7
I haven't been able to duplicate the Exception so far. I'm not having an issue with the tilde on Win10 either so just pulling straws perhaps.
korth

 
SimplePortal 1.0.0 RC1 © 2008-2019