Skip to main content
Topic: EAC - Error in CUE sheet (Read 314 times) previous topic - next topic
0 Members and 1 Guest are viewing this topic.

EAC - Error in CUE sheet

Hi guys, can you please tell me what is wrong with my cue file? EAC doesn't want to split my WAV file into songs.
Thank you :)

Code: [Select]
REM GENRE Soundtrack
REM DATE 1989
REM DISCID 8F11231A
REM COMMENT "ExactAudioCopy v1.0b3"
PERFORMER "Jerry Goldsmith"
TITLE "Star Trek V: Final Frontier (Disc 1)"
FILE "Jerry Goldsmith - Star Trek V- Final Frontier (Disc 1).wav" WAVE
  TRACK 01 AUDIO
    TITLE "Nimbus III"
    PERFORMER "Jerry Goldsmith"
    ISRC H2I461001017
    INDEX 01 00:00:00
  TRACK 02 AUDIO
    TITLE "The Mind Meld"
    PERFORMER "Jerry Goldsmith"
    ISRC H2I461001018
    INDEX 00 02:01:35
    INDEX 01 02:03:17
  TRACK 03 AUDIO
    TITLE "The Mountain [Main Theme]"
    PERFORMER "Jerry Goldsmith"
    ISRC H2I461001019
    INDEX 00 04:47:53
    INDEX 01 04:49:35
  TRACK 04 AUDIO
    TITLE "The Big Drop"
    PERFORMER "Jerry Goldsmith"
    ISRC H2I461001020
    INDEX 00 09:42:67
    INDEX 01 09:44:48
  TRACK 05 AUDIO
    TITLE "Raid On Paradise"
    PERFORMER "Jerry Goldsmith"
    ISRC H2I461001021
    INDEX 00 10:10:35
    INDEX 01 10:12:16
  TRACK 06 AUDIO
    TITLE "Not Alone"
    PERFORMER "Jerry Goldsmith"
    ISRC H2I461001022
    INDEX 00 12:55:50
    INDEX 01 12:57:32
  TRACK 07 AUDIO
    TITLE "Target Practice"
    PERFORMER "Jerry Goldsmith"
    ISRC H2I461001023
    INDEX 00 14:08:38
    INDEX 01 14:10:20
  TRACK 08 AUDIO
    TITLE "A Tall Ship"
    PERFORMER "Jerry Goldsmith"
    ISRC H2I461001024
    INDEX 00 16:02:37
    INDEX 01 16:04:18
  TRACK 09 AUDIO
    TITLE "Plot Course"
    PERFORMER "Jerry Goldsmith"
    ISRC H2I461001025
    INDEX 00 17:47:63
    INDEX 01 17:49:44
  TRACK 10 AUDIO
    TITLE "No Harm"
    PERFORMER "Jerry Goldsmith"
    ISRC H2I461001026
    INDEX 00 19:35:64
    INDEX 01 19:37:46
  TRACK 11 AUDIO
    TITLE "Approaching Nimbus III"
    PERFORMER "Jerry Goldsmith"
    ISRC H2I461001027
    INDEX 00 21:51:00
    INDEX 01 21:52:56
  TRACK 12 AUDIO
    TITLE "Open The Gates"
    PERFORMER "Jerry Goldsmith"
    ISRC H2I461001028
    INDEX 00 24:52:00
    INDEX 01 24:53:57
  TRACK 13 AUDIO
    TITLE "Well Done"
    PERFORMER "Jerry Goldsmith"
    ISRC H2I461001029
    INDEX 00 27:55:30
    INDEX 01 27:57:12
  TRACK 14 AUDIO
    TITLE "Without Help"
    PERFORMER "Jerry Goldsmith"
    ISRC H2I461001030
    INDEX 00 29:13:01
    INDEX 01 29:14:57
  TRACK 15 AUDIO
    TITLE "Pick It Up"
    PERFORMER "Jerry Goldsmith"
    ISRC H2I461001031
    INDEX 00 34:10:25
    INDEX 01 34:12:07
  TRACK 16 AUDIO
    TITLE "No Authority"
    PERFORMER "Jerry Goldsmith"
    ISRC H2I461001032
    INDEX 00 36:43:41
    INDEX 01 36:45:23
  TRACK 17 AUDIO
    TITLE "It Exists"
    PERFORMER "Jerry Goldsmith"
    ISRC H2I461001033
    INDEX 00 37:16:01
    INDEX 01 37:17:57
  TRACK 18 AUDIO
    TITLE "Free Minds"
    PERFORMER "Jerry Goldsmith"
    ISRC H2I461001034
    INDEX 00 39:04:44
    INDEX 01 39:06:26
  TRACK 19 AUDIO
    TITLE "The Birth"
    PERFORMER "Jerry Goldsmith"
    ISRC H2I461001035
    INDEX 00 42:24:25
    INDEX 01 42:26:06
  TRACK 20 AUDIO
    TITLE "The Barrier"
    PERFORMER "Jerry Goldsmith"
    ISRC H2I461001036
    INDEX 00 46:19:44
    INDEX 01 46:21:26
  TRACK 21 AUDIO
    TITLE "A Busy Man"
    PERFORMER "Jerry Goldsmith"
    ISRC H2I461001037
    INDEX 00 49:13:66
    INDEX 01 49:15:47
  TRACK 22 AUDIO
    TITLE "An Angry God"
    PERFORMER "Jerry Goldsmith"
    ISRC H2I461001038
    INDEX 00 53:57:26
    INDEX 01 53:59:08
  TRACK 23 AUDIO
    TITLE "Let's Get Out Of Here [Part 1]"
    PERFORMER "Jerry Goldsmith"
    ISRC H2I461001039
    INDEX 00 60:56:21
    INDEX 01 60:58:02
  TRACK 24 AUDIO
    TITLE "Let's Get Out Of Here [Part 2]"
    PERFORMER "Jerry Goldsmith"
    ISRC H2I461001040
    INDEX 00 64:40:57
    INDEX 01 64:42:39
  TRACK 25 AUDIO
    TITLE "Cosmic Thoughts"
    PERFORMER "Jerry Goldsmith"
    ISRC H2I461001041
    INDEX 00 67:49:63
    INDEX 01 67:51:45
  TRACK 26 AUDIO
    TITLE "Life Is A Dream [End Credits]"
    PERFORMER "Jerry Goldsmith"
    ISRC H2I461001042
    INDEX 00 69:07:63
    INDEX 01 69:09:44

Edit: added code box

Re: EAC - Error in CUE sheet

Reply #1
Remove the ISRC lines.
The tool is simple and probably doesn't recognize the command.


edit: expanded
korth

Re: EAC - Error in CUE sheet

Reply #2
It helped! Thank you so much :)

Re: EAC - Error in CUE sheet

Reply #3
May i guys bother you with one more please? This one also returns Error in CUE sheet, and i have no clue ...

Code: [Select]
REM GENRE Soundtrack
REM DATE 1982
REM DISCID 4F11B017
REM COMMENT "ExactAudioCopy v1.0b3"
PERFORMER "James Horner"
TITLE "Star Trek II: The Wrath Of Khan"
FILE "James Horner - Star Trek II- The Wrath Of Khan.wav" WAVE
  TRACK 01 AUDIO
    TITLE "Main Title"
    PERFORMER "James Horner"
    INDEX 01 00:00:00
  TRACK 02 AUDIO
    TITLE "Surprise On Ceti Alpha V"
    PERFORMER "James Horner"
    INDEX 00 03:06:72
    INDEX 01 03:08:18
  TRACK 03 AUDIO
    TITLE "Khan's Pets"
    PERFORMER "James Horner"
    INDEX 00 03:53:22
    INDEX 01 03:55:03
  TRACK 04 AUDIO
    TITLE "The Eels Of Ceti Alpha V / Kirk In Space Shuttle"
    PERFORMER "James Horner"
    INDEX 00 08:14:18
    INDEX 01 08:15:29
  TRACK 05 AUDIO
    TITLE "Enterprise Clears Moorings"
    PERFORMER "James Horner"
    INDEX 00 12:08:36
    INDEX 01 12:09:66
  TRACK 06 AUDIO
    TITLE "Chekov Lies"
    PERFORMER "James Horner"
    INDEX 00 15:43:29
    INDEX 01 15:44:30
  TRACK 07 AUDIO
    TITLE "Spock"
    PERFORMER "James Horner"
    INDEX 00 16:25:15
    INDEX 01 16:27:17
  TRACK 08 AUDIO
    TITLE "Kirk Takes Command / He Tasks Me"
    PERFORMER "James Horner"
    INDEX 00 17:39:21
    INDEX 01 17:40:31
  TRACK 09 AUDIO
    TITLE "Genesis Project"
    PERFORMER "Craig Huxley"
    INDEX 00 19:47:72
    INDEX 01 19:48:60
  TRACK 10 AUDIO
    TITLE "Surprise Attack"
    PERFORMER "James Horner"
    INDEX 00 23:05:40
    INDEX 01 23:06:35
  TRACK 11 AUDIO
    TITLE "Kirk's Explosive Reply"
    PERFORMER "James Horner"
    INDEX 00 28:13:59
    INDEX 01 28:15:20
  TRACK 12 AUDIO
    TITLE "Inside Regula I"
    PERFORMER "James Horner"
    INDEX 00 32:16:51
    INDEX 01 32:18:38
  TRACK 13 AUDIO
    TITLE "Brainwashed"
    PERFORMER "James Horner"
    INDEX 00 33:54:23
    INDEX 01 33:56:32
  TRACK 14 AUDIO
    TITLE "Captain Terrell's Death"
    PERFORMER "James Horner"
    INDEX 00 35:20:69
    INDEX 01 35:22:10
  TRACK 15 AUDIO
    TITLE "Buried Alive"
    PERFORMER "James Horner"
    INDEX 00 37:20:68
    INDEX 01 37:22:49
  TRACK 16 AUDIO
    TITLE "The Genesis Cave"
    PERFORMER "James Horner"
    INDEX 00 38:19:55
    INDEX 01 38:21:42
  TRACK 17 AUDIO
    TITLE "Battle In The Mutara Nebula"
    PERFORMER "James Horner"
    INDEX 00 39:31:01
    INDEX 01 39:32:44
  TRACK 18 AUDIO
    TITLE "Enterprise Attacks Reliant"
    PERFORMER "James Horner"
    INDEX 00 47:40:35
    INDEX 01 47:42:17
  TRACK 19 AUDIO
    TITLE "Genesis Countdown"
    PERFORMER "James Horner"
    INDEX 00 49:12:10
    INDEX 01 49:13:04
  TRACK 20 AUDIO
    TITLE "Spock (Dies)"
    PERFORMER "James Horner"
    INDEX 00 55:47:45
    INDEX 01 55:48:45
  TRACK 21 AUDIO
    TITLE "Amazing Grace"
    PERFORMER "James Horner"
    INDEX 00 57:42:41
    INDEX 01 57:44:01
  TRACK 22 AUDIO
    TITLE "Epilogue / End Title"
    PERFORMER "James Horner"
    INDEX 00 59:10:48
    INDEX 01 59:11:62
  TRACK 23 AUDIO
    TITLE "Epilogue (Original Version) / End Title"
    PERFORMER "James Horner"
    INDEX 00 67:52:62
    INDEX 01 67:58:58

Re: EAC - Error in CUE sheet

Reply #4
I'm not getting an error with this one (using dummy a wav file).
Make sure the WAV filename matches the one in the CUE. The tool will throw the "Error in CUE sheet!" if they aren't the same.
korth

Re: EAC - Error in CUE sheet

Reply #5
i removed the top part

REM GENRE Soundtrack
REM DATE 1982
REM DISCID 4F11B017
REM COMMENT "ExactAudioCopy v1.0b3"
PERFORMER "James Horner"
TITLE "Star Trek II: The Wrath Of Khan"

.. and it worked.

Thank you for taking your time korth!

 
SimplePortal 1.0.0 RC1 © 2008-2019