Skip to main content
Topic: Exception Track 2 INDEX 00 is 91:42:56 which is past the end of the source file (Read 213 times) previous topic - next topic
0 Members and 1 Guest are viewing this topic.

Exception Track 2 INDEX 00 is 91:42:56 which is past the end of the source file

I'm trying to understand what is going on here.  I am ripping use EAC. It rips to FLAC tracks just fine, Accurip is succesful. But when I rip to image, it's giving several tracks that have these abnormal INDEX 00 numbers. This has only happened on this specific CD so far, but I have done about 6 discs using the EAC -> Cuetools method. I have not used cuetools alot, and EAC is in fact putting those numbers in the cue sheet. So I think Cuetools is doing what it's supposed to be doing, but I don't understand why the cue file is being made this way or how can I fix this. I tried changing EAC gap detection from innaccurate to accurate. I don't usually do the cuetools, but I have some scratched discs so I've been trying to use it to repair the rips.



REM GENRE Pop
REM DATE 1986
REM DISCID 6A097609
REM COMMENT "ExactAudioCopy v1.3"
PERFORMER "Madonna"
TITLE "True Blue"
REM COMPOSER ""
FILE "Madonna - True Blue.wav" WAVE
  TRACK 01 AUDIO
    TITLE "Papa Don’t Preach"
    PERFORMER "Madonna"
    REM COMPOSER ""
    INDEX 00 00:00:00
    INDEX 01 00:00:33
  TRACK 02 AUDIO
    TITLE "Open Your Heart"
    PERFORMER "Madonna"
    REM COMPOSER ""
   INDEX 00 91:42:56
    INDEX 01 04:28:73
  TRACK 03 AUDIO
    TITLE "White Heat"
    PERFORMER "Madonna"
    REM COMPOSER ""
    INDEX 00 95:55:28
    INDEX 01 08:42:28
  TRACK 04 AUDIO
    TITLE "Live to Tell"
    PERFORMER "Madonna"
    REM COMPOSER ""
    INDEX 00 90:34:63
    INDEX 01 13:22:33
  TRACK 05 AUDIO
    TITLE "Where’s the Party"
    PERFORMER "Madonna"
    REM COMPOSER ""
    INDEX 00 06:27:33
    INDEX 01 19:13:70
  TRACK 06 AUDIO
    TITLE "True Blue"
    PERFORMER "Madonna"
    REM COMPOSER ""
    INDEX 00 00:48:53
    INDEX 01 23:34:70
  TRACK 07 AUDIO
    TITLE "La isla bonita"
    PERFORMER "Madonna"
    REM COMPOSER ""
    INDEX 00 15:06:31
    INDEX 01 27:53:13
  TRACK 08 AUDIO
    TITLE "Jimmy Jimmy"
    PERFORMER "Madonna"
    REM COMPOSER ""
    INDEX 00 19:08:28
    INDEX 01 31:55:48
  TRACK 09 AUDIO
    TITLE "Love Makes the World Go Round"
    PERFORMER "Madonna"
    REM COMPOSER ""
    INDEX 00 23:04:28
    INDEX 01 35:51:28

 

Re: Exception Track 2 INDEX 00 is 91:42:56 which is past the end of the source file

Reply #1
To use this CUE in CUETools you'll need to remove all the INDEX 00 lines from Track 02 to the end. Do not remove INDEX 00 from Track 01.
I wouldn't be too concerned about fixing this in EAC unless you continue to notice problems. The best settings for this particular CD may not be best for the majority of CDs you RIP.[1]
korth

 
SimplePortal 1.0.0 RC1 © 2008-2018