Skip to main content
Topic: [Question] Can anyone explain me if this is a decent Rip or not and why? (Read 397 times) previous topic - next topic
0 Members and 1 Guest are viewing this topic.

[Question] Can anyone explain me if this is a decent Rip or not and why?

Hi everyone!

I checked this .flac files with CUETools (Verify) and foobar2000 (Verify album with AccurateRip) and I want to know what this files tell me. Is or isn't accurate?. Thank you. **Not ripped by me**

Additional log comment:
"Gap handling : Not detected, thus appended to previous track"

CUETools results:
Quote
[CUETools log; Date: 8/7/2018 17:58:49; Version: 2.1.6]
[CTDB TOCID: BXRWo5rYOLk2oUuU2R3pGqGzG.E-] found.
Track | CTDB Status
  1   | (196/198) Accurately ripped
  2   | (196/198) Accurately ripped
  3   | (196/198) Accurately ripped
  4   | (196/198) Accurately ripped
  5   | (195/198) Accurately ripped
  6   | (196/198) Accurately ripped
  7   | (196/198) Accurately ripped
  8   | (197/198) Accurately ripped
  9   | (197/198) Accurately ripped
 10   | (197/198) Accurately ripped
[AccurateRip ID: 000f9188-007d67ac-7909f10a] found.
Track   [  CRC   |   V2   ] Status
 01     [1b2f4dbf|7451879b] (00+24/24) Accurately ripped
 02     [33a3fb4a|794e56f5] (00+24/24) Accurately ripped
 03     [494298bd|52496c2c] (00+24/24) Accurately ripped
 04     [3f9d39f8|c3bce7ee] (00+24/24) Accurately ripped
 05     [c9531889|f9fde61b] (00+24/24) Accurately ripped
 06     [bb90a513|7fa0ec44] (00+24/24) Accurately ripped
 07     [e66e1751|c913fd8f] (00+24/24) Accurately ripped
 08     [d88e3039|9a0c44bb] (00+24/24) Accurately ripped
 09     [22155c91|1c58dc9a] (00+24/24) Accurately ripped
 10     [94546736|20e65d84] (00+24/24) Accurately ripped

Track Peak [ CRC32  ] [W/O NULL]
 --  100,0 [94E72ADB] [92132404]          
 01  100,0 [70E5A876] [C36BC4FA]          
 02   99,9 [D7215DF9] [E056863E]          
 03   97,7 [D2BC7DBC] [41632C45]          
 04  100,0 [535FE460] [C4A719BF]          
 05  100,0 [6686B8D6] [56EE6617]          
 06   99,8 [D7085367] [0227A8E4]          
 07  100,0 [4B527E03] [65B5B134]          
 08   99,8 [52158F77] [8B8633D4]          
 09   97,6 [A3CC2919] [BBEB636C]          
 10  100,0 [B948FCEA] [A1BDBBDF]          

foobar2000 results:
Quote
AccurateRip verification results: TK from 凛として時雨 - Fantastic Magic

Track  Status
01     Not accurate - partial match with offset: 0(24).
02     Not accurate - partial match with offset: 0(24).
03     Not accurate - partial match with offset: 0(24).
04     Not accurate - partial match with offset: 0(24).
05     Not accurate - partial match with offset: 0(24).
06     Not accurate - partial match with offset: 0(24).
07     Not accurate - partial match with offset: 0(24).
08     Not accurate - partial match with offset: 0(24).
09     Not accurate - partial match with offset: 0(24).
10     Not accurate - partial match with offset: 0(24).

Rip log:
Quote
X Lossless Decoder version 20140504 (147.0)

XLD extraction logfile from 2014-09-04 12:43:03 -0400

TK from 凛として時雨 / Fantastic Magic

Used drive : HL-DT-ST DVDRAM GE24NU30 (revision NT00)
Media type : Pressed CD

Ripper mode             : XLD Secure Ripper
Disable audio cache     : OK for the drive with a cache less than 1375KiB
Make use of C2 pointers : NO
Read offset correction  : 667
Max retry count         : 100
Gap status              : Analyzed, Appended (except HTOA)

TOC of the extracted CD
     Track |   Start  |  Length  | Start sector | End sector
    ---------------------------------------------------------
        1  | 00:00:00 | 04:08:73 |         0    |    18672  
        2  | 04:08:73 | 03:58:27 |     18673    |    36549  
        3  | 08:07:25 | 03:17:60 |     36550    |    51384  
        4  | 11:25:10 | 04:01:33 |     51385    |    69492  
        5  | 15:26:43 | 04:42:02 |     69493    |    90644  
        6  | 20:08:45 | 05:03:68 |     90645    |   113437  
        7  | 25:12:38 | 03:51:18 |    113438    |   130780  
        8  | 29:03:56 | 04:14:50 |    130781    |   149880  
        9  | 33:18:31 | 04:08:44 |    149881    |   168524  
       10  | 37:27:00 | 04:58:50 |    168525    |   190924  

AccurateRip Summary
    Disc not found in AccurateRip DB.

All Tracks
    Album gain               : -10.71 dB
    Peak                     : 1.000000
    Statistics
        Read error                           : 0
        Jitter error (maybe fixed)           : 0
        Retry sector count                   : 0
        Damaged sector count                 : 0

Track 01
    Filename : /Volumes/Vomitself/Music/TK from 凛として時雨/Fantastic Magic/01 Fantastic Magic.flac
    Pre-gap length : 00:02:00

    Track gain               : -11.18 dB
    Peak                     : 1.000000
    CRC32 hash (test run)    : 70E5A876
    CRC32 hash               : 70E5A876
    CRC32 hash (skip zero)   : C36BC4FA
    AccurateRip v1 signature : 1B2F4DBF
    AccurateRip v2 signature : 7451879B
        ->Track not present in AccurateRip database.
    Statistics
        Read error                           : 0
        Jitter error (maybe fixed)           : 0
        Retry sector count                   : 0
        Damaged sector count                 : 0

Track 02
    Filename : /Volumes/Vomitself/Music/TK from 凛として時雨/Fantastic Magic/02 unravel.flac

    Track gain               : -11.08 dB
    Peak                     : 0.999969
    CRC32 hash (test run)    : D7215DF9
    CRC32 hash               : D7215DF9
    CRC32 hash (skip zero)   : E056863E
    AccurateRip v1 signature : 33A3FB4A
    AccurateRip v2 signature : 794E56F5
        ->Track not present in AccurateRip database.
    Statistics
        Read error                           : 0
        Jitter error (maybe fixed)           : 0
        Retry sector count                   : 0
        Damaged sector count                 : 0

Track 03
    Filename : /Volumes/Vomitself/Music/TK from 凛として時雨/Fantastic Magic/03 kalei de scope.flac

    Track gain               : -11.64 dB
    Peak                     : 0.977234
    CRC32 hash (test run)    : D2BC7DBC
    CRC32 hash               : D2BC7DBC
    CRC32 hash (skip zero)   : 41632C45
    AccurateRip v1 signature : 494298BD
    AccurateRip v2 signature : 52496C2C
        ->Track not present in AccurateRip database.
    Statistics
        Read error                           : 0
        Jitter error (maybe fixed)           : 0
        Retry sector count                   : 0
        Damaged sector count                 : 0

Track 04
    Filename : /Volumes/Vomitself/Music/TK from 凛として時雨/Fantastic Magic/04 an artist.flac
    Pre-gap length : 00:02:00

    Track gain               : -10.60 dB
    Peak                     : 1.000000
    CRC32 hash (test run)    : 535FE460
    CRC32 hash               : 535FE460
    CRC32 hash (skip zero)   : C4A719BF
    AccurateRip v1 signature : 3F9D39F8
    AccurateRip v2 signature : C3BCE7EE
        ->Track not present in AccurateRip database.
    Statistics
        Read error                           : 0
        Jitter error (maybe fixed)           : 0
        Retry sector count                   : 0
        Damaged sector count                 : 0

Track 05
    Filename : /Volumes/Vomitself/Music/TK from 凛として時雨/Fantastic Magic/05 tokio.flac
    Pre-gap length : 00:01:61

    Track gain               : -7.76 dB
    Peak                     : 1.000000
    CRC32 hash (test run)    : 6686B8D6
    CRC32 hash               : 6686B8D6
    CRC32 hash (skip zero)   : 56EE6617
    AccurateRip v1 signature : C9531889
    AccurateRip v2 signature : F9FDE61B
        ->Track not present in AccurateRip database.
    Statistics
        Read error                           : 0
        Jitter error (maybe fixed)           : 0
        Retry sector count                   : 0
        Damaged sector count                 : 0

Track 06
    Filename : /Volumes/Vomitself/Music/TK from 凛として時雨/Fantastic Magic/06 Shinkiro.flac

    Track gain               : -7.65 dB
    Peak                     : 0.998840
    CRC32 hash (test run)    : D7085367
    CRC32 hash               : D7085367
    CRC32 hash (skip zero)   : 0227A8E4
    AccurateRip v1 signature : BB90A513
    AccurateRip v2 signature : 7FA0EC44
        ->Track not present in AccurateRip database.
    Statistics
        Read error                           : 0
        Jitter error (maybe fixed)           : 0
        Retry sector count                   : 0
        Damaged sector count                 : 0

Track 07
    Filename : /Volumes/Vomitself/Music/TK from 凛として時雨/Fantastic Magic/07 Dramatic Slow Motion (album version).flac

    Track gain               : -10.01 dB
    Peak                     : 1.000000
    CRC32 hash (test run)    : 4B527E03
    CRC32 hash               : 4B527E03
    CRC32 hash (skip zero)   : 65B5B134
    AccurateRip v1 signature : E66E1751
    AccurateRip v2 signature : C913FD8F
        ->Track not present in AccurateRip database.
    Statistics
        Read error                           : 0
        Jitter error (maybe fixed)           : 0
        Retry sector count                   : 0
        Damaged sector count                 : 0

Track 08
    Filename : /Volumes/Vomitself/Music/TK from 凛として時雨/Fantastic Magic/08 Spiral Parade.flac

    Track gain               : -10.33 dB
    Peak                     : 0.998840
    CRC32 hash (test run)    : 52158F77
    CRC32 hash               : 52158F77
    CRC32 hash (skip zero)   : 8B8633D4
    AccurateRip v1 signature : D88E3039
    AccurateRip v2 signature : 9A0C44BB
        ->Track not present in AccurateRip database.
    Statistics
        Read error                           : 0
        Jitter error (maybe fixed)           : 0
        Retry sector count                   : 0
        Damaged sector count                 : 0

Track 09
    Filename : /Volumes/Vomitself/Music/TK from 凛として時雨/Fantastic Magic/09 fragile.flac
    Pre-gap length : 00:02:60

    Track gain               : -6.75 dB
    Peak                     : 0.976257
    CRC32 hash (test run)    : A3CC2919
    CRC32 hash               : A3CC2919
    CRC32 hash (skip zero)   : BBEB636C
    AccurateRip v1 signature : 22155C91
    AccurateRip v2 signature : 1C58DC9A
        ->Track not present in AccurateRip database.
    Statistics
        Read error                           : 0
        Jitter error (maybe fixed)           : 0
        Retry sector count                   : 0
        Damaged sector count                 : 0

Track 10
    Filename : /Volumes/Vomitself/Music/TK from 凛として時雨/Fantastic Magic/10 contrast.flac
    Pre-gap length : 00:01:60

    Track gain               : -10.59 dB
    Peak                     : 1.000000
    CRC32 hash (test run)    : B948FCEA
    CRC32 hash               : B948FCEA
    CRC32 hash (skip zero)   : A1BDBBDF
    AccurateRip v1 signature : 94546736
    AccurateRip v2 signature : 20E65D84
        ->Track not present in AccurateRip database.
    Statistics
        Read error                           : 0
        Jitter error (maybe fixed)           : 0
        Retry sector count                   : 0
        Damaged sector count                 : 0

No errors occurred

End of status report

-----BEGIN XLD SIGNATURE-----
SMGD7aBG2lVaoOqNywP11vuT3NywhcJsMl4omepC_8HUBPI71z3hIails7Sf34Mnw4gon71t2Y2OKGo_mvp2SmeMH76CcB3RDFDjkhC
-----END XLD SIGNATURE-----

 
SimplePortal 1.0.0 RC1 © 2008-2018