Skip to main content
Topic: Embedded Cue Sheets (Read 259 times) previous topic - next topic
0 Members and 1 Guest are viewing this topic.

Embedded Cue Sheets

I am using embedded CUE Sheets as much as I can.
The Cue sheets can be nicely created with EAC and then I am using Foobar2000 to load the CUE sheet into the flac file.
Embedded Cue sheets are supported by multiple devices such as VLC, Squeezebox, but also Neutron MP on Smartphone.

Overtime, I have also collected a considerately amount of FLAC files (holding full CDs) with no CUE sheet information. I am seeking for tools / plugins which could make my life easier to create the missing Cue sheets. At least, I am looking for comfortable GUI and something to identify the tracks. (My reference of comfort is EAC :D ).

Any ideas or suggestions?




Re: Embedded Cue Sheets

Reply #2
or CUE Corrector8)

 

Re: Embedded Cue Sheets

Reply #3
or CUE Corrector8)

CUETools?
Do you have the EAC logs?

I know the both tools.
To my understanding, both tools assume that the Cue Sheet is already there.

I am looking for a tool with the following features / flow. (it's my dream):
1) Open a flac file w/o any tags.
2) Enter the required tags while the tool has all the knowhow where to store the values (like the foobar2000 GUI) considering as well embedded Cue Sheets.
3) New function to mark in a wave presentation where the tracks begins to automatically provide the Index information for the CUE Sheet.

If you don't know:
1) Foobar2000 supports embedded Cue Sheets.
   You can load the Cue Sheet and maintain it afterwards, but you cannot generate.
2) MediaInfo is a great tool to see all tags of audio files.
   https://mediaarea.net/
3) Example of a flac file with an embedded  Cue Shee (printed with MediaInfo:

Allgemein
Vollständiger Name                       : E:\CUE Musik\Maria Kliegel+Nina Tichman\Maria Kliegel+Nina Tichman - Cellosonaten Nr. 1 & 2.flac
Format                                   : FLAC
Format/Info                              : Free Lossless Audio Codec
Dateigröße                               : 252 MiB
Dauer                                    : 1 h 3 min
Modus der Gesamtbitrate                  : variabel
Gesamte Bitrate                          : 560 kb/s
Album                                    : Cellosonaten Nr. 1 & 2
Album/Künstler                           : Maria Kliegel+Nina Tichman
Track-Name/total                         : 13
Künstler                                 : Maria Kliegel+Nina Tichman
Komponist                                : Faure
Genre                                    : Kammermusik
Aufnahmedatum                            : 2005
Cover                                    : Yes
Cover-Typ                                : Cover (front)
Cover-MIME                               : image/jpeg
cuesheet                                 : REM GENRE Kammermusik / REM DATE 2005 / PERFORMER "Maria Kliegel+Nina Tichman" / TITLE "Cellosonaten Nr. 1 & 2" / REM REPLAYGAIN_ALBUM_GAIN +2.51 dB / REM REPLAYGAIN_ALBUM_PEAK 0.999969 / FILE "Maria Kliegel und Nina Tichman - Faure - Cellosonaten Nr. 1&2.flac" WAVE /   TRACK 01 AUDIO /     TITLE "Elegie, Op. 24" /     PERFORMER "Maria Kliegel+Nina Tichman" /     REM REPLAYGAIN_TRACK_GAIN +3.56 dB /     REM REPLAYGAIN_TRACK_PEAK 0.872437 /     INDEX 01 00:00:00 /   TRACK 02 AUDIO /     TITLE "Papillon, Op. 77" /     PERFORMER "Maria Kliegel+Nina Tichman" /     REM REPLAYGAIN_TRACK_GAIN +6.27 dB /     REM REPLAYGAIN_TRACK_PEAK 0.557831 /     INDEX 00 06:43:61 /     INDEX 01 06:48:23 /   TRACK 03 AUDIO /     TITLE "Sonate Nr. 1 fur Cello und Klavier, Op. 109, I. Allegro" /     PERFORMER "Maria Kliegel+Nina Tichman" /     REM REPLAYGAIN_TRACK_GAIN +0.22 dB /     REM REPLAYGAIN_TRACK_PEAK 0.965851 /     INDEX 00 09:58:43 /     INDEX 01 10:05:24 /   TRACK 04 AUDIO /     TITLE "Sonate Nr. 1 fur Cello und Klavier, Op. 109, II. Andante" /     PERFORMER "Maria Kliegel+Nina Tichman" /     REM REPLAYGAIN_TRACK_GAIN +4.98 dB /     REM REPLAYGAIN_TRACK_PEAK 0.577148 /     INDEX 00 15:06:13 /     INDEX 01 15:07:50 /   TRACK 05 AUDIO /     TITLE "Sonate Nr. 1 fur Cello und Klavier, Op. 109, III. Finale: Allegro commodo" /     PERFORMER "Maria Kliegel+Nina Tichman" /     REM REPLAYGAIN_TRACK_GAIN +2.31 dB /     REM REPLAYGAIN_TRACK_PEAK 0.741760 /     INDEX 00 21:52:48 /     INDEX 01 21:53:35 /   TRACK 06 AUDIO /     TITLE "Berceuse, Op. 16" /     PERFORMER "Maria Kliegel+Nina Tichman" /     REM REPLAYGAIN_TRACK_GAIN +5.68 dB /     REM REPLAYGAIN_TRACK_PEAK 0.497345 /     INDEX 00 27:35:33 /     INDEX 01 27:38:39 /   TRACK 07 AUDIO /     TITLE "Romance, Op. 69" /     PERFORMER "Maria Kliegel+Nina Tichman" /     REM REPLAYGAIN_TRACK_GAIN +3.82 dB /     REM REPLAYGAIN_TRACK_PEAK 0.600098 /     INDEX 00 31:13:38 /     INDEX 01 31:17:39 /   TRACK 08 AUDIO /     TITLE "Sicilienne, Op. 78" /     PERFORMER "Maria Kliegel+Nina Tichman" /     REM REPLAYGAIN_TRACK_GAIN +7.69 dB /     REM REPLAYGAIN_TRACK_PEAK 0.448090 /     INDEX 00 35:27:40 /     INDEX 01 35:31:11 /   TRACK 09 AUDIO /     TITLE "Sonate Nr. 2 fur Cello und Klavier, Op. 117, I. Allegro" /     PERFORMER "Maria Kliegel+Nina Tichman" /     REM REPLAYGAIN_TRACK_GAIN +0.70 dB /     REM REPLAYGAIN_TRACK_PEAK 0.999969 /     INDEX 00 39:19:30 /     INDEX 01 39:23:74 /   TRACK 10 AUDIO /     TITLE "Sonate Nr. 2 fur Cello und Klavier, Op. 117, II. Andante" /     PERFORMER "Maria Kliegel+Nina Tichman" /     REM REPLAYGAIN_TRACK_GAIN +3.08 dB /     REM REPLAYGAIN_TRACK_PEAK 0.747131 /     INDEX 00 45:16:02 /     INDEX 01 45:16:49 /   TRACK 11 AUDIO /     TITLE "Sonate Nr. 2 fur Cello und Klavier, Op. 117, III. Allegro vivo" /     PERFORMER "Maria Kliegel+Nina Tichman" /     REM REPLAYGAIN_TRACK_GAIN +0.09 dB /     REM REPLAYGAIN_TRACK_PEAK 0.945648 /     INDEX 00 52:19:42 /     INDEX 01 52:20:63 /   TRACK 12 AUDIO /     TITLE "Apres un reve, Op. 7/1" /     PERFORMER "Maria Kliegel+Nina Tichman" /     REM REPLAYGAIN_TRACK_GAIN +6.01 dB /     REM REPLAYGAIN_TRACK_PEAK 0.596161 /     INDEX 00 56:44:06 /     INDEX 01 56:47:38 /   TRACK 13 AUDIO /     TITLE "Serenade, Op. 98" /     PERFORMER "Maria Kliegel+Nina Tichman" /     REM REPLAYGAIN_TRACK_GAIN +1.56 dB /     REM REPLAYGAIN_TRACK_PEAK 0.948059 /     INDEX 00 60:03:13 /     INDEX 01 60:05:28

Audio
Format                                   : FLAC
Format/Info                              : Free Lossless Audio Codec
Dauer                                    : 1 h 3 min
Bitraten-Modus                           : variabel
Bitrate                                  : 559 kb/s
Kanäle                                   : 2 Kanäle
Kanal-Positionen                         : Front: L R
Samplingrate                             : 44,1 kHz
BitDepth/String                          : 16 bits
Stream-Größe                             : 252 MiB (100%)
verwendete Encoder-Bibliothek            : libFLAC 1.3.1 (UTC 2014-11-25)




 
SimplePortal 1.0.0 RC1 © 2008-2018