Skip to main content
Topic: Integer error in cue sheet (Read 1167 times) previous topic - next topic
0 Members and 1 Guest are viewing this topic.

Integer error in cue sheet

Hi folks,

I'm sure questions like this have been asked before, and my apologies, but I'm at my wit's end here. I've been in the process of backing up and converting my collection for a while now, and occasionally I've had the "not a valid integer" error pop up when trying to load or edit a cue sheet. Most instances of that, for me, have been about non-standard characters either in the filename path or title field. A lot of my music is Irish, so that happens. But there another cue sheet that's giving me the error now, and I can't figure out what the problem is. I'm hoping someone here will be able to spot what I'm missing. Here's the sheet:

Quote
REM GENRE Rock
REM DATE 2015
REM DISCID B30B400C
REM COMMENT "ExactAudioCopy v1.1"
PERFORMER "The Corrs"
TITLE "White Light"
FILE "The Corrs - White Light.flac" WAVE
  TRACK 01 AUDIO
    TITLE "I Do What I Like"
    PERFORMER "The Corrs"
    INDEX 01 00:00:00
  TRACK 02 AUDIO
    TITLE "Bring On The Night"
    PERFORMER "The Corrs"
    INDEX 01 03:36:44
  TRACK 03 AUDIO
    TITLE "White Light"
    PERFORMER "The Corrs"
    INDEX 01 07:53:05
  TRACK 04 AUDIO
    TITLE "Kiss Of Life"
    PERFORMER "The Corrs"
    INDEX 01 11:08:28
  TRACK 05 AUDIO
    TITLE "Unconditional"
    PERFORMER "The Corrs"
    INDEX 01 15:07:11
  TRACK 06 AUDIO
    TITLE "Strange Romance"
    PERFORMER "The Corrs"
    INDEX 01 19:01:43
  TRACK 07 AUDIO
    TITLE "Ellis Island"
    PERFORMER "The Corrs"
    INDEX 01 22:42:11
  TRACK 08 AUDIO
    TITLE "Gerry's Reel"
    PERFORMER "The Corrs"
    INDEX 01 27:45:65
  TRACK 09 AUDIO
    TITLE "Stay"
    PERFORMER "The Corrs"
    INDEX 01 31:06:18
  TRACK 10 AUDIO
    TITLE "Catch Me When I Fall"
    PERFORMER "The Corrs"
    INDEX 01 34:14:34
  TRACK 11 AUDIO
    TITLE "Harmony"
    PERFORMER "The Corrs"
    INDEX 01 39:43:00
  TRACK 12 AUDIO
    TITLE "With Me Stay"
    PERFORMER "The Corrs"
    INDEX 01 44:17:61

Any ideas? Thanks for taking a look!

Re: Integer error in cue sheet

Reply #1
There's nothing wrong with the cue sheet. What ever tool you use that gives the error is faulty. Or some hidden data got removed when the contents were pasted on the forum.

Re: Integer error in cue sheet

Reply #2
Huh. Thanks for letting me know I'm not crazy or blind, at least.

I'm using Burrrn, that's what's giving me the error. It won't load tracklist. And as that's the only program I know that will burn directly from FLAC, I'm kinda at a loss. EAC really needs to get on integrating that functionality.

Re: Integer error in cue sheet

Reply #3
foobar2000 can burn CDs when you install a component.

Re: Integer error in cue sheet

Reply #4
Ah, I did not know that. I'll look into it. Thanks!

Re: Integer error in cue sheet

Reply #5
Also ImgBurn can burn directly from FLAC+CUE if you have DirectShow decoder installed.

 
SimplePortal 1.0.0 RC1 © 2008-2019