Skip to main content
Topic: EAC : File creation error (Read 427 times) previous topic - next topic
0 Members and 1 Guest are viewing this topic.

EAC : File creation error

File Creation Error after reading track.
Not sure whats going on but it only happens with two CDs i have here. All other rips are just fine
One disc has odd characters in the filenames, which may be the problem, but the other one hasn't.. So this can't be the case, also the titles not too long.

What could be the cause then?

(See log below)

Thanks


Exact Audio Copy V1.3 from 2. September 2016

EAC extraction logfile from 13. March 2018, 14:57

Cimbaliband / Moldva

Used drive : HL-DT-STDVDRAM GUE1N Adapter: 1 ID: 0

Read mode : Secure
Utilize accurate stream : Yes
Defeat audio cache : Yes
Make use of C2 pointers : No

Read offset correction : 6
Overread into Lead-In and Lead-Out : No
Fill up missing offset samples with silence : Yes
Delete leading and trailing silent blocks : No
Null samples used in CRC calculations : Yes
Used interface : Native Win32 interface for Win NT & 2000
Gap handling : Appended to previous track

Used output format : User Defined Encoder
Selected bitrate : 1024 kBit/s
Quality : High
Add ID3 tag : No
Command line compressor : C:\flac-1.3.2-win\win64\flac.exe
Additional command line options : -8 -V -T "artist=%artist%" -T "title=%title%" -T "album=%albumtitle%" -T "date=%year%" -T "tracknumber=%tracknr%" -T "genre=%genre%" %source%


TOC of the extracted CD

Track | Start | Length | Start sector | End sector
---------------------------------------------------------
1 | 0:00.00 | 3:54.64 | 0 | 17613
2 | 3:54.64 | 3:27.44 | 17614 | 33182
3 | 7:22.33 | 4:05.45 | 33183 | 51602
4 | 11:28.03 | 5:10.71 | 51603 | 74923
5 | 16:38.74 | 4:21.66 | 74924 | 94564
6 | 21:00.65 | 3:41.60 | 94565 | 111199
7 | 24:42.50 | 5:59.00 | 111200 | 138124
8 | 30:41.50 | 4:00.57 | 138125 | 156181
9 | 34:42.32 | 4:16.54 | 156182 | 175435
10 | 38:59.11 | 4:20.42 | 175436 | 194977
11 | 43:19.53 | 3:00.38 | 194978 | 208515
12 | 46:20.16 | 2:37.54 | 208516 | 220344


Track 1

Filename D:\EAC\Cimbaliband - Moldva (2015) [FLAC]\01 Mikor kicsi leany votam.wav

Pre-gap length 0:00:02.00

Copy aborted

Track 2

Filename D:\EAC\Cimbaliband - Moldva (2015) [FLAC]\02 Hazam hazam.wav

Pre-gap length 0:00:02.00

Copy aborted


1 track(s) not fully ripped for AccurateRip lookup
11 track(s) canceled

No tracks could be verified as accurate

There were errors

End of status report

Log checksum A74F0965A43541908946A044B9E67C8B5B5C87BDDE32E34933305E1A01BA7FF9

Re: EAC : File creation error

Reply #1
Is there "artist" info in each of the EAC track artist fields for those tracks that are causing problems?
Quis custodiet ipsos custodes?  ;~)

Re: EAC : File creation error

Reply #2
jezus.. it was that simple?:) i had to add it manually indeed. it's acting normal now.
thanks a bunch

Re: EAC : File creation error

Reply #3
If it's any consolation, it took me quite awhile to figure it out when I encountered this problem. ;~)
Quis custodiet ipsos custodes?  ;~)

 
SimplePortal 1.0.0 RC1 © 2008-2018