Skip to main content
Topic: problem: Unable to open item for playback (Object not found) (Read 852 times) previous topic - next topic
0 Members and 1 Guest are viewing this topic.

problem: Unable to open item for playback (Object not found)

Hello.

I'm unable to play some files. Some of them is with "?" instead of its length, but in general, all the files doesn't work. It's a single FLAC file and its cue sheet goes along with this:
Quote
REM GENRE "Heavy Metal"
REM DATE 1997
REM DISCID EB12220F
REM COMMENT "ExactAudioCopy v1.0b2"
PERFORMER "Ozzy Osbourne"
TITLE "The Ozzman Cometh (487260 6) CD1"
FILE "Ozzy Osbourne - The Ozzman Cometh (487260 6) CD1.flac" WAVE
  TRACK 01 AUDIO
    TITLE "Black Sabbath"
    PERFORMER "Ozzy Osbourne"
    INDEX 01 00:00:00
  TRACK 02 AUDIO
    TITLE "War Pigs"
    PERFORMER "Ozzy Osbourne"
    INDEX 00 09:24:35
    INDEX 01 09:25:37
  TRACK 03 AUDIO
    TITLE "Goodbye To Romance"
    PERFORMER "Ozzy Osbourne"
    INDEX 00 17:40:05
    INDEX 01 17:41:00
  TRACK 04 AUDIO
    TITLE "Crazy Train"
    PERFORMER "Ozzy Osbourne"
    INDEX 01 23:16:50
  TRACK 05 AUDIO
    TITLE "Mr. Crowley"
    PERFORMER "Ozzy Osbourne"
    INDEX 01 28:08:22
  TRACK 06 AUDIO
    TITLE "Over The Mountain"
    PERFORMER "Ozzy Osbourne"
    INDEX 01 33:04:72
  TRACK 07 AUDIO
    TITLE "Paranoid (Live With Randy Rhoads)"
    PERFORMER "Ozzy Osbourne"
    INDEX 00 37:36:45
    INDEX 01 37:37:00
  TRACK 08 AUDIO
    TITLE "Bark At The Moon"
    PERFORMER "Ozzy Osbourne"
    INDEX 01 40:30:32
  TRACK 09 AUDIO
    TITLE "Shot In The Dark"
    PERFORMER "Ozzy Osbourne"
    INDEX 01 44:47:17
  TRACK 10 AUDIO
    TITLE "Crazy Babies"
    PERFORMER "Ozzy Osbourne"
    INDEX 01 49:04:00
  TRACK 11 AUDIO
    TITLE "No More Tears (Edit)"
    PERFORMER "Ozzy Osbourne"
    INDEX 00 53:18:05
    INDEX 01 53:18:50
  TRACK 12 AUDIO
    TITLE "Mama, I'm Coming Home"
    PERFORMER "Ozzy Osbourne"
    INDEX 01 59:13:02
  TRACK 13 AUDIO
    TITLE "I Don't Want To Change The World (Live)"
    PERFORMER "Ozzy Osbourne"
    INDEX 01 63:24:32
  TRACK 14 AUDIO
    TITLE "I Just Want You"
    PERFORMER "Ozzy Osbourne"
    INDEX 01 67:24:67
  TRACK 15 AUDIO
    TITLE "Back On Earth (New Song)"
    PERFORMER "Ozzy Osbourne"
    INDEX 00 72:21:12
    INDEX 01 72:22:05

The last track doesn't show its length, but all of them doesn't play. Here's the Foobar error log:

Quote
Unable to open item for playback (Object not found):
"G:\Ozzy Osbourne-Дискография (1980-2014)\Compilations\1997 The Ozzman Cometh\1997 The Ozzman Cometh [1997 Austria 487260 6 Epic]\CD1\Ozzy Osbourne - The Ozzman Cometh (487260 6) СD1.cue" / index: 9

Unable to open item for playback (Object not found):
"G:\Ozzy Osbourne-Дискография (1980-2014)\Compilations\1997 The Ozzman Cometh\1997 The Ozzman Cometh [1997 Austria 487260 6 Epic]\CD1\Ozzy Osbourne - The Ozzman Cometh (487260 6) СD1.cue" / index: 10

Unable to open item for playback (Object not found):
"G:\Ozzy Osbourne-Дискография (1980-2014)\Compilations\1997 The Ozzman Cometh\1997 The Ozzman Cometh [1997 Austria 487260 6 Epic]\CD1\Ozzy Osbourne - The Ozzman Cometh (487260 6) СD1.cue" / index: 11

Unable to open item for playback (Object not found):
"G:\Ozzy Osbourne-Дискография (1980-2014)\Compilations\1997 The Ozzman Cometh\1997 The Ozzman Cometh [1997 Austria 487260 6 Epic]\CD1\Ozzy Osbourne - The Ozzman Cometh (487260 6) СD1.cue" / index: 12

Unable to open item for playback (Object not found):
"G:\Ozzy Osbourne-Дискография (1980-2014)\Compilations\1997 The Ozzman Cometh\1997 The Ozzman Cometh [1997 Austria 487260 6 Epic]\CD1\Ozzy Osbourne - The Ozzman Cometh (487260 6) СD1.cue" / index: 13

Unable to open item for playback (Object not found):
"G:\Ozzy Osbourne-Дискография (1980-2014)\Compilations\1997 The Ozzman Cometh\1997 The Ozzman Cometh [1997 Austria 487260 6 Epic]\CD1\Ozzy Osbourne - The Ozzman Cometh (487260 6) СD1.cue" / index: 14

Unable to open item for playback (Object not found):
"G:\Ozzy Osbourne-Дискография (1980-2014)\Compilations\1997 The Ozzman Cometh\1997 The Ozzman Cometh [1997 Austria 487260 6 Epic]\CD1\Ozzy Osbourne - The Ozzman Cometh (487260 6) СD1.cue" / index: 15


Any help, please?

Thanks!

Re: problem: Unable to open item for playback (Object not found)

Reply #1
99% certainty:
This file reference:
FILE "Ozzy Osbourne - The Ozzman Cometh (487260 6) CD1.flac" WAVE
is not correct anymore. Rename file to "Ozzy Osbourne - The Ozzman Cometh (487260 6) CD1.flac" or edit this line to reflect actual file name (copy name from Explorer to .cue file).

You could also move the .flac file outside of the directory, where .cue resides / .flac file is already deleted.

 

Re: problem: Unable to open item for playback (Object not found)

Reply #2
It worked now!
I had to change its file name. Weird, 'cause I think I've already did that, but didn't work. Now it's all ok!

Thanks a lot!

 
SimplePortal 1.0.0 RC1 © 2008-2018