Skip to main content
Topic: How to include HTOA track in cuesheet (Read 2627 times) previous topic - next topic
0 Members and 1 Guest are viewing this topic.

How to include HTOA track in cuesheet

I've ripped my QOTSA CD but the HTOA track (which contains audio) isn't included in the cue sheet.  I've tried google but couldn't find any clear answers on how would I add this track and modify indexes?

Cue sheet:
Code: [Select]
REM DISCID E10E8B0F
PERFORMER "Queens of the Stone Age"
TITLE "Songs for the Deaf"
CATALOG 0606949343620
REM DATE 2002
REM DISCNUMBER 1
REM TOTALDISCS 1
REM COMMENT "CUERipper v2.1.5 Copyright (C) 2008-13 Grigory Chudov"
FILE "00. (HTOA).flac" WAVE
  TRACK 01 AUDIO
    PERFORMER "Queens of the Stone Age"
    TITLE "The Real Song for the Deaf"
    ISRC USIR10211009
    INDEX 00 00:00:00
FILE "01. The Real Song for the Deaf.flac" WAVE
    INDEX 01 00:00:00
FILE "02. You Think I Ain’t Worth a Dollar, but I Feel Like a Millionaire.flac" WAVE
  TRACK 02 AUDIO
    PERFORMER "Queens of the Stone Age"
    TITLE "You Think I Ain’t Worth a Dollar, but I Feel Like a Millionaire"
    ISRC USIR10211291
    INDEX 01 00:00:00
FILE "03. No One Knows.flac" WAVE
  TRACK 03 AUDIO
    PERFORMER "Queens of the Stone Age"
    TITLE "No One Knows"
    ISRC USIR10211285
    INDEX 01 00:00:00
FILE "04. First It Giveth.flac" WAVE
  TRACK 04 AUDIO
    PERFORMER "Queens of the Stone Age"
    TITLE "First It Giveth"
    ISRC USIR10211293
    INDEX 01 00:00:00
FILE "05. A Song for the Dead.flac" WAVE
  TRACK 05 AUDIO
    PERFORMER "Queens of the Stone Age"
    TITLE "A Song for the Dead"
    ISRC USIR10211296
    INDEX 01 00:00:00
FILE "06. The Sky Is Fallin’.flac" WAVE
  TRACK 06 AUDIO
    PERFORMER "Queens of the Stone Age"
    TITLE "The Sky Is Fallin’"
    ISRC USIR10211292
    INDEX 01 00:00:00
FILE "07. Six Shooter.flac" WAVE
  TRACK 07 AUDIO
    PERFORMER "Queens of the Stone Age"
    TITLE "Six Shooter"
    ISRC USIR10211288
    INDEX 01 00:00:00
FILE "08. Hangin’ Tree.flac" WAVE
  TRACK 08 AUDIO
    PERFORMER "Queens of the Stone Age"
    TITLE "Hangin’ Tree"
    ISRC USIR10211290
    INDEX 01 00:00:00
FILE "09. Go With the Flow.flac" WAVE
  TRACK 09 AUDIO
    PERFORMER "Queens of the Stone Age"
    TITLE "Go With the Flow"
    ISRC USIR10211287
    INDEX 01 00:00:00
FILE "10. Gonna Leave You.flac" WAVE
  TRACK 10 AUDIO
    PERFORMER "Queens of the Stone Age"
    TITLE "Gonna Leave You"
    ISRC USIR10211284
    INDEX 01 00:00:00
FILE "11. Do It Again.flac" WAVE
  TRACK 11 AUDIO
    PERFORMER "Queens of the Stone Age"
    TITLE "Do It Again"
    ISRC USIR10211286
    INDEX 01 00:00:00
FILE "12. God Is in the Radio.flac" WAVE
  TRACK 12 AUDIO
    PERFORMER "Queens of the Stone Age"
    TITLE "God Is in the Radio"
    ISRC USIR10211283
    INDEX 01 00:00:00
FILE "13. Another Love Song.flac" WAVE
  TRACK 13 AUDIO
    PERFORMER "Queens of the Stone Age"
    TITLE "Another Love Song"
    ISRC USIR10211294
    INDEX 01 00:00:00
  TRACK 14 AUDIO
    PERFORMER "Queens of the Stone Age"
    TITLE "A Song for the Deaf / Feel Good Hit of the Summer (reprise)"
    ISRC USIR10211289
    INDEX 00 06:12:57
FILE "14. A Song for the Deaf _ Feel Good Hit of the Summer (reprise).flac" WAVE
    INDEX 01 00:00:00
FILE "15. Mosquito Song.flac" WAVE
  TRACK 15 AUDIO
    PERFORMER "Queens of the Stone Age"
    TITLE "Mosquito Song"
    ISRC USIR10211360
    INDEX 01 00:00:00

How to include HTOA track in cuesheet

Reply #1
Quote
..
REM DISCNUMBER 1
REM TOTALDISCS 1
REM COMMENT "CUERipper v2.1.5 Copyright © 2008-13 Grigory Chudov"
FILE "00. (HTOA).flac" WAVE  <- HTOA track
  TRACK 01 AUDIO
    PERFORMER "Queens of the Stone Age"
    TITLE "The Real Song for the Deaf"
    ISRC USIR10211009
    INDEX 00 00:00:00
FILE "01. The Real Song for the Deaf.flac" WAVE  <- track 01
    INDEX 01 00:00:00

korth

How to include HTOA track in cuesheet

Reply #2
Sorry I should've pointed out that the tags are WRONG. The HTOA track is supposed to be "The real song for the deaf". Here, playing "01. The Real Song for the Deaf.flac" actually plays the song "You Think I Ain’t Worth a Dollar, but I Feel Like a Millionaire". Hope this clears it up.

edit: removed quote

How to include HTOA track in cuesheet

Reply #3
HTOA = Hidden Track One Audio
The Hidden track doesn't have a title in the CUE. It comes before track 01 and only track numbers 01-99 can have titles.
Multiple file CUE sheets are for burning and not intended for use as playlists.
korth

How to include HTOA track in cuesheet

Reply #4
HTOA = Hidden Track One Audio
The Hidden track doesn't have a title in the CUE. It comes before track 01 and only track numbers 01-99 can have titles.
Multiple file CUE sheets are for burning and not intended for use as playlists.


The problem is that cuetools is incorrectly assigning track 01 as HTOA. The correct CD doesn't seem to be in the cuetools db or regeert.nl. This is the right CD.

Anyway after much tinkering I ended up with this and it works for playlists at least. don't see any reason why it wouldn't work on a cd but of course it would probably not be an exact rip:

Code: [Select]
REM GENRE Rock
REM DATE 2002
REM DISCID E10E8B0F
REM COMMENT "ExactAudioCopy v1.0b4"
PERFORMER "Queens Of The Stone Age"
TITLE "Songs For The Deaf"
FILE "01 - The Real Song For The Deaf.flac" WAVE
TRACK 01 AUDIO
    TITLE "The Real Song For The Deaf"
    PERFORMER "Queens Of The Stone Age"
    INDEX 01 00:00:00
FILE "02 - You Think I Ain't Worth A Dollar, But I Feel Like A Millionaire.flac" WAVE
  TRACK 02 AUDIO
    TITLE "You Think I Ain't Worth A Dollar, But I Feel Like A Millionaire"
    PERFORMER "Queens Of The Stone Age"
    PREGAP 01:33:00
    INDEX 01 00:00:00
FILE "03 - No One Knows.flac" WAVE
  TRACK 03 AUDIO
    TITLE "No One Knows"
    PERFORMER "Queens Of The Stone Age"
    INDEX 01 00:00:00
FILE "04 - First It Giveth.flac" WAVE
  TRACK 04 AUDIO
    TITLE "First It Giveth"
    PERFORMER "Queens Of The Stone Age"
    INDEX 01 00:00:00
FILE "05 - A Song For The Dead.flac" WAVE
  TRACK 05 AUDIO
    TITLE "A Song For The Dead"
    PERFORMER "Queens Of The Stone Age"
    INDEX 01 00:00:00
FILE "06 - The Sky Is Fallin'.flac" WAVE
  TRACK 06 AUDIO
    TITLE "The Sky Is Fallin'"
    PERFORMER "Queens Of The Stone Age"
    INDEX 01 00:00:00
FILE "07 - Six Shooter.flac" WAVE
  TRACK 07 AUDIO
    TITLE "Six Shooter"
    PERFORMER "Queens Of The Stone Age"
    INDEX 01 00:00:00
FILE "08 - Hangin' Tree.flac" WAVE
  TRACK 08 AUDIO
    TITLE "Hangin' Tree"
    PERFORMER "Queens Of The Stone Age"
    INDEX 01 00:00:00
FILE "09 - Go With The Flow.flac" WAVE
  TRACK 09 AUDIO
    TITLE "Go With The Flow"
    PERFORMER "Queens Of The Stone Age"
    INDEX 01 00:00:00
FILE "10 - Gonna Leave You.flac" WAVE
  TRACK 10 AUDIO
    TITLE "Gonna Leave You"
    PERFORMER "Queens Of The Stone Age"
    INDEX 01 00:00:00
FILE "11 - Do It Again.flac" WAVE
  TRACK 11 AUDIO
    TITLE "Do It Again"
    PERFORMER "Queens Of The Stone Age"
    INDEX 01 00:00:00
FILE "12 - God Is In The Radio.flac" WAVE
  TRACK 12 AUDIO
    TITLE "God Is In The Radio"
    PERFORMER "Queens Of The Stone Age"
    INDEX 01 00:00:00
FILE "13 - Another Love Song.flac" WAVE
  TRACK 13 AUDIO
    TITLE "Another Love Song"
    PERFORMER "Queens Of The Stone Age"
    INDEX 01 00:00:00
FILE "14 - A Song For The Deaf , Feel Good Hit Of The Summer (Reprise).flac" WAVE
  TRACK 14 AUDIO
    TITLE "A Song For The Deaf / Feel Good Hit Of The Summer (Reprise)"
    PERFORMER "Queens Of The Stone Age"
    INDEX 01 00:00:00
  TRACK 15 AUDIO
    TITLE "Mosquito Song"
    PERFORMER "Queens Of The Stone Age"
    INDEX 00 06:12:57
FILE "15 - Mosquito Song.flac" WAVE
    INDEX 01 00:00:00
FILE "16 - Everybody's Gonna Be Happy.flac" WAVE
  TRACK 16 AUDIO
    TITLE "Everybody's Gonna Be Happy"
    PERFORMER "Queens Of The Stone Age"
    INDEX 01 00:00:00

How to include HTOA track in cuesheet

Reply #5
You could remove the pregap command in the 2nd track.

Actually CTDB identified the CD as this one with this TOC. Your rip is this one.
Sorry I see now the track titles are messed up. Because musicbrainz named the hidden track, there are 16 track names but only 15 tracks can have names so the CTDB is used the first 15 names for the metadata.
korth

How to include HTOA track in cuesheet

Reply #6
Does the CD actually contain CD-TEXT?

I'm seriously having trouble believing that anything is actually wrong here; rather, I suspect this has to do with an expectation fueled by misunderstanding (not all of which are necessarily held by the OP*).

(*) This is not an indictment of Korth.  He has already presented all the relevant factual information.
Is 24-bit/192kHz good enough for your lo-fi vinyl, or do you need 32/384?

How to include HTOA track in cuesheet

Reply #7
Thank you Korth, I was a bit lost as none of the 7-8 album versions in cueripper represented my cd (with either "a song for the deaf" or "everybody's gonna be happy" missing). I do understand now that track 1 (the real song for the deaf) was always meant to be HTOA. I'll keep a copy of your cue sheet if I need to burn the cd (and paste it here in case it helps someone). Thanks again @greynol , @korth !

Quote
I agree that tracks 01-15 were misnamed and mis-tagged and this caused some confusion.
I hoped you understood that if the tracks had been named correctly, the original CUE was fine for burning but if used as a playlist (in a player that could read non-compliant CUE sheets) would only play tracks 01-15 and probably not the hidden track.

Your solution should work.

Here is a modified example of how the original CUE could look but using your current file names (It could be used to burn the original layout):
Code: [Select]
TITLE "Songs for the Deaf"
CATALOG 0606949343620
REM DATE 2002
REM GENRE Rock
REM DISCNUMBER 1
REM TOTALDISCS 1
REM COMMENT "CUERipper v2.1.5 Copyright © 2008-13 Grigory Chudov"
PERFORMER "Queens Of The Stone Age"
FILE "01 - The Real Song For The Deaf.flac" WAVE
  TRACK 01 AUDIO
    PERFORMER "Queens of the Stone Age"
    TITLE "You Think I Ain't Worth A Dollar, But I Feel Like A Millionaire"
    ISRC USIR10211009
    INDEX 00 00:00:00
FILE "02 - You Think I Ain't Worth A Dollar, But I Feel Like A Millionaire.flac" WAVE
    INDEX 01 00:00:00
FILE "03 - No One Knows.flac" WAVE
  TRACK 02 AUDIO
    PERFORMER "Queens of the Stone Age"
    TITLE "No One Knows"
    ISRC USIR10211291
    INDEX 01 00:00:00
FILE "04 - First It Giveth.flac" WAVE
  TRACK 03 AUDIO
    PERFORMER "Queens of the Stone Age"
    TITLE "First It Giveth"
    ISRC USIR10211285
    INDEX 01 00:00:00
FILE "05 - A Song For The Dead.flac" WAVE
  TRACK 04 AUDIO
    PERFORMER "Queens of the Stone Age"
    TITLE "A Song For The Dead"
    ISRC USIR10211293
    INDEX 01 00:00:00
FILE "06 - The Sky Is Fallin'.flac" WAVE
  TRACK 05 AUDIO
    PERFORMER "Queens of the Stone Age"
    TITLE "The Sky Is Fallin'"
    ISRC USIR10211296
    INDEX 01 00:00:00
FILE "07 - Six Shooter.flac" WAVE
  TRACK 06 AUDIO
    PERFORMER "Queens of the Stone Age"
    TITLE "Six Shooter"
    ISRC USIR10211292
    INDEX 01 00:00:00
FILE "08 - Hangin' Tree.flac" WAVE
  TRACK 07 AUDIO
    PERFORMER "Queens of the Stone Age"
    TITLE "Hangin' Tree"
    ISRC USIR10211288
    INDEX 01 00:00:00
FILE "09 - Go With The Flow.flac" WAVE
  TRACK 08 AUDIO
    PERFORMER "Queens of the Stone Age"
    TITLE "Go With The Flow"
    ISRC USIR10211290
    INDEX 01 00:00:00
FILE "10 - Gonna Leave You.flac" WAVE
  TRACK 09 AUDIO
    PERFORMER "Queens of the Stone Age"
    TITLE "Gonna Leave You"
    ISRC USIR10211287
    INDEX 01 00:00:00
FILE "11 - Do It Again.flac" WAVE
  TRACK 10 AUDIO
    PERFORMER "Queens of the Stone Age"
    TITLE "Do It Again"
    ISRC USIR10211284
    INDEX 01 00:00:00
FILE "12 - God Is In The Radio.flac" WAVE
  TRACK 11 AUDIO
    PERFORMER "Queens of the Stone Age"
    TITLE "God Is In The Radio"
    ISRC USIR10211286
    INDEX 01 00:00:00
FILE "13 - Another Love Song.flac" WAVE
  TRACK 12 AUDIO
    PERFORMER "Queens of the Stone Age"
    TITLE "Another Love Song"
    ISRC USIR10211283
    INDEX 01 00:00:00
FILE "14 - A Song For The Deaf , Feel Good Hit Of The Summer (Reprise).flac" WAVE
  TRACK 13 AUDIO
    PERFORMER "Queens of the Stone Age"
    TITLE "A Song For The Deaf / Feel Good Hit Of The Summer (Reprise)"
    ISRC USIR10211294
    INDEX 01 00:00:00
  TRACK 14 AUDIO
    PERFORMER "Queens of the Stone Age"
    TITLE "Mosquito Song"
    ISRC USIR10211289
    INDEX 00 06:12:57
FILE "15 - Mosquito Song.flac" WAVE
    INDEX 01 00:00:00
FILE "16 - Everybody's Gonna Be Happy.flac" WAVE
  TRACK 15 AUDIO
    PERFORMER "Queens of the Stone Age"
    TITLE "Everybody's Gonna Be Happy"
    ISRC USIR10211360
    INDEX 01 00:00:00

How to include HTOA track in cuesheet

Reply #8
@greynol – What misunderstanding? When CUERipper is getting track performer & title metadata from MusicBrainz, it assumes that the first item in the list is the data for track 01, whereas sometimes it's for the HTOA. If the problem is fixed and a new rip is made, the OP's original problem goes away. The extraneous PREGAP is another bug.

Does it matter if the CD contains CD-TEXT? A cue sheet is almost always a hybrid of data that came from the disc itself and data that came from external sources. That's what the users want, or should we say it's what they have come to expect because of the behavior of the major rippers. They don't want to see the actual CD-TEXT data, or lack thereof, especially if they're using cue sheets as playlists. They'd also probably be disappointed to know what CD-TEXT actually looks like on the few commercial CDs that have it (all caps, typos, truncated).

How to include HTOA track in cuesheet

Reply #9
I just don't get all excited about tediously verbose online metadata and bastardizing CUE sheets and using them to perform a job that was never intended, especially when there are other perfectly workable solutions.

Whatever knocks users' socks off, I guess.

Clearly the misunderstanding is mine.
Is 24-bit/192kHz good enough for your lo-fi vinyl, or do you need 32/384?

How to include HTOA track in cuesheet

Reply #10
I just don't get all excited about tediously verbose online metadata and bastardizing CUE sheets and using them to perform a job that was never intended, especially when there are other perfectly workable solutions.

Whatever knocks users' socks off, I guess.

Clearly the misunderstanding is mine.


I get your point and agree that cue sheets are meant for burning and not playlists. But I verify my rips using these cue sheets. With this particular bad cue corrected, now I wouldn't care if the cd got scratched, broken or lost. Its all about that perfect rip!

How to include HTOA track in cuesheet

Reply #11
...and whether the disc has pre-emphasis.  I feel the same way!

Regardless of my opinions, it seems this bug can be fixed; I hope it does.
Is 24-bit/192kHz good enough for your lo-fi vinyl, or do you need 32/384?

 

How to include HTOA track in cuesheet

Reply #12
Whenever ripping a CD with HTOA, I include three CUE sheets for burning to CD-R (without HTOA/HTOA at the beginning/HTOA at the end):

Code: [Select]
REM DISCID E10E8B0F
PERFORMER "Queens Of The Stone Age"
TITLE "Songs For The Deaf"
REM DATE 2002
REM DISCNUMBER 1
REM TOTALDISCS 1
REM COMMENT "Album: Contains hidden track one audio - ripped from EAC CD-R"
FILE "01 - Queens Of The Stone Age - You Think I Ain't Worth A Dollar, But I Feel Like A Millionaire.flac" WAVE
  TRACK 01 AUDIO
    PERFORMER "Queens Of The Stone Age"
    TITLE "You Think I Ain't Worth A Dollar, But I Feel Like A Millionaire"
    INDEX 01 00:00:00
FILE "02 - Queens Of The Stone Age - No One Knows.flac" WAVE
  TRACK 02 AUDIO
    PERFORMER "Queens Of The Stone Age"
    TITLE "No One Knows"
    INDEX 01 00:00:00
FILE "03 - Queens Of The Stone Age - First It Giveth.flac" WAVE
  TRACK 03 AUDIO
    PERFORMER "Queens Of The Stone Age"
    TITLE "First It Giveth"
    INDEX 01 00:00:00
FILE "04 - Queens Of The Stone Age - A Song For The Dead.flac" WAVE
  TRACK 04 AUDIO
    PERFORMER "Queens Of The Stone Age"
    TITLE "A Song For The Dead"
    INDEX 01 00:00:00
FILE "05 - Queens Of The Stone Age - The Sky Is Fallin'.flac" WAVE
  TRACK 05 AUDIO
    PERFORMER "Queens Of The Stone Age"
    TITLE "The Sky Is Fallin'"
    INDEX 01 00:00:00
FILE "06 - Queens Of The Stone Age - Six Shooter.flac" WAVE
  TRACK 06 AUDIO
    PERFORMER "Queens Of The Stone Age"
    TITLE "Six Shooter"
    INDEX 01 00:00:00
FILE "07 - Queens Of The Stone Age - Hangin' Tree.flac" WAVE
  TRACK 07 AUDIO
    PERFORMER "Queens Of The Stone Age"
    TITLE "Hangin' Tree"
    INDEX 01 00:00:00
FILE "08 - Queens Of The Stone Age - Go With The Flow.flac" WAVE
  TRACK 08 AUDIO
    PERFORMER "Queens Of The Stone Age"
    TITLE "Go With The Flow"
    INDEX 01 00:00:00
FILE "09 - Queens Of The Stone Age - Gonna Leave You.flac" WAVE
  TRACK 09 AUDIO
    PERFORMER "Queens Of The Stone Age"
    TITLE "Gonna Leave You"
    INDEX 01 00:00:00
FILE "10 - Queens Of The Stone Age - Do It Again.flac" WAVE
  TRACK 10 AUDIO
    PERFORMER "Queens Of The Stone Age"
    TITLE "Do It Again"
    INDEX 01 00:00:00
FILE "11 - Queens Of The Stone Age - God Is In The Radio.flac" WAVE
  TRACK 11 AUDIO
    PERFORMER "Queens Of The Stone Age"
    TITLE "God Is In The Radio"
    INDEX 01 00:00:00
FILE "12 - Queens Of The Stone Age - Another Love Song.flac" WAVE
  TRACK 12 AUDIO
    PERFORMER "Queens Of The Stone Age"
    TITLE "Another Love Song"
    INDEX 01 00:00:00
FILE "13 - Queens Of The Stone Age - A Song For The Deaf.flac" WAVE
  TRACK 13 AUDIO
    PERFORMER "Queens Of The Stone Age"
    TITLE "A Song For The Deaf"
    INDEX 01 00:00:00
  TRACK 14 AUDIO
    PERFORMER "Queens Of The Stone Age"
    TITLE "Mosquito Song"
    INDEX 00 06:12:57
FILE "14 - Queens Of The Stone Age - Mosquito Song.flac" WAVE
    INDEX 01 00:00:00
FILE "15 - Queens Of The Stone Age - Everybody's Gonna Be Happy.flac" WAVE
  TRACK 15 AUDIO
    PERFORMER "Queens Of The Stone Age"
    TITLE "Everybody's Gonna Be Happy"
    INDEX 01 00:00:00


Code: [Select]
REM DISCID E10E8B0F
PERFORMER "Queens Of The Stone Age"
TITLE "Songs For The Deaf"
REM DATE 2002
REM DISCNUMBER 1
REM TOTALDISCS 1
REM COMMENT "Album: Contains hidden track one audio - ripped from EAC CD-R"
FILE "00 - Queens Of The Stone Age - [Untitled - Hidden Track One Audio].flac" WAVE
  TRACK 01 AUDIO
    PERFORMER "Queens Of The Stone Age"
    TITLE "You Think I Ain't Worth A Dollar, But I Feel Like A Millionaire"
    INDEX 00 00:00:00
FILE "01 - Queens Of The Stone Age - You Think I Ain't Worth A Dollar, But I Feel Like A Millionaire.flac" WAVE
    INDEX 01 00:00:00
FILE "02 - Queens Of The Stone Age - No One Knows.flac" WAVE
  TRACK 02 AUDIO
    PERFORMER "Queens Of The Stone Age"
    TITLE "No One Knows"
    INDEX 01 00:00:00
FILE "03 - Queens Of The Stone Age - First It Giveth.flac" WAVE
  TRACK 03 AUDIO
    PERFORMER "Queens Of The Stone Age"
    TITLE "First It Giveth"
    INDEX 01 00:00:00
FILE "04 - Queens Of The Stone Age - A Song For The Dead.flac" WAVE
  TRACK 04 AUDIO
    PERFORMER "Queens Of The Stone Age"
    TITLE "A Song For The Dead"
    INDEX 01 00:00:00
FILE "05 - Queens Of The Stone Age - The Sky Is Fallin'.flac" WAVE
  TRACK 05 AUDIO
    PERFORMER "Queens Of The Stone Age"
    TITLE "The Sky Is Fallin'"
    INDEX 01 00:00:00
FILE "06 - Queens Of The Stone Age - Six Shooter.flac" WAVE
  TRACK 06 AUDIO
    PERFORMER "Queens Of The Stone Age"
    TITLE "Six Shooter"
    INDEX 01 00:00:00
FILE "07 - Queens Of The Stone Age - Hangin' Tree.flac" WAVE
  TRACK 07 AUDIO
    PERFORMER "Queens Of The Stone Age"
    TITLE "Hangin' Tree"
    INDEX 01 00:00:00
FILE "08 - Queens Of The Stone Age - Go With The Flow.flac" WAVE
  TRACK 08 AUDIO
    PERFORMER "Queens Of The Stone Age"
    TITLE "Go With The Flow"
    INDEX 01 00:00:00
FILE "09 - Queens Of The Stone Age - Gonna Leave You.flac" WAVE
  TRACK 09 AUDIO
    PERFORMER "Queens Of The Stone Age"
    TITLE "Gonna Leave You"
    INDEX 01 00:00:00
FILE "10 - Queens Of The Stone Age - Do It Again.flac" WAVE
  TRACK 10 AUDIO
    PERFORMER "Queens Of The Stone Age"
    TITLE "Do It Again"
    INDEX 01 00:00:00
FILE "11 - Queens Of The Stone Age - God Is In The Radio.flac" WAVE
  TRACK 11 AUDIO
    PERFORMER "Queens Of The Stone Age"
    TITLE "God Is In The Radio"
    INDEX 01 00:00:00
FILE "12 - Queens Of The Stone Age - Another Love Song.flac" WAVE
  TRACK 12 AUDIO
    PERFORMER "Queens Of The Stone Age"
    TITLE "Another Love Song"
    INDEX 01 00:00:00
FILE "13 - Queens Of The Stone Age - A Song For The Deaf.flac" WAVE
  TRACK 13 AUDIO
    PERFORMER "Queens Of The Stone Age"
    TITLE "A Song For The Deaf"
    INDEX 01 00:00:00
  TRACK 14 AUDIO
    PERFORMER "Queens Of The Stone Age"
    TITLE "Mosquito Song"
    INDEX 00 06:12:57
FILE "14 - Queens Of The Stone Age - Mosquito Song.flac" WAVE
    INDEX 01 00:00:00
FILE "15 - Queens Of The Stone Age - Everybody's Gonna Be Happy.flac" WAVE
  TRACK 15 AUDIO
    PERFORMER "Queens Of The Stone Age"
    TITLE "Everybody's Gonna Be Happy"
    INDEX 01 00:00:00


Code: [Select]
REM DISCID E10E8B0F
PERFORMER "Queens Of The Stone Age"
TITLE "Songs For The Deaf"
REM DATE 2002
REM DISCNUMBER 1
REM TOTALDISCS 1
REM COMMENT "Album: Contains hidden track one audio - ripped from EAC CD-R"
FILE "01 - Queens Of The Stone Age - You Think I Ain't Worth A Dollar, But I Feel Like A Millionaire.flac" WAVE
  TRACK 01 AUDIO
    PERFORMER "Queens Of The Stone Age"
    TITLE "You Think I Ain't Worth A Dollar, But I Feel Like A Millionaire"
    INDEX 01 00:00:00
FILE "02 - Queens Of The Stone Age - No One Knows.flac" WAVE
  TRACK 02 AUDIO
    PERFORMER "Queens Of The Stone Age"
    TITLE "No One Knows"
    INDEX 01 00:00:00
FILE "03 - Queens Of The Stone Age - First It Giveth.flac" WAVE
  TRACK 03 AUDIO
    PERFORMER "Queens Of The Stone Age"
    TITLE "First It Giveth"
    INDEX 01 00:00:00
FILE "04 - Queens Of The Stone Age - A Song For The Dead.flac" WAVE
  TRACK 04 AUDIO
    PERFORMER "Queens Of The Stone Age"
    TITLE "A Song For The Dead"
    INDEX 01 00:00:00
FILE "05 - Queens Of The Stone Age - The Sky Is Fallin'.flac" WAVE
  TRACK 05 AUDIO
    PERFORMER "Queens Of The Stone Age"
    TITLE "The Sky Is Fallin'"
    INDEX 01 00:00:00
FILE "06 - Queens Of The Stone Age - Six Shooter.flac" WAVE
  TRACK 06 AUDIO
    PERFORMER "Queens Of The Stone Age"
    TITLE "Six Shooter"
    INDEX 01 00:00:00
FILE "07 - Queens Of The Stone Age - Hangin' Tree.flac" WAVE
  TRACK 07 AUDIO
    PERFORMER "Queens Of The Stone Age"
    TITLE "Hangin' Tree"
    INDEX 01 00:00:00
FILE "08 - Queens Of The Stone Age - Go With The Flow.flac" WAVE
  TRACK 08 AUDIO
    PERFORMER "Queens Of The Stone Age"
    TITLE "Go With The Flow"
    INDEX 01 00:00:00
FILE "09 - Queens Of The Stone Age - Gonna Leave You.flac" WAVE
  TRACK 09 AUDIO
    PERFORMER "Queens Of The Stone Age"
    TITLE "Gonna Leave You"
    INDEX 01 00:00:00
FILE "10 - Queens Of The Stone Age - Do It Again.flac" WAVE
  TRACK 10 AUDIO
    PERFORMER "Queens Of The Stone Age"
    TITLE "Do It Again"
    INDEX 01 00:00:00
FILE "11 - Queens Of The Stone Age - God Is In The Radio.flac" WAVE
  TRACK 11 AUDIO
    PERFORMER "Queens Of The Stone Age"
    TITLE "God Is In The Radio"
    INDEX 01 00:00:00
FILE "12 - Queens Of The Stone Age - Another Love Song.flac" WAVE
  TRACK 12 AUDIO
    PERFORMER "Queens Of The Stone Age"
    TITLE "Another Love Song"
    INDEX 01 00:00:00
FILE "13 - Queens Of The Stone Age - A Song For The Deaf.flac" WAVE
  TRACK 13 AUDIO
    PERFORMER "Queens Of The Stone Age"
    TITLE "A Song For The Deaf"
    INDEX 01 00:00:00
  TRACK 14 AUDIO
    PERFORMER "Queens Of The Stone Age"
    TITLE "Mosquito Song"
    INDEX 00 06:12:57
FILE "14 - Queens Of The Stone Age - Mosquito Song.flac" WAVE
    INDEX 01 00:00:00
FILE "15 - Queens Of The Stone Age - Everybody's Gonna Be Happy.flac" WAVE
  TRACK 15 AUDIO
    PERFORMER "Queens Of The Stone Age"
    TITLE "Everybody's Gonna Be Happy"
    INDEX 01 00:00:00
FILE "00 - Queens Of The Stone Age - [Untitled - Hidden Track One Audio].flac" WAVE
  TRACK 16 AUDIO
    TITLE "[Untitled - Hidden Track One Audio]"
    PERFORMER "Queens Of The Stone Age"
    INDEX 01 00:00:00

 
SimplePortal 1.0.0 RC1 © 2008-2018