Skip to main content
Topic: Cue error with ape file (Read 2073 times) previous topic - next topic
0 Members and 1 Guest are viewing this topic.

Cue error with ape file

Hi, I'm a little new to using cue files but I have a bunch of ape files with cue files that go with them and I want to burn them to a cd.  Now I've tried using both EAC and Burrn to make a cd but there seems to be an error with the cue file I am using.  I get the error: INDEX position is behind end of FILE in line 36.  I'm not sure how I can fix the cue file in order to get this cd to burn properly.  Can anyone help me?  I'll post the cue text here:

REM GENRE Classical
REM DATE 2006
REM DISCID 5710C706
REM COMMENT "ExactAudioCopy v0.95b4"
CATALOG 0028947762393
PERFORMER "Herbert von Karajan"
TITLE "Herbert von Karajan - The Mono Recordings CD 2"
FILE "CD2Image.ape" WAVE
  TRACK 01 AUDIO
    TITLE "Symphony No. 1 in Cm op.68 - Un poco sostenuto, Allegro"
    PERFORMER "Johannes Brahms"
    ISRC DEF054302021
    INDEX 00 00:00:00
    INDEX 01 00:00:33
  TRACK 02 AUDIO
    TITLE "Symphony No. 1 in Cm op.68 - Andante sostenuto"
    PERFORMER "Johannes Brahms"
    ISRC DEF054302022
    INDEX 00 14:25:08
    INDEX 01 14:29:58
  TRACK 03 AUDIO
    TITLE "Symphony No. 1 in Cm op.68 - Un poco allegretto e grazioso"
    PERFORMER "Johannes Brahms"
    ISRC DEF054302023
    INDEX 00 23:22:07
    INDEX 01 23:23:65
  TRACK 04 AUDIO
    TITLE "Symphony No. 1 in Cm op.68 - Adagio, Allegro non troppo ma con brio"
    PERFORMER "Johannes Brahms"
    ISRC DEF054302024
    INDEX 01 27:54:08
  TRACK 05 AUDIO
    TITLE "Don Juan op.20"
    PERFORMER "Richard Strauss"
    ISRC DEF054302030
    INDEX 00 45:26:33
    INDEX 01 45:31:33
  TRACK 06 AUDIO
    TITLE "Salome - Tanz der sieben Schleier"
    PERFORMER "Richard Strauss"
    ISRC DEF054302040
    INDEX 00 62:49:33
    INDEX 01 62:55:33

Line 36 is the one that says: INDEX 00 45:26:33
I'm just not sure what this error means or how to go about fixing it.  Thanks.

 

Cue error with ape file

Reply #1
Install FooBar2000 with the Monkey's Audio decoding support. Try playing the APE image in FB2K and see what error it gives you. I have not had any trouble with EAC's non-standard CUE sheets and playback in FB2K.

My suggestion: remove all the INDEX 01's and change the INDEX 00 to INDEX 01. Also, removing all the ISRCs won't affect the burn, in my experience. That usually fixes any problems I have with CUEs.
OP can't edit initial post when a solution is determined  :'-(

 
SimplePortal 1.0.0 RC1 © 2008-2019