Hydrogenaudio Forums

Hosted Forums => foobar2000 => Support - (fb2k) => Topic started by: foobarUser2 on 2019-01-11 21:29:01

Title: Error Parshing cuesheet
Post by: foobarUser2 on 2019-01-11 21:29:01
When I load the cuesheet into foobar and press play I get an error. I do have the .tta codec installed as I'm able to drop the actual file and play it. I tried changing "The True Audio" to just "True Audio" but that didn't work. Cue file posted below.

 "Unable to open item for playback (Error parsing cuesheet: invalid FILE syntax (line 3))"

Code: [Select]
PERFORMER "I've/Geneon"
TITLE "緋色の空"
FILE "GNCA-0019.tta" The True Audio (Notepad++ puts this as line 3)
  TRACK 01 AUDIO
    TITLE "緋色の空"
    PERFORMER "川田まみ"
    ISRC JPPI00554130
    INDEX 01 00:00:00
  TRACK 02 AUDIO
    TITLE "another planet"
    PERFORMER "川田まみ"
    ISRC JPPI00554140
    INDEX 00 04:14:57
    INDEX 01 04:15:37
  TRACK 03 AUDIO
    TITLE "another planet ~twilight~"
    PERFORMER "川田まみ"
    ISRC JPPI00554141
    INDEX 00 10:04:07
    INDEX 01 10:05:55
  TRACK 04 AUDIO
    TITLE "緋色の空 (instrumental)"
    PERFORMER " "
    ISRC JPPI00554139
    INDEX 00 14:05:52
    INDEX 01 14:07:32
  TRACK 05 AUDIO
    TITLE "another planet (instrumental)"
    PERFORMER " "
    ISRC JPPI00554149
    INDEX 00 18:21:25
    INDEX 01 18:22:05
Title: Re: Error Parshing cuesheet
Post by: Rollin on 2019-01-11 22:38:06
FILE "GNCA-0019.tta" The True Audio
Should be
Code: [Select]
FILE "GNCA-0019.tta" WAVE
Title: Re: Error Parshing cuesheet
Post by: foobarUser2 on 2019-01-11 22:45:32
FILE "GNCA-0019.tta" The True Audio
Should be
Code: [Select]
FILE "GNCA-0019.tta" WAVE

Works perfectly now thanks.
SimplePortal 1.0.0 RC1 © 2008-2019