Skip to main content

Notice

Please note that most of the software linked on this forum is likely to be safe to use. If you are unsure, feel free to ask in the relevant topics, or send a private message to an administrator or moderator. To help curb the problems of false positives, or in the event that you do find actual malware, you can contribute through the article linked here.
Topic: Question About Reading CUETools Logfiles (Read 238 times) previous topic - next topic
0 Members and 1 Guest are viewing this topic.

Question About Reading CUETools Logfiles

Hello--

I have been searching through the forums/wiki/YouTube, but can't find a definitive answer (or I'm too dumb to understand what I'm reading, which is a distinct possibility) to my issue, which I'm not even sure is an issue. Maybe more just clarification, but now we're getting into semantics.

I have been using EAC to rip FLAC copies of my CDs for years. Whenever I had a CD that wouldn't rip properly, I would just torrent a lossless copy of it. But now, I would like to just save the time and trouble of locating a proper torrent to download and just repair my bad rips with CUETools. The problem is I can't find a guide to help me read the logfile to see if the tracks were repaired correctly. I think they were based on the verbiage at the top of the log.

I guess my question is this: Does "CUETools DB: corrected xxx errors" mean the files were successfully repaired? I attached my logfile below. Thanks for any/all info!

Code: [Select]
[CUETools log; Date: 8/8/2021 1:02:40 PM; Version: 2.1.6]
CUETools DB: corrected 341 errors.
[AccurateRip ID: 0010f5d2-009ebeae-9c08df0c] found.
Track   [  CRC   |   V2   ] Status
 01     [34cf0e02|4cc896d7] (003+067/165) Accurately ripped
 02     [603372f2|7cde0fd0] (003+067/165) Accurately ripped
 03     [8ac03c44|b7306b96] (003+067/163) Accurately ripped
 04     [318487a5|0d15b1d5] (003+067/163) Accurately ripped
 05     [fd122d5a|17580048] (003+067/164) Accurately ripped
 06     [2e51c6ad|fe5235b9] (003+067/163) Accurately ripped
 07     [c4d0bf55|9a00d4b3] (003+067/162) Accurately ripped
 08     [bd067bdb|e5707ff4] (003+067/161) Accurately ripped
 09     [0a689818|8412388b] (003+067/163) Accurately ripped
 10     [c31a0d95|6ad829f5] (003+066/161) Accurately ripped
 11     [c3e121a7|6bb45e44] (003+067/162) Accurately ripped
 12     [6330686f|361a8c7d] (003+067/160) Accurately ripped
Offsetted by -1304:
 01     [37e9754a] (012/165) Accurately ripped
 02     [49c231a2] (012/165) Accurately ripped
 03     [00f2c7c4] (012/163) Accurately ripped
 04     [3c778a75] (012/163) Accurately ripped
 05     [ceddabf2] (012/164) Accurately ripped
 06     [85ea0a95] (012/163) Accurately ripped
 07     [562b24a5] (012/162) Accurately ripped
 08     [d725f273] (012/161) Accurately ripped
 09     [ded193c0] (012/163) Accurately ripped
 10     [984eefbd] (012/161) Accurately ripped
 11     [dc59b85f] (012/162) Accurately ripped
 12     [29e3253d] (011/160) Accurately ripped
Offsetted by -646:
 01     [181ceb94] (015/165) Accurately ripped
 02     [d839611e] (016/165) Accurately ripped
 03     [34d0a324] (014/163) Accurately ripped
 04     [e9979dd9] (014/163) Accurately ripped
 05     [cd71e240] (014/164) Accurately ripped
 06     [1bad4e67] (014/163) Accurately ripped
 07     [d31afa29] (014/162) Accurately ripped
 08     [300d6ec1] (014/161) Accurately ripped
 09     [ecf61fc2] (014/163) Accurately ripped
 10     [831abadf] (013/161) Accurately ripped
 11     [1c2c9395] (014/162) Accurately ripped
 12     [1daf0d23] (014/160) Accurately ripped
Offsetted by -338:
 01     [b21453f8] (002/165) Accurately ripped
 02     [d41a04f6] (002/165) Accurately ripped
 03     [ca5e9ce4] (002/163) Accurately ripped
 04     [0f0e1ec1] (002/163) Accurately ripped
 05     [e29121cc] (002/164) Accurately ripped
 06     [41190c1b] (002/163) Accurately ripped
 07     [1ded4851] (002/162) Accurately ripped
 08     [f79fea4d] (002/161) Accurately ripped
 09     [0ed0c356] (002/163) Accurately ripped
 10     [4d9acdb3] (002/161) Accurately ripped
 11     [b1e0fa31] (002/162) Accurately ripped
 12     [96cc3b0b] (002/160) Accurately ripped
Offsetted by -12:
 01     [714dba26] (002/165) Accurately ripped
 02     [59b6554a] (002/165) Accurately ripped
 03     [acd1fa04] (002/163) Accurately ripped
 04     [cc515e0d] (002/163) Accurately ripped
 05     [2e1e4226] (002/164) Accurately ripped
 06     [ab32fb21] (002/163) Accurately ripped
 07     [3996aefd] (002/162) Accurately ripped
 08     [f1180ca7] (002/161) Accurately ripped
 09     [19b6846c] (002/163) Accurately ripped
 10     [184d9529] (002/161) Accurately ripped
 11     [2bc2d483] (002/162) Accurately ripped
 12     [0ead9bd7] (002/160) Accurately ripped

Track Peak [ CRC32  ] [W/O NULL] [  LOG   ]
 --  100.0 [3B15CCBA] [C0D457A9]          
 01   99.8 [40FBAA59] [6A3A229A]   CRC32  
 02   97.8 [D29E99ED] [9A3F982A]   CRC32  
 03   98.8 [A80E642C] [60B74A61]   CRC32  
 04  100.0 [BC08267C] [B3FE7110] [6324A1BB]
 05   98.4 [BECBF6C3] [089C6849]   CRC32  
 06   96.0 [A8C788B3] [A2A1571A]   CRC32  
 07   98.6 [0125FFF1] [235462DB]   CRC32  
 08   98.7 [88433459] [C66EB05D]   CRC32  
 09   97.3 [20D11F16] [245840BB]   CRC32  
 10   98.7 [4445969F] [A165FBDB]   CRC32  
 11   97.9 [42444D43] [E235F6C9]   CRC32  
 12   98.8 [51E86D62] [993EECF1]   CRC32  

MOD Edit: move log to code box

Re: Question About Reading CUETools Logfiles

Reply #1
Gee I would think the "Accurately ripped" after every track would give some indication.
http://cue.tools/wiki/CUETools_log#Special_Messages_Section
Seriously though, the text at the top only lets you know that you used the repair script and some samples were corrected based on the recovery record you used. It doesn't tell you if you used the correct recovery record to perform the repair. The database result will tell you if your rip now matches for all tracks. I would run 'Verify' to see the CTDB result as well.
korth

Re: Question About Reading CUETools Logfiles

Reply #2
I ran "verify", and everything looks good. Thanks for your help, korth!

Code: [Select]
[CUETools log; Date: 8/8/2021 3:52:49 PM; Version: 2.1.6]
[CTDB TOCID: qUr5BU8uaJfkQ2ZASjb5qdpqPE8-] found.
Track | CTDB Status
  1   | (243/244) Accurately ripped
  2   | (244/244) Accurately ripped
  3   | (244/244) Accurately ripped
  4   | (244/244) Accurately ripped
  5   | (243/244) Accurately ripped
  6   | (243/244) Accurately ripped
  7   | (243/244) Accurately ripped
  8   | (243/244) Accurately ripped
  9   | (242/244) Accurately ripped
 10   | (243/244) Accurately ripped
 11   | (243/244) Accurately ripped
 12   | (241/244) Accurately ripped
[AccurateRip ID: 0010f5d2-009ebeae-9c08df0c] found.
Track   [  CRC   |   V2   ] Status
 01     [34cf0e02|4cc896d7] (003+067/165) Accurately ripped
 02     [603372f2|7cde0fd0] (003+067/165) Accurately ripped
 03     [8ac03c44|b7306b96] (003+067/163) Accurately ripped
 04     [318487a5|0d15b1d5] (003+067/163) Accurately ripped
 05     [fd122d5a|17580048] (003+067/164) Accurately ripped
 06     [2e51c6ad|fe5235b9] (003+067/163) Accurately ripped
 07     [c4d0bf55|9a00d4b3] (003+067/162) Accurately ripped
 08     [bd067bdb|e5707ff4] (003+067/161) Accurately ripped
 09     [0a689818|8412388b] (003+067/163) Accurately ripped
 10     [c31a0d95|6ad829f5] (003+066/161) Accurately ripped
 11     [c3e121a7|6bb45e44] (003+067/162) Accurately ripped
 12     [6330686f|361a8c7d] (003+067/160) Accurately ripped
Offsetted by -1304:
 01     [37e9754a] (012/165) Accurately ripped
 02     [49c231a2] (012/165) Accurately ripped
 03     [00f2c7c4] (012/163) Accurately ripped
 04     [3c778a75] (012/163) Accurately ripped
 05     [ceddabf2] (012/164) Accurately ripped
 06     [85ea0a95] (012/163) Accurately ripped
 07     [562b24a5] (012/162) Accurately ripped
 08     [d725f273] (012/161) Accurately ripped
 09     [ded193c0] (012/163) Accurately ripped
 10     [984eefbd] (012/161) Accurately ripped
 11     [dc59b85f] (012/162) Accurately ripped
 12     [29e3253d] (011/160) Accurately ripped
Offsetted by -646:
 01     [181ceb94] (015/165) Accurately ripped
 02     [d839611e] (016/165) Accurately ripped
 03     [34d0a324] (014/163) Accurately ripped
 04     [e9979dd9] (014/163) Accurately ripped
 05     [cd71e240] (014/164) Accurately ripped
 06     [1bad4e67] (014/163) Accurately ripped
 07     [d31afa29] (014/162) Accurately ripped
 08     [300d6ec1] (014/161) Accurately ripped
 09     [ecf61fc2] (014/163) Accurately ripped
 10     [831abadf] (013/161) Accurately ripped
 11     [1c2c9395] (014/162) Accurately ripped
 12     [1daf0d23] (014/160) Accurately ripped
Offsetted by -338:
 01     [b21453f8] (002/165) Accurately ripped
 02     [d41a04f6] (002/165) Accurately ripped
 03     [ca5e9ce4] (002/163) Accurately ripped
 04     [0f0e1ec1] (002/163) Accurately ripped
 05     [e29121cc] (002/164) Accurately ripped
 06     [41190c1b] (002/163) Accurately ripped
 07     [1ded4851] (002/162) Accurately ripped
 08     [f79fea4d] (002/161) Accurately ripped
 09     [0ed0c356] (002/163) Accurately ripped
 10     [4d9acdb3] (002/161) Accurately ripped
 11     [b1e0fa31] (002/162) Accurately ripped
 12     [96cc3b0b] (002/160) Accurately ripped
Offsetted by -12:
 01     [714dba26] (002/165) Accurately ripped
 02     [59b6554a] (002/165) Accurately ripped
 03     [acd1fa04] (002/163) Accurately ripped
 04     [cc515e0d] (002/163) Accurately ripped
 05     [2e1e4226] (002/164) Accurately ripped
 06     [ab32fb21] (002/163) Accurately ripped
 07     [3996aefd] (002/162) Accurately ripped
 08     [f1180ca7] (002/161) Accurately ripped
 09     [19b6846c] (002/163) Accurately ripped
 10     [184d9529] (002/161) Accurately ripped
 11     [2bc2d483] (002/162) Accurately ripped
 12     [0ead9bd7] (002/160) Accurately ripped

Track Peak [ CRC32  ] [W/O NULL] [  LOG   ]
 --  100.0 [3B15CCBA] [C0D457A9]          
 01   99.8 [40FBAA59] [6A3A229A]   CRC32  
 02   97.8 [D29E99ED] [9A3F982A]   CRC32  
 03   98.8 [A80E642C] [60B74A61]   CRC32  
 04  100.0 [BC08267C] [B3FE7110] [6324A1BB]
 05   98.4 [BECBF6C3] [089C6849]   CRC32  
 06   96.0 [A8C788B3] [A2A1571A]   CRC32  
 07   98.6 [0125FFF1] [235462DB]   CRC32  
 08   98.7 [88433459] [C66EB05D]   CRC32  
 09   97.3 [20D11F16] [245840BB]   CRC32  
 10   98.7 [4445969F] [A165FBDB]   CRC32  
 11   97.9 [42444D43] [E235F6C9]   CRC32  
 12   98.8 [51E86D62] [993EECF1]   CRC32