Skip to main content

Notice

Please note that most of the software linked on this forum is likely to be safe to use. If you are unsure, feel free to ask in the relevant topics, or send a private message to an administrator or moderator. To help curb the problems of false positives, or in the event that you do find actual malware, you can contribute through the article linked here.
Topic: The Corrs - No More Cry (Read 3974 times) previous topic - next topic
0 Members and 1 Guest are viewing this topic.

The Corrs - No More Cry

For test purposes.
Quote
METADATA block #0
  type: 0 (STREAMINFO)
  is last: false
  length: 34
  minumum blocksize: 4608 samples
  maximum blocksize: 4608 samples
  minimum framesize: 14 bytes
  maximum framesize: 15862 bytes
  sample_rate: 44100 Hz
  channels: 2
  bits-per-sample: 16
  total samples: 1323000
  MD5 signature: a44f86933e90d611145476ebc541ab7e
METADATA block #1
  type: 3 (SEEKTABLE)
  is last: false
  length: 54
  seek points: 3
    point 0: sample_number=0, stream_offset=0, frame_samples=0
    point 1: sample_number=437760, stream_offset=0, frame_samples=1260078
    point 2: sample_number=880128, stream_offset=0, frame_samples=2494558
METADATA block #2
  type: 4 (VORBIS_COMMENT)
  is last: true
  length: 217
  vendor string: reference libFLAC 1.1.0 20030126
  comments: 7
    comment[0]: ALBUM=In Blue Special Edition
    comment[1]: DISCNUMBER=2
    comment[2]: TRACKNUMBER=2
    comment[3]: TITLE=No More Cry
    comment[4]: VERSION=Acoustic
    comment[5]: replaygain_track_gain=-6.83 dB
    comment[6]: replaygain_track_peak=0.99993896
Quote
bitrate = 1000
samplerate = 44100
channels = 2
bitspersample = 16
codec = FLAC
replaygain_track_gain = -6.83 dB
replaygain_track_peak = 0.99993896
----------
1323000 samples @ 44100Hz

The Corrs - No More Cry

Reply #1
To test what? 


The Corrs - No More Cry

Reply #3
Thanks kjoonlee - that's perfect. No need to be so cryptic though - the test won't be a secret!

I wonder what the other 12 people who downloaded it wanted it for?

Cheers,
David.

P.S. No I won't buy the CD - I already have the regular CD and DVD-A versions - I refuse to buy the album a third time, even for some extra tracks!

 

The Corrs - No More Cry

Reply #4
Quote
I wonder what the other 12 people who downloaded it wanted it for?

I was the first: I download everything i see 

BTW: what test is?
Vital papers will demonstrate their vitality by spontaneously moving from where you left them to where you can't find them.

 
SimplePortal 1.0.0 RC1 © 2008-2021