Skip to main content

Topic: Missing ISRC information on some tracks but not all (Read 418 times) previous topic - next topic

0 Members and 1 Guest are viewing this topic.
  • Riverstorm
  • [*]
Missing ISRC information on some tracks but not all
I was wondering if anyone else is missing ISRC information on some CD tracks? I ripped Frank Sinatra - Best of the Best (US 2011) and only tracks 1 through 12 have the ISRC codes but 13 through 23 have nothing. I might have more like this but this is the first one I noticed as I was close to the PC while it was ripping. I was wondering if others have seen it and it's normal or if it's some sort of issue with ripping.

Code: [Select]
REM GENRE Jazz
REM DATE 2011
REM DISCID 5F10F217
REM COMMENT "ExactAudioCopy v1.3"
CATALOG 5099967976423
PERFORMER "Frank Sinatra"
TITLE "Best Of The Best"
REM COMPOSER ""
FILE "01 I've Got The World On A String.wav" WAVE
  TRACK 01 AUDIO
    TITLE "I've Got The World On A String"
    PERFORMER "Frank Sinatra"
    REM COMPOSER ""
    ISRC USCA21102120
    INDEX 01 00:00:00
  TRACK 02 AUDIO
    TITLE "My Funny Valentine"
    PERFORMER "Frank Sinatra"
    REM COMPOSER ""
    ISRC USCA21102115
    INDEX 00 02:09:03
FILE "02 My Funny Valentine.wav" WAVE
    INDEX 01 00:00:00
  TRACK 03 AUDIO
    TITLE "Young At Heart"
    PERFORMER "Frank Sinatra"
    REM COMPOSER ""
    ISRC USCA21102116
    INDEX 00 02:29:49
FILE "03 Young At Heart.wav" WAVE
    INDEX 01 00:00:00
  TRACK 04 AUDIO
    TITLE "In The Wee Small Hours Of The Morning"
    PERFORMER "Frank Sinatra"
    REM COMPOSER ""
    ISRC USCA21102117
    INDEX 00 02:48:51
FILE "04 In The Wee Small Hours Of The Morning.wav" WAVE
    INDEX 01 00:00:00
  TRACK 05 AUDIO
    TITLE "Love And Marriage"
    PERFORMER "Frank Sinatra"
    REM COMPOSER ""
    ISRC USCA21102118
    INDEX 00 02:58:48
FILE "05 Love And Marriage.wav" WAVE
    INDEX 01 00:00:00
  TRACK 06 AUDIO
    TITLE "You Make Me Feel So Young"
    PERFORMER "Frank Sinatra"
    REM COMPOSER ""
    ISRC USCA21102119
    INDEX 00 02:37:22
FILE "06 You Make Me Feel So Young.wav" WAVE
    INDEX 01 00:00:00
  TRACK 07 AUDIO
    TITLE "I've Got You Under My Skin"
    PERFORMER "Frank Sinatra"
    REM COMPOSER ""
    ISRC USCA21102114
    INDEX 00 02:53:23
FILE "07 I've Got You Under My Skin.wav" WAVE
    INDEX 01 00:00:00
  TRACK 08 AUDIO
    TITLE "The Lady Is A Tramp"
    PERFORMER "Frank Sinatra"
    REM COMPOSER ""
    ISRC USCA21102121
    INDEX 00 03:40:60
FILE "08 The Lady Is A Tramp.wav" WAVE
    INDEX 01 00:00:00
  TRACK 09 AUDIO
    TITLE "Witchcraft"
    PERFORMER "Frank Sinatra"
    REM COMPOSER ""
    ISRC USCA21102122
    INDEX 00 03:14:14
FILE "09 Witchcraft.wav" WAVE
    INDEX 01 00:00:00
  TRACK 10 AUDIO
    TITLE "All The Way"
    PERFORMER "Frank Sinatra"
    REM COMPOSER ""
    ISRC USCA21102123
    INDEX 00 02:51:19
FILE "10 All The Way.wav" WAVE
    INDEX 01 00:00:00
  TRACK 11 AUDIO
    TITLE "Come Fly With Me"
    PERFORMER "Frank Sinatra"
    REM COMPOSER ""
    ISRC USCA21102124
    INDEX 00 02:50:12
FILE "11 Come Fly With Me.wav" WAVE
    INDEX 01 00:00:00
  TRACK 12 AUDIO
    TITLE "Angel Eyes"
    PERFORMER "Frank Sinatra"
    REM COMPOSER ""
    ISRC USCA20902801
    INDEX 00 03:16:69
FILE "12 Angel Eyes.wav" WAVE
    INDEX 01 00:00:00
  TRACK 13 AUDIO
    TITLE "Nice 'N' Easy"
    PERFORMER "Frank Sinatra"
    REM COMPOSER ""
    ISRC USCA21102126
    INDEX 00 03:42:46
FILE "13 Nice 'N' Easy.wav" WAVE
    INDEX 01 00:00:00
  TRACK 14 AUDIO
    TITLE "Night And Day"
    PERFORMER "Frank Sinatra"
    REM COMPOSER ""
    INDEX 00 02:44:16
FILE "14 Night And Day.wav" WAVE
    INDEX 01 00:00:00
  TRACK 15 AUDIO
    TITLE "The Way You Look Tonight"
    PERFORMER "Frank Sinatra"
    REM COMPOSER ""
    INDEX 00 03:35:62
FILE "15 The Way You Look Tonight.wav" WAVE
    INDEX 01 00:00:00
  TRACK 16 AUDIO
    TITLE "My Kind Of Town"
    PERFORMER "Frank Sinatra"
    REM COMPOSER ""
    INDEX 00 03:20:17
FILE "16 My Kind Of Town.wav" WAVE
    INDEX 01 00:00:00
  TRACK 17 AUDIO
    TITLE "Fly Me To The Moon (In Other Words)"
    PERFORMER "Frank Sinatra"
    REM COMPOSER ""
    INDEX 00 03:08:39
FILE "17 Fly Me To The Moon (In Other Words).wav" WAVE
    INDEX 01 00:00:00
  TRACK 18 AUDIO
    TITLE "It Was A Very Good Year"
    PERFORMER "Frank Sinatra"
    REM COMPOSER ""
    INDEX 00 02:26:07
FILE "18 It Was A Very Good Year.wav" WAVE
    INDEX 01 00:00:00
  TRACK 19 AUDIO
    TITLE "Strangers In The Night"
    PERFORMER "Frank Sinatra"
    REM COMPOSER ""
    INDEX 00 04:24:05
FILE "19 Strangers In The Night.wav" WAVE
    INDEX 01 00:00:00
  TRACK 20 AUDIO
    TITLE "Summer Wind"
    PERFORMER "Frank Sinatra"
    REM COMPOSER ""
    INDEX 00 02:34:34
FILE "20 Summer Wind.wav" WAVE
    INDEX 01 00:00:00
  TRACK 21 AUDIO
    TITLE "That's Life"
    PERFORMER "Frank Sinatra"
    REM COMPOSER ""
    INDEX 00 02:54:20
FILE "21 That's Life.wav" WAVE
    INDEX 01 00:00:00
  TRACK 22 AUDIO
    TITLE "My Way"
    PERFORMER "Frank Sinatra"
    REM COMPOSER ""
    INDEX 00 03:05:08
FILE "22 My Way.wav" WAVE
    INDEX 01 00:00:00
  TRACK 23 AUDIO
    TITLE "Theme From New York, New York"
    PERFORMER "Frank Sinatra"
    REM COMPOSER ""
    INDEX 00 04:33:61
FILE "23 Theme From New York, New York.wav" WAVE
    INDEX 01 00:00:00

  • Porcus
  • [*][*][*][*][*]
Re: Missing ISRC information on some tracks but not all
Reply #1
Yes, and it is even less surprising on compilations. I may have lost tags over the years, of course, but browsing briefly I find a couple. I note that all of these have ISRC on the first [something] tracks and no ISRC on the last remaining ones.

Judas Priest: Metalogy. A 4CD+DVD set. In my copy,
CD1: 15 tracks, no ISRC
CD2: 19 tracks, ISRC on the first ten only
CD3: 17 tracks, ISRC on the first seven only
CD4: 14 tracks, ISRC on the first ten only

Also, I have a Century Media sampler with ISRC in the first five of twelve.

The following have ISRC on only the first track:
Dokken: Live From the Sun
Joy Division: Permanent
Wovenhand: Ten Stones. I have a promo version.

  • Riverstorm
  • [*]
Re: Missing ISRC information on some tracks but not all
Reply #2
Thanks Porcus for verifying that. I can appreciate your music taste for sure! ;)