Skip to main content

Notice

Please note that most of the software linked on this forum is likely to be safe to use. If you are unsure, feel free to ask in the relevant topics, or send a private message to an administrator or moderator. To help curb the problems of false positives, or in the event that you do find actual malware, you can contribute through the article linked here.
Topic: CUETools 2.1.6 - Different AccurateRip IDs for .cue file and FLAC tracks (Read 351 times) previous topic - next topic
0 Members and 1 Guest are viewing this topic.

CUETools 2.1.6 - Different AccurateRip IDs for .cue file and FLAC tracks

Hello everyone!
I'm in the process of verifying some old CD rips I have and I've encountered something weird: three discs out of a four-disc set I have  seem to have different AccurateRip IDs for their .cue files and their FLAC tracks. The CTDB TOCID is the same and verifies accurate for all three discs.

Here is the result for the first disc .cue file:

Code: [Select]
[CUETools log; Date: 08/04/2021 20:48:12; Version: 2.1.6]
Pregap length 00:00:33.
[CTDB TOCID: l_JAaG62bgOzhedBJFPv7GPn.Vs-] found.
Track | CTDB Status
  1   | (5/5) Accurately ripped
  2   | (5/5) Accurately ripped
  3   | (5/5) Accurately ripped
  4   | (5/5) Accurately ripped
  5   | (5/5) Accurately ripped
  6   | (5/5) Accurately ripped
  7   | (5/5) Accurately ripped
  8   | (5/5) Accurately ripped
  9   | (5/5) Accurately ripped
 10   | (5/5) Accurately ripped
 11   | (5/5) Accurately ripped
 12   | (5/5) Accurately ripped
 13   | (5/5) Accurately ripped
 14   | (5/5) Accurately ripped
 15   | (5/5) Accurately ripped
 16   | (5/5) Accurately ripped
 17   | (5/5) Accurately ripped
 18   | (5/5) Accurately ripped
 19   | (5/5) Accurately ripped
 20   | (5/5) Accurately ripped
 21   | (5/5) Accurately ripped
[AccurateRip ID: 002cd6e1-02b7cd36-220e9715] found.
Track   [  CRC   |   V2   ] Status
 01     [946a737e|a603d58c] (3+6/9) Accurately ripped
 02     [4f522194|2463b737] (3+6/9) Accurately ripped
 03     [20805fef|7df94666] (3+6/9) Accurately ripped
 04     [0f60756c|c679ce87] (3+6/9) Accurately ripped
 05     [5e22c8a0|6bbc4053] (3+6/9) Accurately ripped
 06     [15f6b4df|180e8aca] (3+6/9) Accurately ripped
 07     [f18810a6|26cc8d8f] (3+6/9) Accurately ripped
 08     [4ab1b5fd|83b98478] (3+6/9) Accurately ripped
 09     [25d6a2c9|67f11625] (3+6/9) Accurately ripped
 10     [aedd17a7|6c0bde2d] (3+6/9) Accurately ripped
 11     [3263fb83|cefda28f] (3+6/9) Accurately ripped
 12     [b9b7435f|e14bab1c] (3+6/9) Accurately ripped
 13     [e353b675|b51dcd31] (3+6/9) Accurately ripped
 14     [ad1a8f15|933e9eb1] (3+6/9) Accurately ripped
 15     [593a0cd7|4347cbc6] (3+6/9) Accurately ripped
 16     [62d5d7fd|cfe46dfd] (3+6/9) Accurately ripped
 17     [cf6457db|94660d91] (2+6/8) Accurately ripped
 18     [8c9954e8|9d199b18] (2+6/8) Accurately ripped
 19     [47a38d95|7b51d609] (2+6/8) Accurately ripped
 20     [08dd9106|7532d218] (2+6/8) Accurately ripped
 21     [f702ce0e|bab845a7] (2+6/8) Accurately ripped

Track Peak [ CRC32  ] [W/O NULL]
 --  100,0 [423A398F] [78E02D8F]          
 01   92,4 [15B957FF] [E76763FA]          
 02   88,5 [BD20FA71] [0B921E98]          
 03   90,9 [4FF8398C] [198279DA]          
 04   92,1 [3842383C] [EC28D954]          
 05   88,0 [1C2C4BBE] [95429BCE]          
 06   95,7 [7892DBAA] [C375D5A6]          
 07  100,0 [AA0442BA] [0D065951]          
 08  100,0 [C436B046] [48DF2890]          
 09   95,4 [400AD341] [527031C0]          
 10   94,5 [DA475D91] [B985BA57]          
 11   94,5 [02AC0FC2] [52D962ED]          
 12   94,5 [59BC24E0] [E7D0AD46]          
 13   97,3 [A398E2DE] [ACCA1D14]          
 14  100,0 [C76C7B08] [76D6614C]          
 15  100,0 [B234EF5B] [DE82EEEB]          
 16  100,0 [711A97CC] [D3981F83]          
 17   90,8 [92B0A2B8] [3C120F9C]          
 18   91,3 [C9A4618B] [15BA57FF]          
 19   93,0 [02D495DA] [1EFF1E03]          
 20  100,0 [9A39FE2C] [19198BCA]          
 21   95,5 [A58362CA] [FE191D26]          

And this is the result for the FLAC tracks of the same disc:

Code: [Select]
[CUETools log; Date: 08/04/2021 21:01:37; Version: 2.1.6]
[CTDB TOCID: l_JAaG62bgOzhedBJFPv7GPn.Vs-] found.
Track | CTDB Status
  1   | (5/5) Accurately ripped
  2   | (5/5) Accurately ripped
  3   | (5/5) Accurately ripped
  4   | (5/5) Accurately ripped
  5   | (5/5) Accurately ripped
  6   | (5/5) Accurately ripped
  7   | (5/5) Accurately ripped
  8   | (5/5) Accurately ripped
  9   | (5/5) Accurately ripped
 10   | (5/5) Accurately ripped
 11   | (5/5) Accurately ripped
 12   | (5/5) Accurately ripped
 13   | (5/5) Accurately ripped
 14   | (5/5) Accurately ripped
 15   | (5/5) Accurately ripped
 16   | (5/5) Accurately ripped
 17   | (5/5) Accurately ripped
 18   | (5/5) Accurately ripped
 19   | (5/5) Accurately ripped
 20   | (5/5) Accurately ripped
 21   | (5/5) Accurately ripped
[AccurateRip ID: 002cd40b-02b7ac9a-200e9615] disk not present in database.

Track Peak [ CRC32  ] [W/O NULL]
 --  100,0 [55540BFF] [78E02D8F]          
 01   92,4 [15B957FF] [E76763FA]          
 02   88,5 [BD20FA71] [0B921E98]          
 03   90,9 [4FF8398C] [198279DA]          
 04   92,1 [3842383C] [EC28D954]          
 05   88,0 [1C2C4BBE] [95429BCE]          
 06   95,7 [7892DBAA] [C375D5A6]          
 07  100,0 [AA0442BA] [0D065951]          
 08  100,0 [C436B046] [48DF2890]          
 09   95,4 [400AD341] [527031C0]          
 10   94,5 [DA475D91] [B985BA57]          
 11   94,5 [02AC0FC2] [52D962ED]          
 12   94,5 [59BC24E0] [E7D0AD46]          
 13   97,3 [A398E2DE] [ACCA1D14]          
 14  100,0 [C76C7B08] [76D6614C]          
 15  100,0 [B234EF5B] [DE82EEEB]          
 16  100,0 [711A97CC] [D3981F83]          
 17   90,8 [92B0A2B8] [3C120F9C]          
 18   91,3 [C9A4618B] [15BA57FF]          
 19   93,0 [02D495DA] [1EFF1E03]          
 20  100,0 [9A39FE2C] [19198BCA]          
 21   95,5 [A58362CA] [FE191D26]          

The other two discs are basically like that, only the fourth disc seems to be correct. Is it possible that the FLAC tracks were badly ripped by the software I've used to rip them?

Thanks in advance.

Re: CUETools 2.1.6 - Different AccurateRip IDs for .cue file and FLAC tracks

Reply #1
Cue has pregap info, as you can see in log.
When verifying tracks without cue, you can manually enter pregap length.

Re: CUETools 2.1.6 - Different AccurateRip IDs for .cue file and FLAC tracks

Reply #2
Adding to the reply by Rollin
http://cue.tools/wiki/CUETools#Why_AccurateRip_database_lookups_sometimes_fail

The CTDB TOCID is the same and verifies accurate for all three discs.
http://cue.tools/wiki/CUETools_Database#What_are_the_advantages.3F
Quote
CUETools Database
[...]
What are the advantages?
[...]
CTDB doesn't require the length of the track#1 pregap (HTOA) or DATA track to verify your rip.
korth

 

Re: CUETools 2.1.6 - Different AccurateRip IDs for .cue file and FLAC tracks

Reply #3
Thank you guys, that solved it!

 
SimplePortal 1.0.0 RC1 © 2008-2021