Skip to main content

Notice

Please note that most of the software linked on this forum is likely to be safe to use. If you are unsure, feel free to ask in the relevant topics, or send a private message to an administrator or moderator. To help curb the problems of false positives, or in the event that you do find actual malware, you can contribute through the article linked here.
Topic: Does CueTools support index mark-based splitting? (Read 402 times) previous topic - next topic
0 Members and 1 Guest are viewing this topic.

Does CueTools support index mark-based splitting?

EAC can capture the index markers within individual tracks on a CD and can rip them according to that, but does CueTools have this ability?
If it does not, then would it be possible to include support for it?

Below is an example of a cuesheet with index-marked tracks. At the moment it doesn't seem like any other ripping (or splitting) software besides EAC can handle it. It would be nice if CueTools could do this as well.

Code: [Select]
REM GENRE "Soundtrack"
REM DATE 2019
REM DISCID 0C122013
REM COMMENT "ExactAudioCopy v1.6"
CATALOG 4549767060798
PERFORMER "高木洋"
TITLE "快盗戦隊ルパンレンジャーVS警察戦隊パトレンジャー VSサウンドコレクション2, 3, 4 ファイナルストライク"
REM COMPOSER "高木洋"
REM DISCNUMBER 1
REM TOTALDISCS 3
FILE "高木洋 - 快盗戦隊ルパンレンジャーVS警察戦隊パトレンジャー VSサウンドコレクション2, 3, 4 ファイナルストライク.wav" WAVE
  TRACK 01 AUDIO
    TITLE "ルパンレンジャー VS パトレンジャー (インストルメンタル TYPE-SG)"
    PERFORMER "高木洋"
    REM COMPOSER "高木洋"
    ISRC JPCO01900560
    INDEX 01 00:00:00
  TRACK 02 AUDIO
    TITLE "仮面舞踏会への招待状"
    PERFORMER "高木洋"
    REM COMPOSER "高木洋"
    ISRC JPCO01900570
    INDEX 00 03:42:19
    INDEX 01 03:43:13
    INDEX 02 03:59:10
    INDEX 03 05:08:14
    INDEX 04 06:27:23
    INDEX 05 07:43:43
  TRACK 03 AUDIO
    TITLE "Three Shadows"
    PERFORMER "高木洋"
    REM COMPOSER "高木洋"
    ISRC JPCO01900580
    INDEX 00 08:55:12
    INDEX 01 08:56:45
    INDEX 02 10:03:23
    INDEX 03 11:26:36
    INDEX 04 12:50:52
  TRACK 04 AUDIO
    TITLE "Lupintic Showtime!"
    PERFORMER "高木洋"
    REM COMPOSER "高木洋"
    ISRC JPCO01900590
    INDEX 00 14:03:17
    INDEX 01 14:04:66
    INDEX 02 14:25:51
    INDEX 03 15:37:59
    INDEX 04 16:43:23
    INDEX 05 17:52:47
  TRACK 05 AUDIO
    TITLE "ルパンレンジャー、ダイヤルを回せ (インストルメンタル1)"
    PERFORMER "高木洋"
    REM COMPOSER "高木洋"
    ISRC JPCO01801076
    INDEX 00 18:52:54
    INDEX 01 18:54:39
  TRACK 06 AUDIO
    TITLE "暗黒街の流儀"
    PERFORMER "高木洋"
    REM COMPOSER "高木洋"
    ISRC JPCO01900600
    INDEX 00 22:37:40
    INDEX 01 22:39:06
    INDEX 02 24:18:18
    INDEX 03 25:26:14
  TRACK 07 AUDIO
    TITLE "氷の嘲笑"
    PERFORMER "高木洋"
    REM COMPOSER "高木洋"
    ISRC JPCO01900610
    INDEX 00 26:42:20
    INDEX 01 26:44:30
    INDEX 02 28:05:28
  TRACK 08 AUDIO
    TITLE "X ~交差する閃光~"
    PERFORMER "高木洋"
    REM COMPOSER "高木洋"
    ISRC JPCO01900620
    INDEX 00 29:46:05
    INDEX 01 29:48:03
    INDEX 02 31:01:11
    INDEX 03 32:37:05
  TRACK 09 AUDIO
    TITLE "M・A・X POWER (インストルメンタル)"
    PERFORMER "高木洋"
    REM COMPOSER "高木洋"
    ISRC JPCO01820244
    INDEX 00 34:18:62
    INDEX 01 34:20:70
  TRACK 10 AUDIO
    TITLE "Mission Failed"
    PERFORMER "高木洋"
    REM COMPOSER "高木洋"
    ISRC JPCO01900630
    INDEX 00 38:22:04
    INDEX 01 38:23:73
    INDEX 02 39:57:23
    INDEX 03 40:58:45
    INDEX 04 42:07:02
  TRACK 11 AUDIO
    TITLE "ビストロ 開店休業"
    PERFORMER "高木洋"
    REM COMPOSER "高木洋"
    ISRC JPCO01900640
    INDEX 00 43:18:24
    INDEX 01 43:20:13
    INDEX 02 44:28:33
    INDEX 03 45:41:25
    INDEX 04 46:53:57
  TRACK 12 AUDIO
    TITLE "VS Other Tracks"
    PERFORMER "高木洋"
    REM COMPOSER "高木洋"
    ISRC JPCO01900650
    INDEX 00 47:57:40
    INDEX 01 47:59:45
    INDEX 02 49:29:64
  TRACK 13 AUDIO
    TITLE "守りたい時間"
    PERFORMER "高木洋"
    REM COMPOSER "高木洋"
    ISRC JPCO01900660
    INDEX 00 50:29:65
    INDEX 01 50:31:55
    INDEX 02 51:38:41
    INDEX 03 52:52:37
  TRACK 14 AUDIO
    TITLE "悲しみのPromise"
    PERFORMER "高木洋"
    REM COMPOSER "高木洋"
    ISRC JPCO01900670
    INDEX 00 54:43:33
    INDEX 01 54:45:47
    INDEX 02 55:57:09
    INDEX 03 57:38:43
  TRACK 15 AUDIO
    TITLE "背負った使命"
    PERFORMER "高木洋"
    REM COMPOSER "高木洋"
    ISRC JPCO01900680
    INDEX 00 58:55:10
    INDEX 01 58:57:16
    INDEX 02 60:07:10
    INDEX 03 61:52:03
  TRACK 16 AUDIO
    TITLE "正義の名の下"
    PERFORMER "高木洋"
    REM COMPOSER "高木洋"
    ISRC JPCO01900690
    INDEX 00 63:22:67
    INDEX 01 63:24:71
    INDEX 02 64:24:23
  TRACK 17 AUDIO
    TITLE "戦力部隊24時"
    PERFORMER "高木洋"
    REM COMPOSER "高木洋"
    ISRC JPCO01900700
    INDEX 00 65:35:34
    INDEX 01 65:37:51
    INDEX 02 65:51:59
    INDEX 03 67:11:33
    INDEX 04 68:21:35
    INDEX 05 69:44:02
  TRACK 18 AUDIO
    TITLE "攻防戦勃発!"
    PERFORMER "高木洋"
    REM COMPOSER "高木洋"
    ISRC JPCO01900710
    INDEX 00 70:52:06
    INDEX 01 70:53:71
    INDEX 02 71:14:65
    INDEX 03 72:49:61
  TRACK 19 AUDIO
    TITLE "響け! 正義のサイレン"
    PERFORMER "高木洋"
    REM COMPOSER "高木洋"
    ISRC JPCO01900720
    INDEX 00 74:26:30
    INDEX 01 74:28:33
    INDEX 02 75:39:45


MOD Edit: added text from CUE to code box

Re: Does CueTools support index mark-based splitting?

Reply #1
It does indeed detect the index markers.  This is a cue sheet it made using CueTools 2.1.7:
Code: [Select]
REM DISCID 160C9202
PERFORMER "Constance Demby"
TITLE "Novus Magnificat: Through the Stargate"
CATALOG 0025041100328
REM DATE 1986
REM DISCNUMBER 1
REM TOTALDISCS 1
REM GENRE "Space"
REM COMMENT "CUERipper v2.1.7 Copyright (C) 2008-13 Grigory Chudov"
FILE "Constance Demby - Novus Magnificat_ Through the Stargate.flac" WAVE
  TRACK 01 AUDIO
    PERFORMER "Constance Demby"
    TITLE "Part 1"
    INDEX 00 00:00:00
    INDEX 01 00:00:32
    INDEX 02 11:01:25
    INDEX 03 11:46:40
    INDEX 04 12:34:57
    INDEX 05 16:18:60
    INDEX 06 22:12:12
  TRACK 02 AUDIO
    PERFORMER "Constance Demby"
    TITLE "Part 2"
    INDEX 00 26:14:55
    INDEX 01 26:24:37
    INDEX 02 32:02:67
    INDEX 03 37:16:57
    INDEX 04 40:28:57
    INDEX 05 44:17:60
    INDEX 06 46:44:32
    INDEX 07 48:58:50
    INDEX 08 51:58:25

I'm not entirely sure I understand your question, though.  Are you looking to split the individual indexes into tracks?


MOD Edit: CUE text to code box

Re: Does CueTools support index mark-based splitting?

Reply #2
The think the OP is referring to this tool in EAC

CUETools can do the first three options but not the last.
korth

Re: Does CueTools support index mark-based splitting?

Reply #3
Are you looking to split the individual indexes into tracks?
Yes, this is exactly what I want to do, rather than having to rip them with EAC if I want to do so.

Re: Does CueTools support index mark-based splitting?

Reply #4
The think the OP is referring to this tool in EAC
[attach width=600]19634[/attach]
CUETools can do the first three options but not the last.

Thanks for reminding me about that, I still have a chance.
Though I still wish CueTools could do that because EAC doesn't support unicode & I have to change every cue sheet I have to ANSI as well as make the WAV file name normal English characters which then wipes out any metadata names I have :/

 
SimplePortal 1.0.0 RC1 © 2008-2021