Skip to main content

Notice

Please note that most of the software linked on this forum is likely to be safe to use. If you are unsure, feel free to ask in the relevant topics, or send a private message to an administrator or moderator. To help curb the problems of false positives, or in the event that you do find actual malware, you can contribute through the article linked here.
Topic: CueTools repaired track CTDB Accurately ripped but AR No match? (Read 342 times) previous topic - next topic
0 Members and 1 Guest are viewing this topic.

CueTools repaired track CTDB Accurately ripped but AR No match?

I have a few ripped CDs with errors, and CueTools successfully repaired them. However, after repair the files can only be matched in CTDB but no match in AR, is this expected?  :o

Here are the verification logs:
Code: [Select]
[CUETools log; Date: 2021/10/4 13:46:08; Version: 2.1.9]
[CTDB TOCID: 0_a2zaS9LfGAnBTYbdTsJk8FGeQ-] found.
Track | CTDB Status
  1   | (108/108) Accurately ripped
  2   | (107/108) Accurately ripped
  3   | (107/108) Accurately ripped
[AccurateRip ID: 00018e70-00056c62-1802da03] found.
Track   [  CRC   |   V2   ] Status
 01     [ca6ebb9a|a81cd8bd] (000+010/103) Accurately ripped
 02     [a5011f84|8f88b70c] (000+010/102) Accurately ripped
 03     [972ee731|a76763a3] (000+000/103) No match
Offsetted by -90:
 01     [9fd0f8a4] (000/103) No match (V2 was not tested)
 02     [903ef0dc] (000/102) No match (V2 was not tested)
 03     [578d9843] (000/103) No match (V2 was not tested)
Offsetted by -18:
 01     [1d3c9cff] (006/103) Accurately ripped
 02     [720bbab9] (006/102) Accurately ripped
 03     [04ff51c7] (000/103) No match (V2 was not tested)

Track Peak [ CRC32  ] [W/O NULL] [  LOG   ]
 --   58.2 [D9D1785A] [8ACA3499] [B247760C]
 01   32.9 [896E0200] [4A4EA1E2]          
 02   58.2 [489410AA] [C3407F5D]          
 03   35.1 [DACABEAC] [38443A29]          


Re: CueTools repaired track CTDB Accurately ripped but AR No match?

Reply #2
Also, you can test with offset -90 and maybe get ARv2 hits. Maybe also with -18.
High Voltage socket-nose-avatar