Skip to main content

Notice

Please note that most of the software linked on this forum is likely to be safe to use. If you are unsure, feel free to ask in the relevant topics, or send a private message to an administrator or moderator. To help curb the problems of false positives, or in the event that you do find actual malware, you can contribute through the article linked here.
Topic: EAC not converting last CD track to FLAC (Read 193 times) previous topic - next topic
0 Members and 1 Guest are viewing this topic.

EAC not converting last CD track to FLAC

Good morning (well it is here  ;D ).
I'm a new member although I have, for some time, been reading posts on this site and have found them very informative.

I've recently experienced a bit of an issue with EAC while ripping CDs and converting them to FLAC.
Until now everything has been going fine, barring the odd CD that gap detection won't complete on regardless of the settings I've tried, but they aren't the reason for my post and request for help.

While all the tracks have been successfully ripped and compressed from CDs (where I want them and with the filenames as expected), for some reason the last track on a couple of CDs have not converted to FLAC from WAV.
I've checked the CDs in question thinking it might be something to do with file size, track length or number of tracks but there are no common factors, other than being the last tracks on the CDs.
As I said earlier, this is only a recent problem and until a couple of days ago EAC was ripping and compressing to FLAC as expected.
I have used EAC to simply compress those WAV files to FLAC but something suddenly isn't right with the ripping process.

Although the log suggests that the last tracks weren't completed the WAV files are present.

I would be grateful for any suggestions as to how to fix this.
I've copied one of the logs for information.

Thanks in anticipation,
Bob

Code: [Select]
Exact Audio Copy V1.6 from 23. October 2020

EAC extraction logfile from 13. January 2022, 21:13

Average White Band / The Best Of The Average White Band - Let's Go Round Again

Used drive  : Dell    DVD+/-RW DW316   Adapter: 1  ID: 0

Read mode               : Secure
Utilize accurate stream : Yes
Defeat audio cache      : Yes
Make use of C2 pointers : No

Read offset correction                      : 6
Overread into Lead-In and Lead-Out          : Yes
Fill up missing offset samples with silence : Yes
Delete leading and trailing silent blocks   : No
Null samples used in CRC calculations       : Yes
Used interface                              : Native Win32 interface for Win NT & 2000
Gap handling                                : Appended to previous track

Used output format              : User Defined Encoder
Selected bitrate                : 1024 kBit/s
Quality                         : High
Add ID3 tag                     : No
Command line compressor         : C:\Program Files (x86)\Exact Audio Copy\Flac\flac.exe
Additional command line options : -8 -V -T "ARTIST=%artist%" -T "TITLE=%title%" -T "ALBUM=%albumtitle%" -T "DATE=%year%" -T "TRACKNUMBER=%tracknr%" -T "GENRE=%genre%" -T "PERFORMER=%albuminterpret%" -T "COMPOSER=%composer%" %haslyrics%--tag-from-file=LYRICS="%lyricsfile%"%haslyrics% -T "ALBUMARTIST=%albumartist%" -T "DISCNUMBER=%cdnumber%" -T "TOTALDISCS=%totalcds%" -T "TOTALTRACKS=%numtracks%" -T "COMMENT=%comment%" %source% -o %dest%


TOC of the extracted CD

     Track |   Start  |  Length  | Start sector | End sector
    ---------------------------------------------------------
        1  |  0:00.00 |  4:00.15 |         0    |    18014  
        2  |  4:00.15 |  5:27.65 |     18015    |    42604  
        3  |  9:28.05 |  4:04.10 |     42605    |    60914  
        4  | 13:32.15 |  4:04.30 |     60915    |    79244  
        5  | 17:36.45 |  4:26.12 |     79245    |    99206  
        6  | 22:02.57 |  5:16.53 |     99207    |   122959  
        7  | 27:19.35 |  3:13.47 |    122960    |   137481  
        8  | 30:33.07 |  3:39.70 |    137482    |   153976  
        9  | 34:13.02 |  4:21.45 |    153977    |   173596  
       10  | 38:34.47 |  4:59.00 |    173597    |   196021  
       11  | 43:33.47 |  4:53.40 |    196022    |   218036  
       12  | 48:27.12 |  3:53.55 |    218037    |   235566  
       13  | 52:20.67 |  3:51.13 |    235567    |   252904  
       14  | 56:12.05 |  4:19.45 |    252905    |   272374  
       15  | 60:31.50 |  5:12.42 |    272375    |   295816  
       16  | 65:44.17 |  5:32.30 |    295817    |   320746  


Track  1

     Filename 01 Pick Up The Pieces.wav

     Pre-gap length  0:00:02.00

     Peak level 79.9 %
     Extraction speed 1.2 X
     Track quality 100.0 %
     Test CRC FD913130
     Copy CRC FD913130
     Accurately ripped (confidence 21)  [A2DE8D80]  (AR v2)
     Copy OK

Track  2

     Filename 02 Let's Go Round Again.wav

     Pre-gap length  0:00:01.64

     Peak level 99.8 %
     Extraction speed 1.4 X
     Track quality 100.0 %
     Test CRC ACBAD945
     Copy CRC ACBAD945
     Accurately ripped (confidence 23)  [AB2E0754]  (AR v2)
     Copy OK

Track  3

     Filename 03 Queen Of My Soul.wav

     Pre-gap length  0:00:01.66

     Peak level 88.7 %
     Extraction speed 1.5 X
     Track quality 100.0 %
     Test CRC D60C4756
     Copy CRC D60C4756
     Accurately ripped (confidence 22)  [784AF4A1]  (AR v2)
     Copy OK

Track  4

     Filename 04 Cut The Cake.wav

     Pre-gap length  0:00:01.66

     Peak level 88.3 %
     Extraction speed 1.6 X
     Track quality 100.0 %
     Test CRC DA0AD9A3
     Copy CRC DA0AD9A3
     Accurately ripped (confidence 22)  [BC786069]  (AR v2)
     Copy OK

Track  5

     Filename 05 Work To Do.wav

     Pre-gap length  0:00:00.06

     Peak level 80.1 %
     Extraction speed 1.7 X
     Track quality 100.0 %
     Test CRC 66009C9B
     Copy CRC 66009C9B
     Accurately ripped (confidence 21)  [2BBE9EBB]  (AR v2)
     Copy OK

Track  6

     Filename 06 Put It Where You Want It.wav

     Pre-gap length  0:00:01.82

     Peak level 53.0 %
     Extraction speed 1.7 X
     Track quality 99.9 %
     Test CRC CDD7AA0D
     Copy CRC CDD7AA0D
     Accurately ripped (confidence 23)  [A0F5EE92]  (AR v2)
     Copy OK

Track  7

     Filename 07 Atlantic Avenue.wav

     Pre-gap length  0:00:00.26

     Peak level 93.0 %
     Extraction speed 1.8 X
     Track quality 100.0 %
     Test CRC 0FA5461D
     Copy CRC 0FA5461D
     Accurately ripped (confidence 23)  [321DE3E3]  (AR v2)
     Copy OK

Track  8

     Filename 08 Person To Person.wav

     Pre-gap length  0:00:01.82

     Peak level 78.0 %
     Extraction speed 1.9 X
     Track quality 100.0 %
     Test CRC 1CE39FE2
     Copy CRC 1CE39FE2
     Accurately ripped (confidence 21)  [75D40E9E]  (AR v2)
     Copy OK

Track  9

     Filename 09 When Will You Be Mine.wav

     Pre-gap length  0:00:01.46

     Peak level 85.5 %
     Extraction speed 1.8 X
     Track quality 99.9 %
     Test CRC AB36BE08
     Copy CRC AB36BE08
     Accurately ripped (confidence 22)  [D9560FF6]  (AR v2)
     Copy OK

Track 10

     Filename 10 School Boy Crush.wav

     Pre-gap length  0:00:02.06

     Peak level 88.2 %
     Extraction speed 2.1 X
     Track quality 100.0 %
     Test CRC 5E9D502E
     Copy CRC 5E9D502E
     Accurately ripped (confidence 22)  [326156D2]  (AR v2)
     Copy OK

Track 11

     Filename 11 The Jugglers.wav

     Pre-gap length  0:00:01.73

     Peak level 66.5 %
     Extraction speed 2.2 X
     Track quality 100.0 %
     Test CRC 32C9A094
     Copy CRC 32C9A094
     Accurately ripped (confidence 23)  [38414DDE]  (AR v2)
     Copy OK

Track 12

     Filename 12 For You, For Love.wav

     Pre-gap length  0:00:03.38

     Peak level 86.3 %
     Extraction speed 1.9 X
     Track quality 99.9 %
     Test CRC 7F5D19EA
     Copy CRC 7F5D19EA
     Accurately ripped (confidence 22)  [6173FFAA]  (AR v2)
     Copy OK

Track 13

     Filename 13 Got The Love.wav

     Pre-gap length  0:00:01.76

     Peak level 78.0 %
     Extraction speed 2.3 X
     Track quality 100.0 %
     Test CRC 5088BF84
     Copy CRC 5088BF84
     Accurately ripped (confidence 21)  [768AB747]  (AR v2)
     Copy OK

Track 14

     Filename 14 Cloudy.wav

     Pre-gap length  0:00:01.90

     Peak level 77.3 %
     Extraction speed 2.1 X
     Track quality 99.9 %
     Test CRC 0EE88252
     Copy CRC 0EE88252
     Accurately ripped (confidence 23)  [662144CF]  (AR v2)
     Copy OK

Track 15

     Filename 15 A Love Of Your Own.wav

     Pre-gap length  0:00:01.10

     Peak level 75.3 %
     Extraction speed 2.5 X
     Track quality 100.0 %
     Test CRC 02DE1488
     Copy CRC 02DE1488
     Accurately ripped (confidence 21)  [B117E7A4]  (AR v2)
     Copy OK

Track 16

     Filename 16 I Heard It Through The Grapevine.wav

     Copy aborted


15 track(s) accurately ripped
 1 track(s) canceled

Some tracks could not be verified as accurate

There were errors

End of status report

==== Log checksum 71C65AEC41F8F231182FC0148AAC0509D4BD54B0B5BBE8442F5363B63ADA9F2E ====

------------------------------------------------------------

Exact Audio Copy V1.6 from 23. October 2020

EAC extraction logfile from 13. January 2022, 21:24

Average White Band / The Best Of The Average White Band - Let's Go Round Again

Used drive  : Dell    DVD+/-RW DW316   Adapter: 1  ID: 0

Read mode               : Secure
Utilize accurate stream : Yes
Defeat audio cache      : Yes
Make use of C2 pointers : No

Read offset correction                      : 6
Overread into Lead-In and Lead-Out          : Yes
Fill up missing offset samples with silence : Yes
Delete leading and trailing silent blocks   : No
Null samples used in CRC calculations       : Yes
Used interface                              : Native Win32 interface for Win NT & 2000
Gap handling                                : Appended to previous track

Used output format              : User Defined Encoder
Selected bitrate                : 1024 kBit/s
Quality                         : High
Add ID3 tag                     : No
Command line compressor         : C:\Program Files (x86)\Exact Audio Copy\Flac\flac.exe
Additional command line options : -8 -V -T "ARTIST=%artist%" -T "TITLE=%title%" -T "ALBUM=%albumtitle%" -T "DATE=%year%" -T "TRACKNUMBER=%tracknr%" -T "GENRE=%genre%" -T "PERFORMER=%albuminterpret%" -T "COMPOSER=%composer%" %haslyrics%--tag-from-file=LYRICS="%lyricsfile%"%haslyrics% -T "ALBUMARTIST=%albumartist%" -T "DISCNUMBER=%cdnumber%" -T "TOTALDISCS=%totalcds%" -T "TOTALTRACKS=%numtracks%" -T "COMMENT=%comment%" %source% -o %dest%


TOC of the extracted CD

     Track |   Start  |  Length  | Start sector | End sector
    ---------------------------------------------------------
        1  |  0:00.00 |  4:00.15 |         0    |    18014  
        2  |  4:00.15 |  5:27.65 |     18015    |    42604  
        3  |  9:28.05 |  4:04.10 |     42605    |    60914  
        4  | 13:32.15 |  4:04.30 |     60915    |    79244  
        5  | 17:36.45 |  4:26.12 |     79245    |    99206  
        6  | 22:02.57 |  5:16.53 |     99207    |   122959  
        7  | 27:19.35 |  3:13.47 |    122960    |   137481  
        8  | 30:33.07 |  3:39.70 |    137482    |   153976  
        9  | 34:13.02 |  4:21.45 |    153977    |   173596  
       10  | 38:34.47 |  4:59.00 |    173597    |   196021  
       11  | 43:33.47 |  4:53.40 |    196022    |   218036  
       12  | 48:27.12 |  3:53.55 |    218037    |   235566  
       13  | 52:20.67 |  3:51.13 |    235567    |   252904  
       14  | 56:12.05 |  4:19.45 |    252905    |   272374  
       15  | 60:31.50 |  5:12.42 |    272375    |   295816  
       16  | 65:44.17 |  5:32.30 |    295817    |   320746  


Track 16

     Filename 16 I Heard It Through The Grapevine.wav

     Copy aborted


No tracks could be verified as accurate

There were errors

End of status report

==== Log checksum 865A719615C9272F58AAC698217971114FD07C5D0BA04CC439E41542427D2386 ====


MOD edit: move log to CODE box
 


 

Re: EAC not converting last CD track to FLAC

Reply #1
Try disabling "Overread into Lead-In and Lead-Out".
EAC > Drive Options > Offset / Speed tab

Few drives support this feature. When unsupported the drive reads as far as it can but the software is telling it to Overread beyond that point. This can result in some form of error.
korth

Re: EAC not converting last CD track to FLAC

Reply #2
Try disabling "Overread into Lead-In and Lead-Out".
EAC > Drive Options > Offset / Speed tab

Few drives support this feature. When unsupported the drive reads as far as it can but the software is telling it to Overread beyond that point. This can result in some form of error.

Thanks - I'll give that a go.