Skip to main content

Notice

Please note that most of the software linked on this forum is likely to be safe to use. If you are unsure, feel free to ask in the relevant topics, or send a private message to an administrator or moderator. To help curb the problems of false positives, or in the event that you do find actual malware, you can contribute through the article linked here.
Topic: Manual CTDB Lookup (Read 282 times) previous topic - next topic
0 Members and 1 Guest are viewing this topic.

Manual CTDB Lookup

I have a CD that I thankfully ripped to FLAC+CUE some years before it got lost in a move. Many years pass and now I am "cleaning up" my collection by labeling them with more details. Back then I didn't tag my stuff more than just to label the album and tracks. This album, "Pink Floyd - The Wall" comes in hundreds of different pressings and I'm trying to figure out which one is my rip. I have the CTDB TOCID and look that up in CTDB, but that only gives the 10 most recent CTDBID. Is there a way to see all the CTDBIDs to help with my research into the pressing?

I think I have a relatively uncommon pressing since CUETools says it's accurately ripped, but only reports 857 records for this particular version. I think this album probably has more records than 800 because other popular titles have thousands.

Re: Manual CTDB Lookup

Reply #1
Please provide the CTDB TOCID. (I'd rather see the full CUETools log)

Quote
I have the CTDB TOCID and look that up in CTDB, but that only gives the 10 most recent CTDBID
This is a known issue
https://github.com/gchudov/db.cue.tools/issues/16
korth

Re: Manual CTDB Lookup

Reply #2
Quote
This album, "Pink Floyd - The Wall" comes in hundreds of different pressings and I'm trying to figure out which one is my rip.
All confirmed rips for all matching pressings within range fall under the same CTDBID. There are separate CTDBIDs for identical audio data (except for 10×588 offset samples in the first and last seconds of the disc) when
  • there is a data track
  • there is a track 1 pregap
  • the pressing is out of range (too many samples apart)
Any other CTDBID is likely not to contain identical data. 

The "Detailed log" setting will help identify your CTDBID
 http://cue.tools/wiki/CUETools_Advanced_Settings:_Advanced#CTDB

Code: [Select]
http://db.cuetools.net/top.php?tocid= {add TOC ID after = with no spaces}
will show the top 10 results instead of the 10 most recent.
korth

Re: Manual CTDB Lookup

Reply #3
Please provide the CTDB TOCID. (I'd rather see the full CUETools log)
Code: [Select]
[CUETools log; Date: 1/14/2022 06:38:13 AM; Version: 2.2.0]
[CTDB TOCID: 6mUC3BJW4Q1k17iuOSCixwKvykI-] found.
        [ CTDBID ] Status
        [2630dc49] (809/857) Accurately ripped
        [73c0a09c] (001/857) No match
        [505ea207] (001/857) No match
        [7f45c9c6] (001/857) No match
        [02a12fbc] (001/857) No match
        [d882f3fe] (001/857) No match
        [68464e4e] (001/857) No match
        [6e80a1dd] (001/857) No match
        [e3a62a84] (001/857) No match
        [66daf66e] (001/857) No match
        [d6928a38] (001/857) No match
        [430d2066] (001/857) No match
        [39dd41e1] (001/857) No match
        [9192d296] (001/857) No match
        [f8a914ff] (001/857) No match
        [6e9fafc5] (001/857) No match
        [03d2ecc3] (001/857) No match
        [ed9b1472] (001/857) No match
        [e2ab0f4d] (001/857) No match
        [8dfec0f7] (001/857) No match
        [97aa1aa2] (001/857) No match
        [1c961fa4] (001/857) No match
        [fa21c6ca] (001/857) No match
        [01b630ad] (001/857) No match
        [e60d6776] (001/857) No match
        [7e9a4503] (001/857) No match
        [770d5b97] (003/857) No match
        [4dc8da47] (001/857) No match
        [b9862153] (001/857) No match
        [5701e37f] (001/857) No match
        [12ce9c57] (001/857) No match
        [a0a6e91e] (001/857) No match
        [5d90a248] (001/857) No match
        [413304d9] (001/857) No match
        [8e1a166f] (001/857) No match
        [e914392e] (001/857) No match
        [5c592903] (001/857) No match
        [13083ad9] (001/857) No match
        [504f8b54] (001/857) No match
        [bf2b0293] (001/857) No match
        [0662c080] (001/857) No match
        [b189994e] (001/857) No match
        [2dce9e59] (001/857) No match
        [d26e236e] (001/857) No match
        [a1cae7a7] (001/857) No match
        [ad0e18e6] (001/857) No match
        [e03aba35] (001/857) No match
Track | CTDB Status
  1   | (838/857) Accurately ripped
  2   | (840/857) Accurately ripped
  3   | (847/857) Accurately ripped
  4   | (849/857) Accurately ripped
  5   | (848/857) Accurately ripped
  6   | (843/857) Accurately ripped
  7   | (852/857) Accurately ripped
  8   | (845/857) Accurately ripped
  9   | (843/857) Accurately ripped
 10   | (845/857) Accurately ripped
 11   | (848/857) Accurately ripped
 12   | (839/857) Accurately ripped
 13   | (848/857) Accurately ripped
[AccurateRip ID: 00148ec2-00cce40b-ab09d80d] found.
Track   [  CRC   |   V2   ] Status
 01     [193a5e0a|6f6bebfe] (033+045/521) Accurately ripped
 02     [7058bee8|68ae3759] (033+044/528) Accurately ripped
 03     [c7b641d1|32ec8204] (032+045/524) Accurately ripped
 04     [f20776ba|148f235b] (032+045/526) Accurately ripped
 05     [10605d1d|65b7ce93] (033+046/528) Accurately ripped
 06     [f234f7de|cac8efc7] (033+044/524) Accurately ripped
 07     [a12475b5|0c97f8e6] (034+045/533) Accurately ripped
 08     [625c8d14|fccd5593] (033+044/525) Accurately ripped
 09     [beeb2966|9d8be48c] (032+043/521) Accurately ripped
 10     [6a2b1122|9b23c587] (033+044/523) Accurately ripped
 11     [ac1a4ed8|16dca55c] (034+045/526) Accurately ripped
 12     [ad8198c3|c853dc5a] (030+042/517) Accurately ripped
 13     [815bdc22|67032bfa] (034+045/525) Accurately ripped
Offsetted by -439:
 01     [d176148c] (013/521) Accurately ripped
 02     [62930555] (013/528) Accurately ripped
 03     [29bc5765] (013/524) Accurately ripped
 04     [722e93a7] (013/526) Accurately ripped
 05     [ba40e31a] (013/528) Accurately ripped
 06     [efb7a12c] (014/524) Accurately ripped
 07     [5c3492da] (013/533) Accurately ripped
 08     [54e87dc7] (012/525) Accurately ripped
 09     [ad2e9b82] (011/521) Accurately ripped
 10     [93fb059c] (013/523) Accurately ripped
 11     [9dae0035] (013/526) Accurately ripped
 12     [b78d95b0] (012/517) Accurately ripped
 13     [2471321c] (013/525) Accurately ripped
Offsetted by -342:
 01     [36278ebd] (054/521) Accurately ripped
 02     [fd472710] (055/528) Accurately ripped
 03     [8bdadaa1] (055/524) Accurately ripped
 04     [ea209d7b] (055/526) Accurately ripped
 05     [ab736fda] (055/528) Accurately ripped
 06     [ca33c14f] (054/524) Accurately ripped
 07     [1063c59a] (055/533) Accurately ripped
 08     [4ec445c9] (054/525) Accurately ripped
 09     [07fc19dd] (054/521) Accurately ripped
 10     [9acc2a94] (055/523) Accurately ripped
 11     [37b85e26] (055/526) Accurately ripped
 12     [e88d8fbf] (055/517) Accurately ripped
 13     [835802dd] (054/525) Accurately ripped
Offsetted by -256:
 01     [26beaef5] (018/521) Accurately ripped
 02     [480acda1] (017/528) Accurately ripped
 03     [71210edf] (017/524) Accurately ripped
 04     [70cc03c9] (017/526) Accurately ripped
 05     [682849cf] (017/528) Accurately ripped
 06     [81d3b70f] (018/524) Accurately ripped
 07     [8d96e57e] (018/533) Accurately ripped
 08     [8dd0c9be] (018/525) Accurately ripped
 09     [1790d782] (017/521) Accurately ripped
 10     [51e92085] (017/523) Accurately ripped
 11     [c85e0313] (017/526) Accurately ripped
 12     [b14cf804] (017/517) Accurately ripped
 13     [54d63739] (017/525) Accurately ripped
Offsetted by -251:
 01     [fe780a10] (008/521) Accurately ripped
 02     [1c1aa9f1] (008/528) Accurately ripped
 03     [55bd9785] (008/524) Accurately ripped
 04     [bb495bf5] (008/526) Accurately ripped
 05     [42074282] (008/528) Accurately ripped
 06     [70643d02] (008/524) Accurately ripped
 07     [2e6d99ec] (008/533) Accurately ripped
 08     [793feb30] (008/525) Accurately ripped
 09     [a4d710c4] (009/521) Accurately ripped
 10     [55fd3bbb] (008/523) Accurately ripped
 11     [3e7a7ae4] (008/526) Accurately ripped
 12     [0add7b5e] (008/517) Accurately ripped
 13     [5983fac2] (008/525) Accurately ripped
Offsetted by 26:
 01     [96f661f7] (037/521) Accurately ripped
 02     [98832b38] (038/528) Accurately ripped
 03     [79439ee6] (037/524) Accurately ripped
 04     [64d6348d] (037/526) Accurately ripped
 05     [818f6c09] (037/528) Accurately ripped
 06     [3f0f5503] (035/524) Accurately ripped
 07     [9f561868] (037/533) Accurately ripped
 08     [fef2ff90] (037/525) Accurately ripped
 09     [5a0891df] (036/521) Accurately ripped
 10     [84c62c96] (036/523) Accurately ripped
 11     [20f20f0b] (036/526) Accurately ripped
 12     [093c3798] (036/517) Accurately ripped
 13     [0f2d8a58] (036/525) Accurately ripped
Offsetted by 160:
 01     [ce6b60d3] (008/521) Accurately ripped
 02     [1b95a54e] (008/528) Accurately ripped
 03     [07d5d040] (008/524) Accurately ripped
 04     [8d2babc4] (008/526) Accurately ripped
 05     [a957b935] (008/528) Accurately ripped
 06     [b54243ee] (008/524) Accurately ripped
 07     [ad34d5e9] (008/533) Accurately ripped
 08     [ce27fa4d] (008/525) Accurately ripped
 09     [bf4ed03d] (008/521) Accurately ripped
 10     [0ba6d4d6] (008/523) Accurately ripped
 11     [11cc768e] (008/526) Accurately ripped
 12     [985aafcb] (008/517) Accurately ripped
 13     [ccc637e2] (008/525) Accurately ripped
Offsetted by 403:
 01     [e8f67719] (050/521) Accurately ripped
 02     [6a45b45d] (051/528) Accurately ripped
 03     [0cdfc585] (051/524) Accurately ripped
 04     [32703c69] (051/526) Accurately ripped
 05     [77991c8f] (051/528) Accurately ripped
 06     [1b10cd46] (050/524) Accurately ripped
 07     [6f13c0e2] (052/533) Accurately ripped
 08     [4c982860] (050/525) Accurately ripped
 09     [4b0b27ee] (052/521) Accurately ripped
 10     [34acbd11] (051/523) Accurately ripped
 11     [e00e71b6] (051/526) Accurately ripped
 12     [d5303038] (050/517) Accurately ripped
 13     [3cbcf7e3] (049/525) Accurately ripped
Offsetted by -2692:
 01     [1433db15] (000/521) No match (V2 was not tested)
 02     [5cdccb90] (002/528) Accurately ripped
 03     [ee5e198c] (002/524) Accurately ripped
 04     [4799de9c] (002/526) Accurately ripped
 05     [189bfc08] (000/528) No match (V2 was not tested)
 06     [cee63edf] (000/524) No match (V2 was not tested)
 07     [d7c8aa1f] (002/533) Accurately ripped
 08     [4156a966] (002/525) Accurately ripped
 09     [c3da23e9] (000/521) No match (V2 was not tested)
 10     [0493b41d] (002/523) Accurately ripped
 11     [5c405a42] (002/526) Accurately ripped
 12     [48b59559] (000/517) No match (V2 was not tested)
 13     [b38adc01] (002/525) Accurately ripped
Offsetted by 385:
 01     [c345739e] (000/521) No match (V2 was not tested)
 02     [f10be004] (000/528) No match (V2 was not tested)
 03     [c6e3d7e1] (000/524) No match (V2 was not tested)
 04     [21c7556e] (000/526) No match (V2 was not tested)
 05     [f5c80476] (000/528) No match (V2 was not tested)
 06     [2c346e1c] (000/524) No match (V2 was not tested)
 07     [dac6039f] (000/533) No match (V2 was not tested)
 08     [6335a166] (000/525) No match (V2 was not tested)
 09     [a673b87d] (000/521) No match (V2 was not tested)
 10     [98b70c9a] (000/523) No match (V2 was not tested)
 11     [6f01796d] (000/526) No match (V2 was not tested)
 12     [cd639fb5] (000/517) No match (V2 was not tested)
 13     [080d4373] (000/525) No match (V2 was not tested)

Track Peak [ CRC32  ] [W/O NULL] [  LOG   ]
 --  100.0 [EA3AE720] [62496B2E]   CRC32  
 01   85.4 [4F536AD6] [8F4E5B89]          
 02   63.3 [1FBFC97B] [65A55C62]          
 03   72.8 [88AE867C] [E3CA5750]          
 04   44.7 [CD417FBD] [F0202A1A]          
 05  100.0 [1A9E4BB9] [C3E1118E]          
 06   94.9 [E8484228] [D62D75AD]          
 07   72.6 [2482DF7F] [BE87CE0E]          
 08  100.0 [E632B38D] [852600E2]          
 09  100.0 [4CA9D06E] [A658BA9E]          
 10   94.9 [FCDF6D86] [EE2CD828]          
 11  100.0 [9FE7636F] [E556A60D]          
 12   79.2 [C98715AE] [C2CC38EB]          
 13   15.7 [EB0A8925] [CEE560C0]          

Re: Manual CTDB Lookup

Reply #4
Code: [Select]
http://db.cuetools.net/top.php?tocid= {add TOC ID after = with no spaces}
will show the top 10 results instead of the 10 most recent.

Perhaps I just misinterpret the results from CTDB. When I access http://db.cuetools.net/?tocid=6mUC3BJW4Q1k17iuOSCixwKvykI- it says "Recent Additions" at the top and shows 10 CTDBID. My CTDBID isn't there. Next button doesn't work.


Re: Manual CTDB Lookup

Reply #6
I didn't notice that modification. Thank you.

That has my CTDID at the top. I click on it and see the various matching releases at the bottom. I presume they are listed in order of frequency (meaning the top listing "Columbia C2K 36183" is the most likely match)? It makes sense because the artwork and disc scans are as I remember them.

I'm glad my disk CTDBID was at the top 10, otherwise it's impossible to find.

Re: Manual CTDB Lookup

Reply #7
I think I answer my own question and top pressing is not the most common for a specific CTDBID. I try another pressing of the same album I still have CD for and the first result show the same "Columbia C2K 36183," which is not accurate in this case.

Tag your rips well, kids. If you loose the CD it looks to be impossible to ever confirm the pressing.

 

Re: Manual CTDB Lookup

Reply #8
It appears that I can narrow it down by looking in MusicBrainz at the TOC and run lengths, but even then I am left with the possibility of three different pressings. I don't know if there's any realistic way to dig any further. I wish there was a database of CRCs (tracks or disc) and confirmed associations with specific pressings.

As far as I can tell, all of the EMI pressings are acoustically identical over the span of more than a decade. They are distinct from the Columbia pressing released in the US in 1984 in that the highs are a little more muted (can be ABX'd reliably) and the Columbia US pressing has the famous "pop" at the beginning of Comfortably Numb (something I keep in my archive, but 'repair' when making MP3/AAC/Opus tracks). If you listen really carefully with good headphones it is very clear that the Columbia mastering is a vinyl rip and not from studio master tapes. There are lots of pops and crackles that are audible.