Skip to main content

Notice

Please note that most of the software linked on this forum is likely to be safe to use. If you are unsure, feel free to ask in the relevant topics, or send a private message to an administrator or moderator. To help curb the problems of false positives, or in the event that you do find actual malware, you can contribute through the article linked here.
Topic: "Them Changes" spectrogram differences -- what's gong on here? (Read 1082 times) previous topic - next topic
0 Members and 1 Guest are viewing this topic.

"Them Changes" spectrogram differences -- what's gong on here?

I was checking for a lossy -> lossless transcode and this artifact showed up.  I don't hear a difference (mono bluetooth speaker) b/w the two and I can't speak to the sources., but they both appear to be flac.

Can anyone explain what is going on, i.e., why these look so different?


$ mi 1970\ -\ Them\ Changes/01\ -\ Them\ Changes.flac Buddy\ Miles\ -\ Them\ Changes\ \(1970\,\ 2003\)⭐FLAC/Buddy\ Miles\ -\ 1\ -\ Them\ Changes.flac
General
Complete name                            : 1970 - Them Changes/01 - Them Changes.flac
Format                                   : FLAC
Format/Info                              : Free Lossless Audio Codec
File size                                : 22.5 MiB
Duration                                 : 3 min 19 s
Overall bit rate mode                    : Variable
Overall bit rate                         : 943 kb/s
Album                                    : Them Changes
Track name                               : Them Changes
Track name/Position                      : 01
Performer                                : Buddy Miles
Genre                                    : Fusion, Funk
Recorded date                            : 1970
Cover                                    : Yes
Cover type                               : Cover (front)
Cover MIME                               : image/jpeg

Audio
Format                                   : FLAC
Format/Info                              : Free Lossless Audio Codec
Duration                                 : 3 min 19 s
Bit rate mode                            : Variable
Bit rate                                 : 916 kb/s
Channel(s)                               : 2 channels
Channel layout                           : L R
Sampling rate                            : 44.1 kHz
Bit depth                                : 16 bits
Compression mode                         : Lossless
Stream size                              : 21.8 MiB (97%)
Writing library                          : libFLAC 1.1.4 (UTC 2007-02-13)


General
Complete name                            : Buddy Miles - Them Changes (1970, 2003)⭐FLAC/Buddy Miles - 1 - Them Changes.flac
Format                                   : FLAC
Format/Info                              : Free Lossless Audio Codec
File size                                : 34.0 MiB
Duration                                 : 3 min 21 s
Overall bit rate mode                    : Variable
Overall bit rate                         : 1 415 kb/s
Album                                    : Them Changes
Track name                               : Them Changes
Track name/Position                      : 1
Performer                                : Buddy Miles

Audio
Format                                   : FLAC
Format/Info                              : Free Lossless Audio Codec
Duration                                 : 3 min 21 s
Bit rate mode                            : Variable
Bit rate                                 : 1 415 kb/s
Channel(s)                               : 2 channels
Channel layout                           : L R
Sampling rate                            : 44.1 kHz
Bit depth                                : 16 bits
Compression mode                         : Lossless
Stream size                              : 34.0 MiB (100%)
Writing library                          : libFLAC 1.4.2 (UTC 2022-10-22)

Re: "Them Changes" spectrogram differences -- what's gong on here?

Reply #1
Seems like one of of them is remastered version.

Re: "Them Changes" spectrogram differences -- what's gong on here?

Reply #2
Also, swapped channels?

Re: "Them Changes" spectrogram differences -- what's gong on here?

Reply #3
Also, swapped channels?
Also noticed this. The OP is using a mono speaker so they would sound the same.