Skip to main content

Notice

Please note that most of the software linked on this forum is likely to be safe to use. If you are unsure, feel free to ask in the relevant topics, or send a private message to an administrator or moderator. To help curb the problems of false positives, or in the event that you do find actual malware, you can contribute through the article linked here.
Topic: Please help me to interpret these reports on a rip from EAC + CUETools (Read 1631 times) previous topic - next topic
0 Members and 1 Guest are viewing this topic.

Please help me to interpret these reports on a rip from EAC + CUETools

I'd like to run this by the collective to make sure I'm understanding this.
Here's a log after running cuetools on a rip I made from EAC:

Code: [Select]
   [CUETools log; Date: 8/21/2011 7:30:14 PM; Version: 2.1.2a]
    CUETools DB: corrected 20294 errors.
    [AccurateRip ID: 001b4c3d-00fd1af5-910e1b0c] found.
    Track  [ CRC    ] Status
    01    [6dc9c35b] (200/601) Accurately ripped
    02    [63c2e24a] (200/609) Accurately ripped
    03    [93e1b38e] (200/604) Accurately ripped
    04    [07ded300] (200/607) Accurately ripped
    05    [9f7063eb] (200/605) Accurately ripped
    06    [3ef6b595] (200/606) Accurately ripped
    07    [83ba332b] (200/602) Accurately ripped
    08    [18cc3223] (200/603) Accurately ripped
    09    [b982b0ed] (200/605) Accurately ripped
    10    [7c1f90b0] (200/606) Accurately ripped
    11    [0c42f6c6] (200/603) Accurately ripped
    12    [66756854] (200/607) Accurately ripped
    AccurateRip v2:
    01    [8aaf0c22] (051/601) Accurately ripped
    02    [67209ba2] (051/609) Accurately ripped
    03    [3034bbc7] (051/604) Accurately ripped
    04    [9830e3aa] (051/607) Accurately ripped
    05    [da00d2a5] (051/605) Accurately ripped
    06    [ffd70045] (051/606) Accurately ripped
    07    [6c1cd5ce] (050/602) Accurately ripped
    08    [00db5d6c] (050/603) Accurately ripped
    09    [5ad2e828] (051/605) Accurately ripped
    10    [6bc4460d] (050/606) Accurately ripped
    11    [3be915e3] (051/603) Accurately ripped
    12    [116d3433] (049/607) Accurately ripped
    Offsetted by -151:
    01    [96aaff21] (003/601) Accurately ripped
    02    [26a5f94d] (003/609) Accurately ripped
    03    [d940bb1c] (003/604) Accurately ripped
    04    [6cb2e72c] (003/607) Accurately ripped
    05    [05da2da9] (003/605) Accurately ripped
    06    [fbee5d71] (003/606) Accurately ripped
    07    [3eceb5f7] (003/602) Accurately ripped
    08    [c135188b] (003/603) Accurately ripped
    09    [7481a064] (003/605) Accurately ripped
    10    [b412162c] (003/606) Accurately ripped
    11    [7ae8249f] (003/603) Accurately ripped
    12    [f2b15c6c] (003/607) Accurately ripped
    Offsetted by 4:
    01    [c384ab4d] (022/601) Accurately ripped
    02    [4982c5bf] (022/609) Accurately ripped
    03    [da0aca93] (022/604) Accurately ripped
    04    [b8f7b21a] (022/607) Accurately ripped
    05    [dfb166c2] (022/605) Accurately ripped
    06    [de4fc39e] (023/606) Accurately ripped
    07    [65f5d83a] (022/602) Accurately ripped
    08    [968d11b1] (022/603) Accurately ripped
    09    [74ffc9ff] (022/605) Accurately ripped
    10    [9b06e365] (022/606) Accurately ripped
    11    [ed0b8ecc] (021/603) Accurately ripped
    12    [e8a14897] (021/607) Accurately ripped
    Offsetted by 23:
    01    [ba8d7754] (200/601) Accurately ripped
    02    [a3a4ca5f] (200/609) Accurately ripped
    03    [9ff3f249] (200/604) Accurately ripped
    04    [39e8d1d4] (200/607) Accurately ripped
    05    [0096679a] (200/605) Accurately ripped
    06    [4f3d54f8] (200/606) Accurately ripped
    07    [2b2a62ba] (200/602) Accurately ripped
    08    [b971cd13] (200/603) Accurately ripped
    09    [014a2f50] (200/605) Accurately ripped
    10    [e4f9650a] (200/606) Accurately ripped
    11    [8a71547a] (200/603) Accurately ripped
    12    [5e7bfa4e] (200/607) Accurately ripped
    Offsetted by 278:
    01    [4ee77b63] (039/601) Accurately ripped
    02    [487ac799] (039/609) Accurately ripped
    03    [5ed86841] (039/604) Accurately ripped
    04    [84ca14d7] (040/607) Accurately ripped
    05    [647a7e81] (040/605) Accurately ripped
    06    [5aab7012] (040/606) Accurately ripped
    07    [d0d3fe93] (040/602) Accurately ripped
    08    [ecb5f3c1] (040/603) Accurately ripped
    09    [7662a57b] (040/605) Accurately ripped
    10    [073c5527] (040/606) Accurately ripped
    11    [b68a539d] (040/603) Accurately ripped
    12    [9b71300d] (039/607) Accurately ripped
    Offsetted by 466:
    01    [bd2e7697] (002/601) Accurately ripped
    02    [c8fdaaa8] (002/609) Accurately ripped
    03    [2f57c7e2] (002/604) Accurately ripped
    04    [5dfbcbd1] (002/607) Accurately ripped
    05    [04d0228a] (002/605) Accurately ripped
    06    [f8600b4f] (002/606) Accurately ripped
    07    [02e55649] (002/602) Accurately ripped
    08    [bb2ce1e4] (002/603) Accurately ripped
    09    [089c872a] (002/605) Accurately ripped
    10    [d2dea19c] (002/606) Accurately ripped
    11    [cda6c5d0] (002/603) Accurately ripped
    12    [ebd25534] (002/607) Accurately ripped
    Offsetted by 1003:
    01    [a836cb60] (006/601) Accurately ripped
    02    [394682ec] (006/609) Accurately ripped
    03    [a4319624] (006/604) Accurately ripped
    04    [c29b5031] (006/607) Accurately ripped
    05    [a1645ef3] (006/605) Accurately ripped
    06    [064678e8] (006/606) Accurately ripped
    07    [76342bb8] (006/602) Accurately ripped
    08    [aa6f3ba7] (006/603) Accurately ripped
    09    [f32a29d9] (006/605) Accurately ripped
    10    [b77533ec] (006/606) Accurately ripped
    11    [39217fe3] (006/603) Accurately ripped
    12    [1160dfd2] (006/607) Accurately ripped
    Offsetted by 1802:
    01    [ac2e2d97] (006/601) Accurately ripped
    02    [ee911088] (006/609) Accurately ripped
    03    [c0a4af1a] (006/604) Accurately ripped
    04    [a5fd0b3e] (006/607) Accurately ripped
    05    [d809cecd] (006/605) Accurately ripped
    06    [f4ec7867] (006/606) Accurately ripped
    07    [f184db47] (006/602) Accurately ripped
    08    [61534ca4] (006/603) Accurately ripped
    09    [ddae42b0] (006/605) Accurately ripped
    10    [973b31e4] (006/606) Accurately ripped
    11    [12f719b8] (006/603) Accurately ripped
    12    [5fcf7d13] (006/607) Accurately ripped
    Offsetted by 1944:
    01    [d2cbd06e] (011/601) Accurately ripped
    02    [b73b2637] (011/609) Accurately ripped
    03    [c3352436] (011/604) Accurately ripped
    04    [3f7c296f] (011/607) Accurately ripped
    05    [681da45e] (011/605) Accurately ripped
    06    [90489547] (011/606) Accurately ripped
    07    [49f34b7d] (011/602) Accurately ripped
    08    [36dee30c] (011/603) Accurately ripped
    09    [dc433c0c] (010/605) Accurately ripped
    10    [fbf5e410] (011/606) Accurately ripped
    11    [c09504dc] (011/603) Accurately ripped
    12    [e7f1e91a] (011/607) Accurately ripped
    Offsetted by -669:
    01    [a49b7052] (002/601) Accurately ripped
    02    [d2956614] (002/609) Accurately ripped
    03    [12474ef2] (002/604) Accurately ripped
    04    [c8d90781] (002/607) Accurately ripped
    05    [73c71366] (002/605) Accurately ripped
    06    [e7c9ff67] (002/606) Accurately ripped
    07    [88628e31] (002/602) Accurately ripped
    08    [ddf92e4f] (002/603) Accurately ripped
    09    [31295395] (002/605) Accurately ripped
    10    [c8ec241a] (002/606) Accurately ripped
    11    [794757c6] (000/603) No match but offset
    12    [4f2b0c4a] (000/607) No match but offset
    Offsetted by -75:
    01    [8b342d28] (000/601) No match but offset
    02    [f4f70df9] (002/609) Accurately ripped
    03    [4ae893cd] (002/604) Accurately ripped
    04    [9d864105] (002/607) Accurately ripped
    05    [e75306c0] (002/605) Accurately ripped
    06    [c47b0f57] (002/606) Accurately ripped
    07    [5d3b0850] (000/602) No match but offset
    08    [45f88c4a] (002/603) Accurately ripped
    09    [d27df154] (002/605) Accurately ripped
    10    [8d1e027b] (002/606) Accurately ripped
    11    [586c3512] (002/603) Accurately ripped
    12    [ff40b8f0] (002/607) Accurately ripped
    Offsetted by -29:
    01    [c5de8f3b] (000/601) No match
    02    [941b0230] (000/609) No match
    03    [053cb6d5] (000/604) No match
    04    [c051555b] (000/607) No match
    05    [ab61cf2f] (000/605) No match
    06    [eeb3d13e] (000/606) No match
    07    [20e44cb9] (000/602) No match
    08    [b9533111] (000/603) No match
    09    [dd775683] (000/605) No match
    10    [190158ac] (000/606) No match
    11    [10018e46] (000/603) No match
    12    [67ec6a74] (000/607) No match but offset
    Offsetted by 29:
    01    [94c2c531] (000/601) No match
    02    [6564c9b2] (000/609) No match
    03    [04b79183] (000/604) No match
    04    [ec2ed89f] (000/607) No match
    05    [887c2dc7] (000/605) No match
    06    [12327cb6] (000/606) No match
    07    [3ecf5609] (000/602) No match
    08    [caef4eb3] (000/603) No match
    09    [1c68c521] (002/605) Accurately ripped
    10    [9901aeb1] (002/606) Accurately ripped
    11    [d21d3031] (002/603) Accurately ripped
    12    [cfadeb69] (000/607) No match
    Offsetted by 73:
    01    [380abf0a] (000/601) No match but offset
    02    [3444885a] (000/609) No match but offset
    03    [be756316] (000/604) No match but offset
    04    [23c1577b] (000/607) No match
    05    [e1cae576] (000/605) No match but offset
    06    [43d69775] (000/606) No match but offset
    07    [93f610a6] (000/602) No match
    08    [1f482a26] (000/603) No match
    09    [a79cb7c1] (000/605) No match but offset
    10    [883b5db8] (000/606) No match
    11    [ed2f3f0c] (000/603) No match
    12    [b0ca5b4f] (000/607) No match
    Offsetted by 394:
    01    [c97c1c92] (004/601) Accurately ripped
    02    [c507377a] (004/609) Accurately ripped
    03    [3c709a55] (004/604) Accurately ripped
    04    [9c52bdb5] (004/607) Accurately ripped
    05    [18039975] (004/605) Accurately ripped
    06    [72686f58] (004/606) Accurately ripped
    07    [52c638c4] (004/602) Accurately ripped
    08    [e24bb911] (004/603) Accurately ripped
    09    [063d44ce] (004/605) Accurately ripped
    10    [3eda49d4] (004/606) Accurately ripped
    11    [ff98e100] (004/603) Accurately ripped
    12    [48a23d13] (000/607) No match
    Offsetted by 1694:
    01    [a56016b8] (002/601) Accurately ripped
    02    [f50f3589] (002/609) Accurately ripped
    03    [4f8a6254] (002/604) Accurately ripped
    04    [2d1b1e2f] (002/607) Accurately ripped
    05    [8c9efc17] (000/605) No match but offset
    06    [5c5c7dac] (002/606) Accurately ripped
    07    [4dbfa694] (002/602) Accurately ripped
    08    [619754b7] (002/603) Accurately ripped
    09    [ab6f86a0] (002/605) Accurately ripped
    10    [e5837117] (002/606) Accurately ripped
    11    [7092fb91] (002/603) Accurately ripped
    12    [392c8019] (002/607) Accurately ripped
   
    Track Peak [ CRC32  ] [W/O NULL] [  LOG  ]
    --  99.9 [610193C7] [6901D58D] [516E985A]
    01  99.9 [1050A275] [0C7A0EA3]         
    02  99.9 [2F7D89C8] [CAE8E98A]         
    03  99.9 [CFF267BB] [9960280F]         
    04  99.9 [6EB10055] [0DA2E1E0]         
    05  98.4 [0B35C0FA] [69CC5CD1]         
    06  99.9 [B2CACCEB] [0CD706DA]         
    07  99.9 [941FEA4C] [E7909950]         
    08  99.9 [B013D6E1] [F74B553B]         
    09  99.9 [CDF08B75] [E0F40A3D]         
    10  99.9 [D8774FE1] [D1F7CB54]         
    11  99.9 [D69C299A] [2B9A8631]         
    12  99.9 [3561DF3D] [212889BA]

and here is what EAC had in the log right after ripping:
Code: [Select]
   AccurateRip summary
   
    Track  1  cannot be verified as accurate (confidence 200)  [DE9940BF], AccurateRip returned [BA8D7754]  (AR v2)
    Track  2  accurately ripped (confidence 51)  [67209BA2]  (AR v2)
    Track  3  accurately ripped (confidence 51)  [3034BBC7]  (AR v2)
    Track  4  cannot be verified as accurate (confidence 200)  [329345DE], AccurateRip returned [39E8D1D4]  (AR v2)
    Track  5  cannot be verified as accurate (confidence 200)  [0CCEEA92], AccurateRip returned [0096679A]  (AR v2)
    Track  6  accurately ripped (confidence 51)  [FFD70045]  (AR v2)
    Track  7  accurately ripped (confidence 50)  [6C1CD5CE]  (AR v2)
    Track  8  accurately ripped (confidence 50)  [00DB5D6C]  (AR v2)
    Track  9  accurately ripped (confidence 51)  [5AD2E828]  (AR v2)
    Track 10  cannot be verified as accurate (confidence 200)  [88D7870E], AccurateRip returned [E4F9650A]  (AR v2)
    Track 11  cannot be verified as accurate (confidence 200)  [C5DBB248], AccurateRip returned [8A71547A]  (AR v2)
    Track 12  cannot be verified as accurate (confidence 200)  [B00D455A], AccurateRip returned [5E7BFA4E]  (AR v2)
   
    6 track(s) accurately ripped
    6 track(s) could not be verified as accurate
   
    Some tracks could not be verified as accurate

Now from the cuetools log, everything says accurate up until the "offset by -669" .

Q1: Are the different offset groups representing different pressings of the same CD?
Q2: So was cuetools actually able to repair this rip based on the first part of the log?
Q3: when I run cuetools, I pick the source, the 'encode','repair' and choose lossless FLAC. Should it ask me if I want to repair if it able or is the encoded version it makes a repaired version by default?

Q4:  Is there a chart somewhere that explains what the different confidence levels from Accurip mean?

Thanks much

 
SimplePortal 1.0.0 RC1 © 2008-2021