Skip to main content

Notice

Please note that most of the software linked on this forum is likely to be safe to use. If you are unsure, feel free to ask in the relevant topics, or send a private message to an administrator or moderator. To help curb the problems of false positives, or in the event that you do find actual malware, you can contribute through the article linked here.
Topic: Can't rip any audio cd with dBpoweramp  (Read 1491 times) previous topic - next topic
0 Members and 1 Guest are viewing this topic.

Can't rip any audio cd with dBpoweramp

Accurate rip won't configure says can't find offset key. All I can get is a secure rip showing a green colored check mark.



Re: Can't rip any audio cd with dBpoweramp

Reply #3
Post a log.
High Voltage socket-nose-avatar

Re: Can't rip any audio cd with dBpoweramp

Reply #4
Here's the log

Code: [Select]
Information ripping to Wave, 'Track 1' to 'I:\Ripped Audio\Graveland\The Celtic Winter; Cold Winds Bring Me the Memories\01 Graveland - Prolog.wav'
   Track 1:  Ripped LBA 0 to 14895 (3:18) in 0:05. Filename: I:\Ripped Audio\Graveland\The Celtic Winter; Cold Winds Bring Me the Memories\01 Graveland - Prolog.wav
     Secure  [Pass 1 & 2]
     CRC32: C840B372     AccurateRip CRC: 00000000 (CRCv2)     [DiscID: 016-0023eebf-01b76b5b-ca0ef810-1]
  
Information ripping to Wave, 'Track 2' to 'I:\Ripped Audio\Graveland\The Celtic Winter; Cold Winds Bring Me the Memories\02 Graveland - The Gates To the Kingdom of Darkness (Intro).wav'
   Track 2:  Ripped LBA 14895 to 19245 (0:58) in 0:01. Filename: I:\Ripped Audio\Graveland\The Celtic Winter; Cold Winds Bring Me the Memories\02 Graveland - The Gates To the Kingdom of Darkness (Intro).wav
     Secure  [Pass 1 & 2]
     CRC32: 23889756     AccurateRip CRC: 00000000 (CRCv2)     [DiscID: 016-0023eebf-01b76b5b-ca0ef810-2]
  
Information ripping to Wave, 'Track 3' to 'I:\Ripped Audio\Graveland\The Celtic Winter; Cold Winds Bring Me the Memories\03 Graveland - Intro.wav'
   Track 3:  Ripped LBA 19245 to 31545 (2:44) in 0:04. Filename: I:\Ripped Audio\Graveland\The Celtic Winter; Cold Winds Bring Me the Memories\03 Graveland - Intro.wav
     Secure  [Pass 1 & 2]
     CRC32: 48C721B0     AccurateRip CRC: 00000000 (CRCv2)     [DiscID: 016-0023eebf-01b76b5b-ca0ef810-3]
  
Information ripping to Wave, 'Track 4' to 'I:\Ripped Audio\Graveland\The Celtic Winter; Cold Winds Bring Me the Memories\04 Graveland - The Night of the Fullmoon.wav'
   Track 4:  Ripped LBA 31545 to 56445 (5:32) in 0:09. Filename: I:\Ripped Audio\Graveland\The Celtic Winter; Cold Winds Bring Me the Memories\04 Graveland - The Night of the Fullmoon.wav
     Secure  [Pass 1 & 2]
     CRC32: 000EEAEA     AccurateRip CRC: 00000000 (CRCv2)     [DiscID: 016-0023eebf-01b76b5b-ca0ef810-4]
  
Information ripping to Wave, 'Track 5' to 'I:\Ripped Audio\Graveland\The Celtic Winter; Cold Winds Bring Me the Memories\05 Graveland - Call of the Black Forest.wav'
   Track 5:  Ripped LBA 56445 to 76245 (4:24) in 0:07. Filename: I:\Ripped Audio\Graveland\The Celtic Winter; Cold Winds Bring Me the Memories\05 Graveland - Call of the Black Forest.wav
     Secure  [Pass 1 & 2]
     CRC32: 70B42DB9     AccurateRip CRC: 00000000 (CRCv2)     [DiscID: 016-0023eebf-01b76b5b-ca0ef810-5]
  
Information ripping to Wave, 'Track 6' to 'I:\Ripped Audio\Graveland\The Celtic Winter; Cold Winds Bring Me the Memories\06 Graveland - Hordes of Empire.wav'
   Track 6:  Ripped LBA 76245 to 97171 (4:39) in 0:08. Filename: I:\Ripped Audio\Graveland\The Celtic Winter; Cold Winds Bring Me the Memories\06 Graveland - Hordes of Empire.wav
     Secure  [Pass 1 & 2]
     CRC32: C68E60AC     AccurateRip CRC: 00000000 (CRCv2)     [DiscID: 016-0023eebf-01b76b5b-ca0ef810-6]
  
Information ripping to Wave, 'Track 7' to 'I:\Ripped Audio\Graveland\The Celtic Winter; Cold Winds Bring Me the Memories\07 Graveland - The Gates To the Kingdom of Darkness.wav'
   Track 7:  Ripped LBA 97171 to 123163 (5:46) in 0:10. Filename: I:\Ripped Audio\Graveland\The Celtic Winter; Cold Winds Bring Me the Memories\07 Graveland - The Gates To the Kingdom of Darkness.wav
     Secure  [Pass 1 & 2]
     CRC32: 41D6AEB6     AccurateRip CRC: 00000000 (CRCv2)     [DiscID: 016-0023eebf-01b76b5b-ca0ef810-7]
  
Information ripping to Wave, 'Track 8' to 'I:\Ripped Audio\Graveland\The Celtic Winter; Cold Winds Bring Me the Memories\08 Graveland - The Return of Funeral Winds.wav'
   Track 8:  Ripped LBA 123163 to 158448 (7:50) in 0:14. Filename: I:\Ripped Audio\Graveland\The Celtic Winter; Cold Winds Bring Me the Memories\08 Graveland - The Return of Funeral Winds.wav
     Secure  [Pass 1 & 2]
     CRC32: CE8A8E47     AccurateRip CRC: 00000000 (CRCv2)     [DiscID: 016-0023eebf-01b76b5b-ca0ef810-8]
  
Information ripping to Wave, 'Track 9' to 'I:\Ripped Audio\Graveland\The Celtic Winter; Cold Winds Bring Me the Memories\09 Graveland - Prolog.wav'
   Track 9:  Ripped LBA 158448 to 170148 (2:36) in 0:04. Filename: I:\Ripped Audio\Graveland\The Celtic Winter; Cold Winds Bring Me the Memories\09 Graveland - Prolog.wav
     Secure  [Pass 1 & 2]
     CRC32: 1F53B3A3     AccurateRip CRC: 00000000 (CRCv2)     [DiscID: 016-0023eebf-01b76b5b-ca0ef810-9]
  
Information ripping to Wave, 'Track 10' to 'I:\Ripped Audio\Graveland\The Celtic Winter; Cold Winds Bring Me the Memories\10 Graveland - The Gates To the Kingdom of Darkness (Intro).wav'
   Track 10:  Ripped LBA 170148 to 174575 (0:59) in 0:01. Filename: I:\Ripped Audio\Graveland\The Celtic Winter; Cold Winds Bring Me the Memories\10 Graveland - The Gates To the Kingdom of Darkness (Intro).wav
     Secure  [Pass 1 & 2]
     CRC32: E4EB45FA     AccurateRip CRC: 00000000 (CRCv2)     [DiscID: 016-0023eebf-01b76b5b-ca0ef810-10]
  
Information ripping to Wave, 'Track 11' to 'I:\Ripped Audio\Graveland\The Celtic Winter; Cold Winds Bring Me the Memories\11 Graveland - Intro.wav'
   Track 11:  Ripped LBA 174575 to 187739 (2:55) in 0:05. Filename: I:\Ripped Audio\Graveland\The Celtic Winter; Cold Winds Bring Me the Memories\11 Graveland - Intro.wav
     Secure  [Pass 1 & 2]
     CRC32: 3FC8BA32     AccurateRip CRC: 00000000 (CRCv2)     [DiscID: 016-0023eebf-01b76b5b-ca0ef810-11]
  
Information ripping to Wave, 'Track 12' to 'I:\Ripped Audio\Graveland\The Celtic Winter; Cold Winds Bring Me the Memories\12 Graveland - Call of the Black Forest.wav'
   Track 12:  Ripped LBA 187739 to 207470 (4:23) in 0:07. Filename: I:\Ripped Audio\Graveland\The Celtic Winter; Cold Winds Bring Me the Memories\12 Graveland - Call of the Black Forest.wav
     Secure  [Pass 1 & 2]
     CRC32: 2E622415     AccurateRip CRC: 00000000 (CRCv2)     [DiscID: 016-0023eebf-01b76b5b-ca0ef810-12]
  
Information ripping to Wave, 'Track 13' to 'I:\Ripped Audio\Graveland\The Celtic Winter; Cold Winds Bring Me the Memories\13 Graveland - Hordes of Empire.wav'
   Track 13:  Ripped LBA 207470 to 228360 (4:38) in 0:08. Filename: I:\Ripped Audio\Graveland\The Celtic Winter; Cold Winds Bring Me the Memories\13 Graveland - Hordes of Empire.wav
     Secure  [Pass 1 & 2]
     CRC32: BEAC19B3     AccurateRip CRC: 00000000 (CRCv2)     [DiscID: 016-0023eebf-01b76b5b-ca0ef810-13]
  
Information ripping to Wave, 'Track 14' to 'I:\Ripped Audio\Graveland\The Celtic Winter; Cold Winds Bring Me the Memories\14 Graveland - The Gates To the Kingdom of Darkness.wav'
   Track 14:  Ripped LBA 228360 to 254310 (5:46) in 0:10. Filename: I:\Ripped Audio\Graveland\The Celtic Winter; Cold Winds Bring Me the Memories\14 Graveland - The Gates To the Kingdom of Darkness.wav
     Secure  [Pass 1 & 2]
     CRC32: 8757B7B4     AccurateRip CRC: 00000000 (CRCv2)     [DiscID: 016-0023eebf-01b76b5b-ca0ef810-14]
  
Information ripping to Wave, 'Track 15' to 'I:\Ripped Audio\Graveland\The Celtic Winter; Cold Winds Bring Me the Memories\15 Graveland - The Return of Funeral Winds.wav'
   Track 15:  Ripped LBA 254310 to 267660 (2:58) in 0:05. Filename: I:\Ripped Audio\Graveland\The Celtic Winter; Cold Winds Bring Me the Memories\15 Graveland - The Return of Funeral Winds.wav
     Secure  [Pass 1 & 2]
     CRC32: 37AC3EBF     AccurateRip CRC: 00000000 (CRCv2)     [DiscID: 016-0023eebf-01b76b5b-ca0ef810-15]
  
Information ripping to Wave, 'Track 16' to 'I:\Ripped Audio\Graveland\The Celtic Winter; Cold Winds Bring Me the Memories\16 Graveland - Call of the Black Forest.wav'
   Track 16:  Ripped LBA 267660 to 287460 (4:24) in 0:07. Filename: I:\Ripped Audio\Graveland\The Celtic Winter; Cold Winds Bring Me the Memories\16 Graveland - Call of the Black Forest.wav
     Secure  [Pass 1 & 2]
     CRC32: 70B42DB9     AccurateRip CRC: 00000000 (CRCv2)     [DiscID: 016-0023eebf-01b76b5b-ca0ef810-16]
  

Re: Can't rip any audio cd with dBpoweramp

Reply #5
Please help

Re: Can't rip any audio cd with dBpoweramp

Reply #6
You don't have AccurateRip switched on? Spoiler (click to show/hide)
Tried a more common CD?

And there is no reason to use .wav. Use FLAC. -8, since encoding is done only once.
High Voltage socket-nose-avatar

Re: Can't rip any audio cd with dBpoweramp

Reply #7
Accurate rip won't configure says can't find offset key.
http://www.accuraterip.com/keydiscs.htm
Looks like you just haven't found a 'Key Disc' yet. AccurateRip won't be enabled until you do.
https://www.google.com/search?q=accuraterip+key+disc+site:forum.dbpoweramp.com
korth

Re: Can't rip any audio cd with dBpoweramp

Reply #8
All the tracks come out as silent.

Re: Can't rip any audio cd with dBpoweramp

Reply #9
Try other ripping software, other drives, experiment with burst mode, secure mode, and yes configure AccurateRip first.
Problem with the disc? Does a CD player play the CD properly?

Re: Can't rip any audio cd with dBpoweramp

Reply #10
Try other ripping software, other drives, experiment with burst mode, secure mode, and yes configure AccurateRip first.
Problem with the disc? Does a CD player play the CD properly?
Yes it plays fine with sound when I'm using the CD player. I tried EAC to rip it and it doesn't work unlike my other CD's. Which ripping program can you recommend?


Re: Can't rip any audio cd with dBpoweramp

Reply #12
Which ripping program can you recommend?
Something with AccurateRip, so if you have tried dBpoweramp and EAC, then http://cue.tools/wiki/CUERipper . Freeware.
But refusing to rip with EAC and silence with dBpoweramp? Something interfering with your drive?


(Avoid EZ, which has a history of fake advertising AccurateRip.)
High Voltage socket-nose-avatar

Re: Can't rip any audio cd with dBpoweramp

Reply #13
Which ripping program can you recommend?
Something with AccurateRip, so if you have tried dBpoweramp and EAC, then http://cue.tools/wiki/CUERipper . Freeware.
But refusing to rip with EAC and silence with dBpoweramp? Something interfering with your drive?


(Avoid EZ, which has a history of fake advertising AccurateRip.)

I tried CueRipper but I get this error when it gets to the ripping part.

Exception:Error reading CD: Loctl failed

Re: Can't rip any audio cd with dBpoweramp

Reply #14
Exception:Error reading CD: Loctl failed

This is beyond me. Fount two hits here (it's "Ioctl" with capital I): https://hydrogenaud.io/index.php?topic=82797.0 and https://hydrogenaud.io/index.php?topic=66233.msg909600#msg909600 . One indicates it isn't friends with the drive, the other that it isn't friends with the CD.

Tried any other CD than your Rob Darken?
High Voltage socket-nose-avatar

Re: Can't rip any audio cd with dBpoweramp

Reply #15
Exception:Error reading CD: Loctl failed

This is beyond me. Fount two hits here (it's "Ioctl" with capital I): https://hydrogenaud.io/index.php?topic=82797.0 and https://hydrogenaud.io/index.php?topic=66233.msg909600#msg909600 . One indicates it isn't friends with the drive, the other that it isn't friends with the CD.

Tried any other CD than your Rob Darken?

It stops ripping and gets the error on the retry.

Re: Can't rip any audio cd with dBpoweramp

Reply #16
Tried any other CD?
High Voltage socket-nose-avatar

 

 
SimplePortal 1.0.0 RC1 © 2008-2021