Skip to main content

Notice

Please note that most of the software linked on this forum is likely to be safe to use. If you are unsure, feel free to ask in the relevant topics, or send a private message to an administrator or moderator. To help curb the problems of false positives, or in the event that you do find actual malware, you can contribute through the article linked here.
Topic: Cannot be verified as accurate EAC (Read 585 times) previous topic - next topic
0 Members and 1 Guest are viewing this topic.

Cannot be verified as accurate EAC

Hey there, hope all you are fine

I'm new here and also with ripping CD's so i have a little question with my log file from EAC, because it's says that the 14 track of my CD cannont be verified as accurate.

Here is the log:
Code: [Select]
Exact Audio Copy V1.5 from 20. February 2020

EAC extraction logfile from 28. April 2020, 19:58

Los Prisioneros / La Cultura de la Basura

Used drive  : HL-DT-STDVDRAM GUD0N   Adapter: 1  ID: 0

Read mode               : Secure
Utilize accurate stream : Yes
Defeat audio cache      : Yes
Make use of C2 pointers : No

Read offset correction                      : 102
Overread into Lead-In and Lead-Out          : No
Fill up missing offset samples with silence : Yes
Delete leading and trailing silent blocks   : No
Null samples used in CRC calculations       : Yes
Used interface                              : Native Win32 interface for Win NT & 2000
Gap handling                                : Appended to previous track

Used output format              : User Defined Encoder
Selected bitrate                : 1024 kBit/s
Quality                         : High
Add ID3 tag                     : No
Command line compressor         : C:\Program Files (x86)\Exact Audio Copy\Flac\flac.exe
Additional command line options : -8 -e -p -V -T "ARTIST=%artist%" -T "TITLE=%title%" -T "ALBUM=%albumtitle%" -T "DATE=%year%" -T "TRACKNUMBER=%tracknr%" -T "GENRE=%genre%" -T "PERFORMER=%albuminterpret%" -T "COMPOSER=%composer%" %haslyrics%--tag-from-file=LYRICS="%lyricsfile%"%haslyrics% -T "ALBUMARTIST=%albumartist%" -T "DISCNUMBER=%cdnumber%" -T "TOTALDISCS=%totalcds%" -T "TOTALTRACKS=%numtracks%" -T "COMMENT=%comment%" %source% -o %dest%


TOC of the extracted CD

     Track |   Start  |  Length  | Start sector | End sector
    ---------------------------------------------------------
        1  |  0:00.00 |  1:23.02 |         0    |     6226  
        2  |  1:23.02 |  3:09.03 |      6227    |    20404  
        3  |  4:32.05 |  4:14.00 |     20405    |    39454  
        4  |  8:46.05 |  3:48.57 |     39455    |    56611  
        5  | 12:34.62 |  4:53.63 |     56612    |    78649  
        6  | 17:28.50 |  4:39.12 |     78650    |    99586  
        7  | 22:07.62 |  4:48.38 |     99587    |   121224  
        8  | 26:56.25 |  2:17.57 |    121225    |   131556  
        9  | 29:14.07 |  5:49.10 |    131557    |   157741  
       10  | 35:03.17 |  4:20.05 |    157742    |   177246  
       11  | 39:23.22 |  3:09.25 |    177247    |   191446  
       12  | 42:32.47 |  4:37.68 |    191447    |   212289  
       13  | 47:10.40 |  3:32.62 |    212290    |   228251  
       14  | 50:43.27 |  8:04.23 |    228252    |   264574  


Track  1

     Filename C:\Users\Gonzalo\Downloads\Los Prisioneros - La Cultura de la Basura (1995) [FLAC] {EMI Odeon Chilena S.A. 7 98758 2}\01 Somos sólo ruido.wav

     Pre-gap length  0:00:02.00

     Peak level 91.1 %
     Extraction speed 2.1 X
     Track quality 100.0 %
     Test CRC 404433C9
     Copy CRC 404433C9
     Accurately ripped (confidence 4)  [527AD087]  (AR v2)
     Copy OK

Track  2

     Filename C:\Users\Gonzalo\Downloads\Los Prisioneros - La Cultura de la Basura (1995) [FLAC] {EMI Odeon Chilena S.A. 7 98758 2}\02 La cultura de la basura.wav

     Peak level 83.6 %
     Extraction speed 2.8 X
     Track quality 100.0 %
     Test CRC 93D73B31
     Copy CRC 93D73B31
     Accurately ripped (confidence 4)  [6E76E27A]  (AR v2)
     Copy OK

Track  3

     Filename C:\Users\Gonzalo\Downloads\Los Prisioneros - La Cultura de la Basura (1995) [FLAC] {EMI Odeon Chilena S.A. 7 98758 2}\03 Que no destrocen tu vida.wav

     Peak level 96.0 %
     Extraction speed 3.2 X
     Track quality 100.0 %
     Test CRC 6663C37C
     Copy CRC 6663C37C
     Accurately ripped (confidence 4)  [50867DC1]  (AR v2)
     Copy OK

Track  4

     Filename C:\Users\Gonzalo\Downloads\Los Prisioneros - La Cultura de la Basura (1995) [FLAC] {EMI Odeon Chilena S.A. 7 98758 2}\04 Usted y su ambición.wav

     Peak level 85.1 %
     Extraction speed 2.8 X
     Track quality 99.9 %
     Test CRC 223BAC22
     Copy CRC 223BAC22
     Accurately ripped (confidence 4)  [69583290]  (AR v2)
     Copy OK

Track  5

     Filename C:\Users\Gonzalo\Downloads\Los Prisioneros - La Cultura de la Basura (1995) [FLAC] {EMI Odeon Chilena S.A. 7 98758 2}\05 Cuando te vayas.wav

     Peak level 83.0 %
     Extraction speed 3.8 X
     Track quality 100.0 %
     Test CRC 0C201E4F
     Copy CRC 0C201E4F
     Accurately ripped (confidence 4)  [B2ADADC8]  (AR v2)
     Copy OK

Track  6

     Filename C:\Users\Gonzalo\Downloads\Los Prisioneros - La Cultura de la Basura (1995) [FLAC] {EMI Odeon Chilena S.A. 7 98758 2}\06 Jugar a la guerra.wav

     Peak level 90.8 %
     Extraction speed 4.0 X
     Track quality 100.0 %
     Test CRC 4142055A
     Copy CRC 4142055A
     Accurately ripped (confidence 4)  [DE731819]  (AR v2)
     Copy OK

Track  7

     Filename C:\Users\Gonzalo\Downloads\Los Prisioneros - La Cultura de la Basura (1995) [FLAC] {EMI Odeon Chilena S.A. 7 98758 2}\07 Algo tan moderno.wav

     Peak level 92.0 %
     Extraction speed 3.6 X
     Track quality 99.9 %
     Test CRC 20AA5E80
     Copy CRC 20AA5E80
     Accurately ripped (confidence 4)  [8CD08ED1]  (AR v2)
     Copy OK

Track  8

     Filename C:\Users\Gonzalo\Downloads\Los Prisioneros - La Cultura de la Basura (1995) [FLAC] {EMI Odeon Chilena S.A. 7 98758 2}\08 Maldito sudaca.wav

     Peak level 96.4 %
     Extraction speed 2.9 X
     Track quality 99.9 %
     Test CRC 861B35DC
     Copy CRC 861B35DC
     Accurately ripped (confidence 4)  [186C428A]  (AR v2)
     Copy OK

Track  9

     Filename C:\Users\Gonzalo\Downloads\Los Prisioneros - La Cultura de la Basura (1995) [FLAC] {EMI Odeon Chilena S.A. 7 98758 2}\09 Lo estamos pasando muy bien.wav

     Peak level 85.5 %
     Extraction speed 4.7 X
     Track quality 100.0 %
     Test CRC 1F7D0EC3
     Copy CRC 1F7D0EC3
     Accurately ripped (confidence 4)  [E09AB7DC]  (AR v2)
     Copy OK

Track 10

     Filename C:\Users\Gonzalo\Downloads\Los Prisioneros - La Cultura de la Basura (1995) [FLAC] {EMI Odeon Chilena S.A. 7 98758 2}\10 Él es mi ídolo.wav

     Peak level 88.9 %
     Extraction speed 4.6 X
     Track quality 100.0 %
     Test CRC 278C0803
     Copy CRC 278C0803
     Accurately ripped (confidence 4)  [1E9CD152]  (AR v2)
     Copy OK

Track 11

     Filename C:\Users\Gonzalo\Downloads\Los Prisioneros - La Cultura de la Basura (1995) [FLAC] {EMI Odeon Chilena S.A. 7 98758 2}\11 El vals.wav

     Peak level 84.6 %
     Extraction speed 4.5 X
     Track quality 100.0 %
     Test CRC CCC9C521
     Copy CRC CCC9C521
     Accurately ripped (confidence 4)  [13381E4C]  (AR v2)
     Copy OK

Track 12

     Filename C:\Users\Gonzalo\Downloads\Los Prisioneros - La Cultura de la Basura (1995) [FLAC] {EMI Odeon Chilena S.A. 7 98758 2}\12 Otro día.wav

     Peak level 90.2 %
     Extraction speed 4.1 X
     Track quality 99.9 %
     Test CRC 8F5AC895
     Copy CRC 8F5AC895
     Accurately ripped (confidence 4)  [0A12D17D]  (AR v2)
     Copy OK

Track 13

     Filename C:\Users\Gonzalo\Downloads\Los Prisioneros - La Cultura de la Basura (1995) [FLAC] {EMI Odeon Chilena S.A. 7 98758 2}\13 Pa pa pa.wav

     Peak level 87.4 %
     Extraction speed 3.9 X
     Track quality 99.9 %
     Test CRC C6FF0A8E
     Copy CRC C6FF0A8E
     Accurately ripped (confidence 4)  [AE0F9CBB]  (AR v2)
     Copy OK

Track 14

     Filename C:\Users\Gonzalo\Downloads\Los Prisioneros - La Cultura de la Basura (1995) [FLAC] {EMI Odeon Chilena S.A. 7 98758 2}\14 Poder elegir.wav

     Peak level 82.7 %
     Extraction speed 5.0 X
     Track quality 99.9 %
     Test CRC 0031CB40
     Copy CRC 0031CB40
     Cannot be verified as accurate (confidence 4)  [C92454FB], AccurateRip returned [453A8D02]  (AR v2)
     Copy OK


13 track(s) accurately ripped
 1 track(s) could not be verified as accurate

Some tracks could not be verified as accurate

No errors occurred

End of status report

---- CUETools DB Plugin V2.1.6

[CTDB TOCID: K7qY3zDhZIAp_s51dMwSbWKP.5w-] found
Submit result: already submitted
Track | CTDB Status
  1   | (20/20) Accurately ripped
  2   | (20/20) Accurately ripped
  3   | (20/20) Accurately ripped
  4   | (20/20) Accurately ripped
  5   | (20/20) Accurately ripped
  6   | (20/20) Accurately ripped
  7   | (20/20) Accurately ripped
  8   | (20/20) Accurately ripped
  9   | (20/20) Accurately ripped
 10   | (20/20) Accurately ripped
 11   | (20/20) Accurately ripped
 12   | (20/20) Accurately ripped
 13   | (20/20) Accurately ripped
 14   | ( 1/20) Accurately ripped, or (19/20) differs in 6 samples @07:45:65
If you are sure that your rip contains errors, you can use CUETools to repair it.


==== Log checksum D93CDFC002014519D7EDE439A3CA50E165ACCA5138065AF5B62009E209481C22 ====

It would be great if someone can tell me what to do, if it's something that i have to worry about, or maybe trying to rip the CD again in another drive, i want to have a "perfect (100% acurrate)" copy of the disc. Thanks.

Re: Cannot be verified as accurate EAC

Reply #1
It's 6 samples about 19 seconds from the end of the track. I doubt you'd notice it.
You could try ripping the CD again in another drive or repair this rip with CUETools.
korth

Re: Cannot be verified as accurate EAC

Reply #2
It's 6 samples about 19 seconds from the end of the track. I doubt you'd notice it.
You could try ripping the CD again in another drive or repair this rip with CUETools.

Thanks for the answer, yeah the problem is that i want to get a log without any error, a 100% log. So i re-ripped the CD like 4 times now and still getting some issues, but i will still trying, thank you.

Re: Cannot be verified as accurate EAC

Reply #3
You could use paranoid mode. I had a CD where track 2 was never accurately ripped in secure mode. In paranoid mode it did. Use at your own risk though, as paranoid mode might damage your drive. With my drive: LG Slim Portable DVD Writer, model GP57EW40, paranoid mode was not a problem.

Re: Cannot be verified as accurate EAC

Reply #4
Thanks for the answers, i will try today with another external drive just for testing, btw i have a doubt with the meaning of the numbers that appears before the "acurrately ripped" on the CUETools section, because i ripped this CD like 6 times now, and i get different logs files example:

Wich is better here and why?:

This is the log of the post:
Code: [Select]
Exact Audio Copy V1.5 from 20. February 2020

EAC extraction logfile from 28. April 2020, 19:58

Los Prisioneros / La Cultura de la Basura

Used drive  : HL-DT-STDVDRAM GUD0N   Adapter: 1  ID: 0

Read mode               : Secure
Utilize accurate stream : Yes
Defeat audio cache      : Yes
Make use of C2 pointers : No

Read offset correction                      : 102
Overread into Lead-In and Lead-Out          : No
Fill up missing offset samples with silence : Yes
Delete leading and trailing silent blocks   : No
Null samples used in CRC calculations       : Yes
Used interface                              : Native Win32 interface for Win NT & 2000
Gap handling                                : Appended to previous track

Used output format              : User Defined Encoder
Selected bitrate                : 1024 kBit/s
Quality                         : High
Add ID3 tag                     : No
Command line compressor         : C:\Program Files (x86)\Exact Audio Copy\Flac\flac.exe
Additional command line options : -8 -e -p -V -T "ARTIST=%artist%" -T "TITLE=%title%" -T "ALBUM=%albumtitle%" -T "DATE=%year%" -T "TRACKNUMBER=%tracknr%" -T "GENRE=%genre%" -T "PERFORMER=%albuminterpret%" -T "COMPOSER=%composer%" %haslyrics%--tag-from-file=LYRICS="%lyricsfile%"%haslyrics% -T "ALBUMARTIST=%albumartist%" -T "DISCNUMBER=%cdnumber%" -T "TOTALDISCS=%totalcds%" -T "TOTALTRACKS=%numtracks%" -T "COMMENT=%comment%" %source% -o %dest%


TOC of the extracted CD

     Track |   Start  |  Length  | Start sector | End sector
    ---------------------------------------------------------
        1  |  0:00.00 |  1:23.02 |         0    |     6226  
        2  |  1:23.02 |  3:09.03 |      6227    |    20404  
        3  |  4:32.05 |  4:14.00 |     20405    |    39454  
        4  |  8:46.05 |  3:48.57 |     39455    |    56611  
        5  | 12:34.62 |  4:53.63 |     56612    |    78649  
        6  | 17:28.50 |  4:39.12 |     78650    |    99586  
        7  | 22:07.62 |  4:48.38 |     99587    |   121224  
        8  | 26:56.25 |  2:17.57 |    121225    |   131556  
        9  | 29:14.07 |  5:49.10 |    131557    |   157741  
       10  | 35:03.17 |  4:20.05 |    157742    |   177246  
       11  | 39:23.22 |  3:09.25 |    177247    |   191446  
       12  | 42:32.47 |  4:37.68 |    191447    |   212289  
       13  | 47:10.40 |  3:32.62 |    212290    |   228251  
       14  | 50:43.27 |  8:04.23 |    228252    |   264574  


Track  1

     Filename C:\Users\Gonzalo\Downloads\Los Prisioneros - La Cultura de la Basura (1995) [FLAC] {EMI Odeon Chilena S.A. 7 98758 2}\01 Somos sólo ruido.wav

     Pre-gap length  0:00:02.00

     Peak level 91.1 %
     Extraction speed 2.1 X
     Track quality 100.0 %
     Test CRC 404433C9
     Copy CRC 404433C9
     Accurately ripped (confidence 4)  [527AD087]  (AR v2)
     Copy OK

Track  2

     Filename C:\Users\Gonzalo\Downloads\Los Prisioneros - La Cultura de la Basura (1995) [FLAC] {EMI Odeon Chilena S.A. 7 98758 2}\02 La cultura de la basura.wav

     Peak level 83.6 %
     Extraction speed 2.8 X
     Track quality 100.0 %
     Test CRC 93D73B31
     Copy CRC 93D73B31
     Accurately ripped (confidence 4)  [6E76E27A]  (AR v2)
     Copy OK

Track  3

     Filename C:\Users\Gonzalo\Downloads\Los Prisioneros - La Cultura de la Basura (1995) [FLAC] {EMI Odeon Chilena S.A. 7 98758 2}\03 Que no destrocen tu vida.wav

     Peak level 96.0 %
     Extraction speed 3.2 X
     Track quality 100.0 %
     Test CRC 6663C37C
     Copy CRC 6663C37C
     Accurately ripped (confidence 4)  [50867DC1]  (AR v2)
     Copy OK

Track  4

     Filename C:\Users\Gonzalo\Downloads\Los Prisioneros - La Cultura de la Basura (1995) [FLAC] {EMI Odeon Chilena S.A. 7 98758 2}\04 Usted y su ambición.wav

     Peak level 85.1 %
     Extraction speed 2.8 X
     Track quality 99.9 %
     Test CRC 223BAC22
     Copy CRC 223BAC22
     Accurately ripped (confidence 4)  [69583290]  (AR v2)
     Copy OK

Track  5

     Filename C:\Users\Gonzalo\Downloads\Los Prisioneros - La Cultura de la Basura (1995) [FLAC] {EMI Odeon Chilena S.A. 7 98758 2}\05 Cuando te vayas.wav

     Peak level 83.0 %
     Extraction speed 3.8 X
     Track quality 100.0 %
     Test CRC 0C201E4F
     Copy CRC 0C201E4F
     Accurately ripped (confidence 4)  [B2ADADC8]  (AR v2)
     Copy OK

Track  6

     Filename C:\Users\Gonzalo\Downloads\Los Prisioneros - La Cultura de la Basura (1995) [FLAC] {EMI Odeon Chilena S.A. 7 98758 2}\06 Jugar a la guerra.wav

     Peak level 90.8 %
     Extraction speed 4.0 X
     Track quality 100.0 %
     Test CRC 4142055A
     Copy CRC 4142055A
     Accurately ripped (confidence 4)  [DE731819]  (AR v2)
     Copy OK

Track  7

     Filename C:\Users\Gonzalo\Downloads\Los Prisioneros - La Cultura de la Basura (1995) [FLAC] {EMI Odeon Chilena S.A. 7 98758 2}\07 Algo tan moderno.wav

     Peak level 92.0 %
     Extraction speed 3.6 X
     Track quality 99.9 %
     Test CRC 20AA5E80
     Copy CRC 20AA5E80
     Accurately ripped (confidence 4)  [8CD08ED1]  (AR v2)
     Copy OK

Track  8

     Filename C:\Users\Gonzalo\Downloads\Los Prisioneros - La Cultura de la Basura (1995) [FLAC] {EMI Odeon Chilena S.A. 7 98758 2}\08 Maldito sudaca.wav

     Peak level 96.4 %
     Extraction speed 2.9 X
     Track quality 99.9 %
     Test CRC 861B35DC
     Copy CRC 861B35DC
     Accurately ripped (confidence 4)  [186C428A]  (AR v2)
     Copy OK

Track  9

     Filename C:\Users\Gonzalo\Downloads\Los Prisioneros - La Cultura de la Basura (1995) [FLAC] {EMI Odeon Chilena S.A. 7 98758 2}\09 Lo estamos pasando muy bien.wav

     Peak level 85.5 %
     Extraction speed 4.7 X
     Track quality 100.0 %
     Test CRC 1F7D0EC3
     Copy CRC 1F7D0EC3
     Accurately ripped (confidence 4)  [E09AB7DC]  (AR v2)
     Copy OK

Track 10

     Filename C:\Users\Gonzalo\Downloads\Los Prisioneros - La Cultura de la Basura (1995) [FLAC] {EMI Odeon Chilena S.A. 7 98758 2}\10 Él es mi ídolo.wav

     Peak level 88.9 %
     Extraction speed 4.6 X
     Track quality 100.0 %
     Test CRC 278C0803
     Copy CRC 278C0803
     Accurately ripped (confidence 4)  [1E9CD152]  (AR v2)
     Copy OK

Track 11

     Filename C:\Users\Gonzalo\Downloads\Los Prisioneros - La Cultura de la Basura (1995) [FLAC] {EMI Odeon Chilena S.A. 7 98758 2}\11 El vals.wav

     Peak level 84.6 %
     Extraction speed 4.5 X
     Track quality 100.0 %
     Test CRC CCC9C521
     Copy CRC CCC9C521
     Accurately ripped (confidence 4)  [13381E4C]  (AR v2)
     Copy OK

Track 12

     Filename C:\Users\Gonzalo\Downloads\Los Prisioneros - La Cultura de la Basura (1995) [FLAC] {EMI Odeon Chilena S.A. 7 98758 2}\12 Otro día.wav

     Peak level 90.2 %
     Extraction speed 4.1 X
     Track quality 99.9 %
     Test CRC 8F5AC895
     Copy CRC 8F5AC895
     Accurately ripped (confidence 4)  [0A12D17D]  (AR v2)
     Copy OK

Track 13

     Filename C:\Users\Gonzalo\Downloads\Los Prisioneros - La Cultura de la Basura (1995) [FLAC] {EMI Odeon Chilena S.A. 7 98758 2}\13 Pa pa pa.wav

     Peak level 87.4 %
     Extraction speed 3.9 X
     Track quality 99.9 %
     Test CRC C6FF0A8E
     Copy CRC C6FF0A8E
     Accurately ripped (confidence 4)  [AE0F9CBB]  (AR v2)
     Copy OK

Track 14

     Filename C:\Users\Gonzalo\Downloads\Los Prisioneros - La Cultura de la Basura (1995) [FLAC] {EMI Odeon Chilena S.A. 7 98758 2}\14 Poder elegir.wav

     Peak level 82.7 %
     Extraction speed 5.0 X
     Track quality 99.9 %
     Test CRC 0031CB40
     Copy CRC 0031CB40
     Cannot be verified as accurate (confidence 4)  [C92454FB], AccurateRip returned [453A8D02]  (AR v2)
     Copy OK


13 track(s) accurately ripped
 1 track(s) could not be verified as accurate

Some tracks could not be verified as accurate

No errors occurred

End of status report

---- CUETools DB Plugin V2.1.6

[CTDB TOCID: K7qY3zDhZIAp_s51dMwSbWKP.5w-] found
Submit result: already submitted
Track | CTDB Status
  1   | (20/20) Accurately ripped
  2   | (20/20) Accurately ripped
  3   | (20/20) Accurately ripped
  4   | (20/20) Accurately ripped
  5   | (20/20) Accurately ripped
  6   | (20/20) Accurately ripped
  7   | (20/20) Accurately ripped
  8   | (20/20) Accurately ripped
  9   | (20/20) Accurately ripped
 10   | (20/20) Accurately ripped
 11   | (20/20) Accurately ripped
 12   | (20/20) Accurately ripped
 13   | (20/20) Accurately ripped
 14   | ( 1/20) Accurately ripped, or (19/20) differs in 6 samples @07:45:65
If you are sure that your rip contains errors, you can use CUETools to repair it.


==== Log checksum D93CDFC002014519D7EDE439A3CA50E165ACCA5138065AF5B62009E209481C22 ====

This is one of the new logs:
Code: [Select]
Exact Audio Copy V1.5 from 20. February 2020

EAC extraction logfile from 30. April 2020, 2:39

Los Prisioneros / La Cultura de la Basura

Used drive  : HL-DT-STDVDRAM GUD0N   Adapter: 1  ID: 0

Read mode               : Secure
Utilize accurate stream : Yes
Defeat audio cache      : Yes
Make use of C2 pointers : No

Read offset correction                      : 102
Overread into Lead-In and Lead-Out          : No
Fill up missing offset samples with silence : Yes
Delete leading and trailing silent blocks   : No
Null samples used in CRC calculations       : Yes
Used interface                              : Native Win32 interface for Win NT & 2000
Gap handling                                : Appended to previous track

Used output format              : User Defined Encoder
Selected bitrate                : 1024 kBit/s
Quality                         : High
Add ID3 tag                     : No
Command line compressor         : C:\Program Files (x86)\Exact Audio Copy\Flac\flac.exe
Additional command line options : -8 -e -p -V -T "ARTIST=%artist%" -T "TITLE=%title%" -T "ALBUM=%albumtitle%" -T "DATE=%year%" -T "TRACKNUMBER=%tracknr%" -T "GENRE=%genre%" -T "PERFORMER=%albuminterpret%" -T "COMPOSER=%composer%" %haslyrics%--tag-from-file=LYRICS="%lyricsfile%"%haslyrics% -T "ALBUMARTIST=%albumartist%" -T "DISCNUMBER=%cdnumber%" -T "TOTALDISCS=%totalcds%" -T "TOTALTRACKS=%numtracks%" -T "COMMENT=%comment%" %source% -o %dest%


TOC of the extracted CD

     Track |   Start  |  Length  | Start sector | End sector
    ---------------------------------------------------------
        1  |  0:00.00 |  1:23.02 |         0    |     6226  
        2  |  1:23.02 |  3:09.03 |      6227    |    20404  
        3  |  4:32.05 |  4:14.00 |     20405    |    39454  
        4  |  8:46.05 |  3:48.57 |     39455    |    56611  
        5  | 12:34.62 |  4:53.63 |     56612    |    78649  
        6  | 17:28.50 |  4:39.12 |     78650    |    99586  
        7  | 22:07.62 |  4:48.38 |     99587    |   121224  
        8  | 26:56.25 |  2:17.57 |    121225    |   131556  
        9  | 29:14.07 |  5:49.10 |    131557    |   157741  
       10  | 35:03.17 |  4:20.05 |    157742    |   177246  
       11  | 39:23.22 |  3:09.25 |    177247    |   191446  
       12  | 42:32.47 |  4:37.68 |    191447    |   212289  
       13  | 47:10.40 |  3:32.62 |    212290    |   228251  
       14  | 50:43.27 |  8:04.23 |    228252    |   264574  


Track  1

     Filename C:\Users\Gonzalo\Documents\Los Prisioneros - La Cultura de la Basura (1995)\01 Somos sólo ruido.wav

     Pre-gap length  0:00:02.00

     Peak level 91.1 %
     Extraction speed 2.1 X
     Track quality 100.0 %
     Test CRC 404433C9
     Copy CRC 404433C9
     Accurately ripped (confidence 4)  [527AD087]  (AR v2)
     Copy OK

Track  2

     Filename C:\Users\Gonzalo\Documents\Los Prisioneros - La Cultura de la Basura (1995)\02 La cultura de la basura.wav

     Peak level 83.6 %
     Extraction speed 2.8 X
     Track quality 100.0 %
     Test CRC 93D73B31
     Copy CRC 93D73B31
     Accurately ripped (confidence 4)  [6E76E27A]  (AR v2)
     Copy OK

Track  3

     Filename C:\Users\Gonzalo\Documents\Los Prisioneros - La Cultura de la Basura (1995)\03 Que no destrocen tu vida.wav

     Peak level 96.0 %
     Extraction speed 3.2 X
     Track quality 100.0 %
     Test CRC 6663C37C
     Copy CRC 6663C37C
     Accurately ripped (confidence 4)  [50867DC1]  (AR v2)
     Copy OK

Track  4

     Filename C:\Users\Gonzalo\Documents\Los Prisioneros - La Cultura de la Basura (1995)\04 Usted y su ambición.wav

     Peak level 85.1 %
     Extraction speed 2.8 X
     Track quality 99.9 %
     Test CRC 223BAC22
     Copy CRC 223BAC22
     Accurately ripped (confidence 4)  [69583290]  (AR v2)
     Copy OK

Track  5

     Filename C:\Users\Gonzalo\Documents\Los Prisioneros - La Cultura de la Basura (1995)\05 Cuando te vayas.wav

     Peak level 83.0 %
     Extraction speed 3.8 X
     Track quality 100.0 %
     Test CRC 0C201E4F
     Copy CRC 0C201E4F
     Accurately ripped (confidence 4)  [B2ADADC8]  (AR v2)
     Copy OK

Track  6

     Filename C:\Users\Gonzalo\Documents\Los Prisioneros - La Cultura de la Basura (1995)\06 Jugar a la guerra.wav

     Peak level 90.8 %
     Extraction speed 4.0 X
     Track quality 100.0 %
     Test CRC 4142055A
     Copy CRC 4142055A
     Accurately ripped (confidence 4)  [DE731819]  (AR v2)
     Copy OK

Track  7

     Filename C:\Users\Gonzalo\Documents\Los Prisioneros - La Cultura de la Basura (1995)\07 Algo tan moderno.wav

     Peak level 92.0 %
     Extraction speed 3.6 X
     Track quality 99.9 %
     Test CRC 20AA5E80
     Copy CRC 20AA5E80
     Accurately ripped (confidence 4)  [8CD08ED1]  (AR v2)
     Copy OK

Track  8

     Filename C:\Users\Gonzalo\Documents\Los Prisioneros - La Cultura de la Basura (1995)\08 Maldito sudaca.wav

     Peak level 96.4 %
     Extraction speed 2.9 X
     Track quality 99.9 %
     Test CRC 861B35DC
     Copy CRC 861B35DC
     Accurately ripped (confidence 4)  [186C428A]  (AR v2)
     Copy OK

Track  9

     Filename C:\Users\Gonzalo\Documents\Los Prisioneros - La Cultura de la Basura (1995)\09 Lo estamos pasando muy bien.wav

     Peak level 85.5 %
     Extraction speed 4.7 X
     Track quality 100.0 %
     Test CRC 1F7D0EC3
     Copy CRC 1F7D0EC3
     Accurately ripped (confidence 4)  [E09AB7DC]  (AR v2)
     Copy OK

Track 10

     Filename C:\Users\Gonzalo\Documents\Los Prisioneros - La Cultura de la Basura (1995)\10 Él es mi ídolo.wav

     Peak level 88.9 %
     Extraction speed 4.6 X
     Track quality 100.0 %
     Test CRC 278C0803
     Copy CRC 278C0803
     Accurately ripped (confidence 4)  [1E9CD152]  (AR v2)
     Copy OK

Track 11

     Filename C:\Users\Gonzalo\Documents\Los Prisioneros - La Cultura de la Basura (1995)\11 El vals.wav

     Peak level 84.6 %
     Extraction speed 4.5 X
     Track quality 100.0 %
     Test CRC CCC9C521
     Copy CRC CCC9C521
     Accurately ripped (confidence 4)  [13381E4C]  (AR v2)
     Copy OK

Track 12

     Filename C:\Users\Gonzalo\Documents\Los Prisioneros - La Cultura de la Basura (1995)\12 Otro día.wav

     Peak level 90.2 %
     Extraction speed 4.1 X
     Track quality 99.9 %
     Test CRC 8F5AC895
     Copy CRC 8F5AC895
     Accurately ripped (confidence 4)  [0A12D17D]  (AR v2)
     Copy OK

Track 13

     Filename C:\Users\Gonzalo\Documents\Los Prisioneros - La Cultura de la Basura (1995)\13 Pa pa pa.wav

     Peak level 87.4 %
     Extraction speed 3.9 X
     Track quality 99.9 %
     Test CRC C6FF0A8E
     Copy CRC C6FF0A8E
     Accurately ripped (confidence 4)  [AE0F9CBB]  (AR v2)
     Copy OK

Track 14

     Filename C:\Users\Gonzalo\Documents\Los Prisioneros - La Cultura de la Basura (1995)\14 Poder elegir.wav

     Peak level 82.7 %
     Extraction speed 4.4 X
     Track quality 99.9 %
     Test CRC 4CCC1762
     Copy CRC 4CCC1762
     Cannot be verified as accurate (confidence 4)  [0EEABF78], AccurateRip returned [453A8D02]  (AR v2)
     Copy OK


13 track(s) accurately ripped
 1 track(s) could not be verified as accurate

Some tracks could not be verified as accurate

No errors occurred

End of status report

---- CUETools DB Plugin V2.1.6

[CTDB TOCID: K7qY3zDhZIAp_s51dMwSbWKP.5w-] found
Submit result: K7qY3zDhZIAp_s51dMwSbWKP.5w- has been submitted
Track | CTDB Status
  1   | (20/20) Accurately ripped
  2   | (20/20) Accurately ripped
  3   | (20/20) Accurately ripped
  4   | (20/20) Accurately ripped
  5   | (20/20) Accurately ripped
  6   | (20/20) Accurately ripped
  7   | (20/20) Accurately ripped
  8   | (20/20) Accurately ripped
  9   | (20/20) Accurately ripped
 10   | (20/20) Accurately ripped
 11   | (20/20) Accurately ripped
 12   | (20/20) Accurately ripped
 13   | (20/20) Accurately ripped
 14   | (19/20) Differs in 6 samples @07:28:44
If you are sure that your rip contains errors, you can use CUETools to repair it.


==== Log checksum BF00024B23A50E072ACC04BBE2EABF3E96D492FCA62DC7A336DA9FAB95083D79 ====

Thanks.

Re: Cannot be verified as accurate EAC

Reply #5
AccurateRip can take up to 60 days to update (EAC cycle + AccurateRip cycle). CTDB updates immediately.

Code: [Select]
[CTDB TOCID: K7qY3zDhZIAp_s51dMwSbWKP.5w-] found
Submit result: already submitted <<<<<<
Track | CTDB Status
[...]
14   | ( 1/20) Accurately ripped
( 1/20) is your own rip previously submitted and (19/20) are rips by other people that differ by 6 samples

Code: [Select]
Submit result: K7qY3zDhZIAp_s51dMwSbWKP.5w- has been submitted
You've now made a second unique submission so if no one else rips this CD, your next attempt could show (1/21) by you or (1/21) by you and/or (19/21) by other people for track 14.

Quote
Wich is better here and why?
Both differ from other rips (that are not yours) in CTDB by 6 samples and neither match what is currently in the AccurateRip DB.

Code: [Select]
Track 14
[...]
     Copy CRC 0031CB40
     Cannot be verified as accurate (confidence 4)  [C92454FB], AccurateRip returned [453A8D02]  (AR v2)
Code: [Select]
Track 14
[...]
     Copy CRC 4CCC1762
     Cannot be verified as accurate (confidence 4)  [0EEABF78], AccurateRip returned [453A8D02]  (AR v2)
korth

 
SimplePortal 1.0.0 RC1 © 2008-2021