Skip to main content

Notice

Please note that most of the software linked on this forum is likely to be safe to use. If you are unsure, feel free to ask in the relevant topics, or send a private message to an administrator or moderator. To help curb the problems of false positives, or in the event that you do find actual malware, you can contribute through the article linked here.
Topic: What is wrong with this CUE file? (Read 268 times) previous topic - next topic
0 Members and 1 Guest are viewing this topic.

What is wrong with this CUE file?

So I got error with Foobar 2000, in the past, to fix this kind of error, I simply renamed the file "  " to file "CDImage.wav" WAVE and it'll work.  This time, it doesn't work

and I notice the cue file has some Flags DCP on it.  So I also remove the first 5, same thing.

I then compare this CUE file to other cue files, it looks the same.  Can anyone help?



==========================================================


PERFORMER "ÁÖÒäÁ«"
TITLE "ÁÖÒäÁ«¾«Ñ¡I»ØÒä×ÜÊÇÌøÔ¾µÄ"
FILE "ÁÖÒäÁ«¡¾ÁÖÒäÁ«¾«Ñ¡I»ØÒä×ÜÊÇÌøÔ¾µÄ¡¿×¨¼­.wav" WAVE
  TRACK 01 AUDIO
    TITLE "Track01"
    PERFORMER "ÁÖÒäÁ«"
    REM COMMENT À¶Ä§Ö®ÀáÊÕ²Ø
    INDEX 01 00:00:00
  TRACK 02 AUDIO
    TITLE "Track02"
    PERFORMER "ÁÖÒäÁ«"
    REM COMMENT À¶Ä§Ö®ÀáÊÕ²Ø
    FLAGS DCP
    INDEX 00 06:02:72
    INDEX 01 06:06:62
  TRACK 03 AUDIO
    TITLE "Track03"
    PERFORMER "ÁÖÒäÁ«"
    REM COMMENT À¶Ä§Ö®ÀáÊÕ²Ø
    FLAGS DCP
    INDEX 00 11:18:35
    INDEX 01 11:22:25
  TRACK 04 AUDIO
    TITLE "Track04"
    PERFORMER "ÁÖÒäÁ«"
    REM COMMENT À¶Ä§Ö®ÀáÊÕ²Ø
    FLAGS DCP
    INDEX 00 15:34:60
    INDEX 01 15:38:50
  TRACK 05 AUDIO
    TITLE "Track05"
    PERFORMER "ÁÖÒäÁ«"
    REM COMMENT À¶Ä§Ö®ÀáÊÕ²Ø
    FLAGS DCP
    INDEX 00 21:53:22
    INDEX 01 21:57:12
  TRACK 06 AUDIO
    TITLE "Track06"
    PERFORMER "ÁÖÒäÁ«"
    REM COMMENT À¶Ä§Ö®ÀáÊÕ²Ø
    FLAGS DCP
    INDEX 00 27:10:60
    INDEX 01 27:14:50
  TRACK 07 AUDIO
    TITLE "Track07"
    PERFORMER "ÁÖÒäÁ«"
    REM COMMENT À¶Ä§Ö®ÀáÊÕ²Ø
    FLAGS DCP
    INDEX 00 32:20:35
    INDEX 01 32:24:25
  TRACK 08 AUDIO
    TITLE "Track08"
    PERFORMER "ÁÖÒäÁ«"
    REM COMMENT À¶Ä§Ö®ÀáÊÕ²Ø
    FLAGS DCP
    INDEX 00 38:49:47
    INDEX 01 38:53:37
  TRACK 09 AUDIO
    TITLE "Track09"
    PERFORMER "ÁÖÒäÁ«"
    REM COMMENT À¶Ä§Ö®ÀáÊÕ²Ø
    FLAGS DCP
    INDEX 00 43:10:60
    INDEX 01 43:14:50
  TRACK 10 AUDIO
    TITLE "Track10"
    PERFORMER "ÁÖÒäÁ«"
    REM COMMENT À¶Ä§Ö®ÀáÊÕ²Ø
    FLAGS DCP
    INDEX 00 48:42:35
    INDEX 01 48:46:25
  TRACK 11 AUDIO
    TITLE "Track11"
    PERFORMER "ÁÖÒäÁ«"
    REM COMMENT À¶Ä§Ö®ÀáÊÕ²Ø
    FLAGS DCP
    INDEX 00 53:43:22
    INDEX 01 53:47:12

Re: What is wrong with this CUE file?

Reply #1
Use Notepad++ to select the same encoding of whatever language locale it was most likely encoded in (if you have an idea of where that is), and then convert the encoding to UTF-8-BOM.