Skip to main content

Notice

Please note that most of the software linked on this forum is likely to be safe to use. If you are unsure, feel free to ask in the relevant topics, or send a private message to an administrator or moderator. To help curb the problems of false positives, or in the event that you do find actual malware, you can contribute through the article linked here.
Topic: looking for a free cue sheet editor (Read 3680 times) previous topic - next topic
0 Members and 1 Guest are viewing this topic.

looking for a free cue sheet editor

hi
i'm looking for a free cue sheet editor ,that let me add all the redbook flags like  pre-emphasis
in short all the flags and a full editor of cue sheet files

i burn my cd with imgburn or anyburn

thanks

Re: looking for a free cue sheet editor

Reply #1
Windows Notepad or Notepad++ work just fine.

Re: looking for a free cue sheet editor

Reply #2
Windows Notepad or Notepad++ work just fine.
Hi Chibisteven
I'm not familiar with cue sheet , i mean gaps , pre gaps , pre-emphasis and other flags included in the red book like  ISRC, EAN/UPC & pre-emphasis

is there not a cue program free?
thanks



 

Re: looking for a free cue sheet editor

Reply #6
Need some help with a use-case scenario:

A cue sheet with 41 tracks - referencing a 122 min file - needs to be edited to remove the first track.
Removing this track should reset all subsequent tracks (track number and Index times) based on the second track Index time.

Example:

  TRACK 01 AUDIO
    PERFORMER "unknown"
    TITLE "Talking Machine (Cleveland City)"
    INDEX 01 00:00:00
  TRACK 02 AUDIO
    PERFORMER "Daft Punk"
    TITLE "WDPK 1999 Greetings"
    INDEX 01 01:30:00
  TRACK 03 AUDIO
    PERFORMER "Basement Jaxx"
    TITLE "Rendez Vu"
    INDEX 01 02:22:40
...

becomes

  TRACK 01 AUDIO
    PERFORMER "Daft Punk"
    TITLE "WDPK 1999 Greetings"
    INDEX 01 00:00:00
  TRACK 02 AUDIO
    PERFORMER "Basement Jaxx"
    TITLE "Rendez Vu"
    INDEX 01 00:52:40
...

The only way I've been able to make new versions of cue sheets with similar such changes has been to do so manually in Notepad++. An automatic way to do this with a program would be so much faster. Does anyone know if such a tool exists?

Re: looking for a free cue sheet editor

Reply #7
The only way I've been able to make new versions of cue sheets with similar such changes has been to do so manually in Notepad++. An automatic way to do this with a program would be so much faster. Does anyone know if such a tool exists?
 
 

Here for more: https://hydrogenaud.io/index.php?topic=113116.msg989889#msg989889

Since you didn't qualify a free in there, there's Jukebox 2112.  This is how I just did it, in five pics.  Before and after .cue listings follows these pics.










Before:

TITLE "梁素琴粤曲专辑1"
PERFORMER "Various"
REM DATE 2011
REM GENRE "粤剧"
FILE "Various-梁素琴粤曲专辑1.wav" WAVE
  TRACK 01 AUDIO
    TITLE "荆钗记"
    PERFORMER "梁之洁 梁素琴"
    INDEX 01 0:00:00
  TRACK 02 AUDIO
    TITLE "玉梨魂"
    PERFORMER "梁佩雯 梁素琴"
    INDEX 01 25:30:25

After:

TITLE "梁素琴粤曲专辑1"
PERFORMER "Various"
REM DATE 2011
REM GENRE "粤剧"
FILE "cue_now_1_track-梁素琴粤曲专辑1_.wav" WAVE
  TRACK 01 AUDIO
    TITLE "玉梨魂"
    PERFORMER "梁佩雯 梁素琴"
    INDEX 01 0:00:00


Re: looking for a free cue sheet editor

Reply #8
Thanks for the info. Good to know and it's doable and indeed your product supports it.

Re: looking for a free cue sheet editor

Reply #9
I found a free one that does what I need, plus some other handy functions:

QeD: The Ultimate Liveset Cuesheet Editor.

It requires Java Runtime Environment, which I had recently uninstalled, but reinstalled without any issues.

 
SimplePortal 1.0.0 RC1 © 2008-2021