Skip to main content

Topic: CUETools versions 1.9.5 through 2.1.5 (current) (Read 1362458 times) previous topic - next topic

0 Members and 1 Guest are viewing this topic.
  • Porcus
  • [*][*][*][*][*]
Re: CUETools versions 1.9.5 through 2.1.5 (current)
Reply #2900
I have mentioned this before I think, but never uploaded it. A sample of probably some of the worst few seconds that CUETools ever repaired: https://hydrogenaud.io/index.php/topic,113978.new.html

  • NetRanger
  • [*][*][*]
Re: CUETools versions 1.9.5 through 2.1.5 (current)
Reply #2901
A little 'request'...... what about making it possible to use a FLAC Binary with this great tool of yours Gregory.

  • korth
  • [*][*][*][*][*]
Re: CUETools versions 1.9.5 through 2.1.5 (current)
Reply #2902
korth

  • NetRanger
  • [*][*][*]
Re: CUETools versions 1.9.5 through 2.1.5 (current)
Reply #2903
Thnx for the reminder korth. Totally forgot about that.

  • madmalkav
  • [*]
Re: CUETools versions 1.9.5 through 2.1.5 (current)
Reply #2904
Anything I can do for Cueripper to write unicode filenames on the CUE? The filenames are OK after I found the tip about editing settings.txt in %appdata% and changed the ANSI safe filename param to 0 but the CUE still uses ANSI.  If I load the flac files on Cuetools and generate CUE then it have proper unicode filenames inside.
  • Last Edit: 10 May, 2017, 12:12:35 PM by madmalkav

  • Lexeremo
  • [*]
Re: CUETools versions 1.9.5 through 2.1.5 (current)
Reply #2905
I'm getting the error "Exception: First index must start at file beginning"

Please help me =(

Quote
REM GENRE Game
REM DATE 2009
REM DISCID A910410D
REM COMMENT "ExactAudioCopy v0.99pb5"
PERFORMER "EastNewSound"
TITLE "Sacred Factor"
FILE "Sacred Factor.tta" WAVE
  TRACK 01 AUDIO
    TITLE "song for bird"
    PERFORMER "リツカ"
    INDEX 01 00:02:00
  TRACK 02 AUDIO
    TITLE "Your Color"
    PERFORMER "Cryu"
    INDEX 01 04:55:08
  TRACK 03 AUDIO
    TITLE "Lucid Dream"
    PERFORMER "茶太"
    INDEX 01 10:45:40

  • korth
  • [*][*][*][*][*]
Re: CUETools versions 1.9.5 through 2.1.5 (current)
Reply #2906
The file should begin at 00:00:00
Track 01 begins at 00:02:00

Add INDEX 00 00:00:00 to show where the file begins.
Quote
FILE "Sacred Factor.tta" WAVE
  TRACK 01 AUDIO
    TITLE "song for bird"
    PERFORMER "リツカ"
    INDEX 00 00:00:00
    INDEX 01 00:02:00
korth

  • hydrogenate
  • [*][*]
Re: CUETools versions 1.9.5 through 2.1.5 (current)
Reply #2907
Sorry, posted in wrong section.  :-[ 
  • Last Edit: 30 June, 2017, 09:42:26 AM by hydrogenate

  • Coreda
  • [*][*][*][*]
Re: CUETools versions 1.9.5 through 2.1.5 (current)
Reply #2908
So this has been an issue for a little while (perhaps six months?), metadata sourced from Discogs now adds a space and comma character after the Artist tag, despite it not displaying as such in the CUERipper UI.

So it will display as say, The Beatles in the CUERipper UI, but when ripped it will output to The Beatles , - which will include directories and filenames if that's part of the user's output template.

Using v2.1.5

  • Cellfish
  • [*]
Re: CUETools versions 1.9.5 through 2.1.5 (current)
Reply #2909
Thank you for making CUETools.  I love it, and use it all the time :)


Re: CUETools versions 1.9.5 through 2.1.5 (current)
Reply #2910
Hi !
It seems that the sync between CTDB and musicbrainz is down again.
 ( probably because of : https://blog.musicbrainz.org/2017/05/16/schema-change-release-2017-05-15-including-upgrade-instructions/ )

Is it possible to have a look ?

Best Regard, and thanks for your work :D

  • Porcus
  • [*][*][*][*][*]
Re: CUETools versions 1.9.5 through 2.1.5 (current)
Reply #2911
A bug-ish behaviour that may be known:

When there is already a CDTOC, CUETools may sometimes write a second one. And I will have e.g.
11+96+4D77+B2EB+10223+186D4+1F433+26051+2BBDA+30844+3461B+3737B+38B30+3C070+3DEBE+42930+48EA4+4F095+55115; 11+96+4D77+B2EB+10223+186D4+1F433+26051+2BBDA+30844+3461B+3737B+38B30+3C070+3DEBE+42930+48EA4+4F095+55115
note: both are equal
- and next time I try to verify, CUETools refuses to recognize that track as part of the CD with the others.

Suggestion: if the CDTOC-to-be-written is the same as one already present, do not write.

Re: CUETools versions 1.9.5 through 2.1.5 (current)
Reply #2912
As reported on this user talk page, the wiki page CUETools Download may need to be updated.

(by the way, this thread's first post needs to be updated too :)