Skip to main content

Notice

Please note that most of the software linked on this forum is likely to be safe to use. If you are unsure, feel free to ask in the relevant topics, or send a private message to an administrator or moderator. To help curb the problems of false positives, or in the event that you do find actual malware, you can contribute through the article linked here.
Topic: Installed latest version of EAC/LAME, still having trouble encoding. (Read 2046 times) previous topic - next topic
0 Members and 1 Guest are viewing this topic.

Installed latest version of EAC/LAME, still having trouble encoding.

I have the the latest versions of EAC and LAME installed EAC is working, it seems to be quite abit faster than my old version.  When EAC finishes with a file the LAME window does open now but it is only open for a second and closes again.  When I go into my music and check the cd I ripped the files are WAV.  I have included a copy of the log for the rip.

Code: [Select]
EAC extraction logfile from 30. March 2009, 17:48

Switchfoot / The Beautiful Letdown

Used drive  : HL-DT-STRW/DVD GCC-4482B  Adapter: 4  ID: 0

Read mode              : Secure
Utilize accurate stream : Yes
Defeat audio cache      : No
Make use of C2 pointers : Yes

Read offset correction                      : 6
Overread into Lead-In and Lead-Out          : No
Fill up missing offset samples with silence : Yes
Delete leading and trailing silent blocks  : No
Null samples used in CRC calculations      : Yes
Used interface                              : Native Win32 interface for Win NT & 2000
Gap handling                                : Not detected, thus appended to previous track

Used output format              : User Defined Encoder
Selected bitrate                : 128 kBit/s
Quality                        : High
Add ID3 tag                    : Yes
Command line compressor        : C:\Program Files\Exact Audio Copy\lame3.98.2\lame.exe
Additional command line options : -v 2 --vbr-new %s %d


TOC of the extracted CD

    Track |  Start  |  Length  | Start sector | End sector
    ---------------------------------------------------------
        1  |  0:00.00 |  3:20.42 |        0    |    15041 
        2  |  3:20.42 |  4:18.15 |    15042    |    34406 
        3  |  7:38.57 |  4:15.05 |    34407    |    53536 
        4  | 11:53.62 |  3:46.15 |    53537    |    70501 
        5  | 15:40.02 |  4:08.73 |    70502    |    89174 
        6  | 19:49.00 |  3:06.62 |    89175    |  103186 
        7  | 22:55.62 |  5:21.20 |    103187    |  127281 
        8  | 28:17.07 |  3:45.63 |    127282    |  144219 
        9  | 32:02.70 |  4:39.32 |    144220    |  165176 
      10  | 36:42.27 |  2:50.45 |    165177    |  177971 
      11  | 39:32.72 |  4:52.28 |    177972    |  199899 


Track  1

    Filename C:\Documents and Settings\Compaq_Owner\My Documents\My Music\Switchfoot\The Beautiful Letdown\Meant To Live.wav

    Peak level 98.8 %
    Track quality 100.0 %
    Copy CRC 305AEAA3
    Accurately ripped (confidence 85)  [D25A3627]
    Copy OK

Track  2

    Filename C:\Documents and Settings\Compaq_Owner\My Documents\My Music\Switchfoot\The Beautiful Letdown\This Is Your Life.wav

    Peak level 98.8 %
    Track quality 100.0 %
    Copy CRC 195282D6
    Accurately ripped (confidence 77)  [F27D8D67]
    Copy OK

Track  3

    Filename C:\Documents and Settings\Compaq_Owner\My Documents\My Music\Switchfoot\The Beautiful Letdown\More Than Fine.wav

    Peak level 98.8 %
    Track quality 100.0 %
    Copy CRC F4CADA32
    Accurately ripped (confidence 77)  [DC2BFEEA]
    Copy OK

Track  4

    Filename C:\Documents and Settings\Compaq_Owner\My Documents\My Music\Switchfoot\The Beautiful Letdown\Ammunition.wav

    Peak level 98.8 %
    Track quality 100.0 %
    Copy CRC AD8479FB
    Accurately ripped (confidence 76)  [D6D066AD]
    Copy OK

Track  5

    Filename C:\Documents and Settings\Compaq_Owner\My Documents\My Music\Switchfoot\The Beautiful Letdown\Dare You To Move.wav

    Peak level 100.0 %
    Track quality 100.0 %
    Copy CRC 3CFDE1F5
    Accurately ripped (confidence 75)  [47B3B20D]
    Copy OK

Track  6

    Filename C:\Documents and Settings\Compaq_Owner\My Documents\My Music\Switchfoot\The Beautiful Letdown\Redemption.wav

    Peak level 98.8 %
    Track quality 100.0 %
    Copy CRC A46C1E5A
    Accurately ripped (confidence 77)  [E8B0F3AB]
    Copy OK

Track  7

    Filename C:\Documents and Settings\Compaq_Owner\My Documents\My Music\Switchfoot\The Beautiful Letdown\The Beautiful Letdown.wav

    Peak level 98.8 %
    Track quality 100.0 %
    Copy CRC 1C96D8F7
    Accurately ripped (confidence 75)  [36AF5DA0]
    Copy OK

Track  8

    Filename C:\Documents and Settings\Compaq_Owner\My Documents\My Music\Switchfoot\The Beautiful Letdown\Gone.wav

    Peak level 98.8 %
    Track quality 100.0 %
    Copy CRC 596CF307
    Accurately ripped (confidence 76)  [E8EF57D0]
    Copy OK

Track  9

    Filename C:\Documents and Settings\Compaq_Owner\My Documents\My Music\Switchfoot\The Beautiful Letdown\On Fire.wav

    Peak level 98.8 %
    Track quality 100.0 %
    Copy CRC 8984E21F
    Accurately ripped (confidence 76)  [8F69D78E]
    Copy OK

Track 10

    Filename C:\Documents and Settings\Compaq_Owner\My Documents\My Music\Switchfoot\The Beautiful Letdown\Adding To The Noise.wav

    Peak level 98.8 %
    Track quality 100.0 %
    Copy CRC BD263A06
    Accurately ripped (confidence 76)  [EC04CA5C]
    Copy OK

Track 11

    Filename C:\Documents and Settings\Compaq_Owner\My Documents\My Music\Switchfoot\The Beautiful Letdown\Twenty-Four.wav

    Peak level 98.8 %
    Track quality 100.0 %
    Copy CRC 17E9D031
    Accurately ripped (confidence 75)  [4587489D]
    Copy OK


All tracks accurately ripped

No errors occurred

End of status report

------------------------------------------------------------

Exact Audio Copy V0.99 prebeta 4 from 23. January 2008

EAC extraction logfile from 30. March 2009, 17:48

Switchfoot / The Beautiful Letdown

Used drive  : HL-DT-STRW/DVD GCC-4482B  Adapter: 4  ID: 0

Read mode              : Secure
Utilize accurate stream : Yes
Defeat audio cache      : No
Make use of C2 pointers : Yes

Read offset correction                      : 6
Overread into Lead-In and Lead-Out          : No
Fill up missing offset samples with silence : Yes
Delete leading and trailing silent blocks  : No
Null samples used in CRC calculations      : Yes
Used interface                              : Native Win32 interface for Win NT & 2000
Gap handling                                : Not detected, thus appended to previous track

Used output format              : User Defined Encoder
Selected bitrate                : 128 kBit/s
Quality                        : High
Add ID3 tag                    : Yes
Command line compressor        : C:\Program Files\Exact Audio Copy\lame3.98.2\lame.exe
Additional command line options : -v 2 --vbr-new %s %d


TOC of the extracted CD

    Track |  Start  |  Length  | Start sector | End sector
    ---------------------------------------------------------
        1  |  0:00.00 |  3:20.42 |        0    |    15041 
        2  |  3:20.42 |  4:18.15 |    15042    |    34406 
        3  |  7:38.57 |  4:15.05 |    34407    |    53536 
        4  | 11:53.62 |  3:46.15 |    53537    |    70501 
        5  | 15:40.02 |  4:08.73 |    70502    |    89174 
        6  | 19:49.00 |  3:06.62 |    89175    |  103186 
        7  | 22:55.62 |  5:21.20 |    103187    |  127281 
        8  | 28:17.07 |  3:45.63 |    127282    |  144219 
        9  | 32:02.70 |  4:39.32 |    144220    |  165176 
      10  | 36:42.27 |  2:50.45 |    165177    |  177971 
      11  | 39:32.72 |  4:52.28 |    177972    |  199899 


Track  1

    Filename C:\Documents and Settings\Compaq_Owner\My Documents\My Music\Switchfoot\The Beautiful Letdown\Meant To Live.wav

    Peak level 98.8 %
    Track quality 100.0 %
    Copy CRC 305AEAA3
    Accurately ripped (confidence 85)  [D25A3627]
    Copy OK

Track  2

    Filename C:\Documents and Settings\Compaq_Owner\My Documents\My Music\Switchfoot\The Beautiful Letdown\This Is Your Life.wav

    Peak level 98.8 %
    Track quality 100.0 %
    Copy CRC 195282D6
    Accurately ripped (confidence 77)  [F27D8D67]
    Copy OK

Track  3

    Filename C:\Documents and Settings\Compaq_Owner\My Documents\My Music\Switchfoot\The Beautiful Letdown\More Than Fine.wav

    Peak level 98.8 %
    Track quality 100.0 %
    Copy CRC F4CADA32
    Accurately ripped (confidence 77)  [DC2BFEEA]
    Copy OK

Track  4

    Filename C:\Documents and Settings\Compaq_Owner\My Documents\My Music\Switchfoot\The Beautiful Letdown\Ammunition.wav

    Peak level 98.8 %
    Track quality 100.0 %
    Copy CRC AD8479FB
    Accurately ripped (confidence 76)  [D6D066AD]
    Copy OK

Track  5

    Filename C:\Documents and Settings\Compaq_Owner\My Documents\My Music\Switchfoot\The Beautiful Letdown\Dare You To Move.wav

    Peak level 100.0 %
    Track quality 100.0 %
    Copy CRC 3CFDE1F5
    Accurately ripped (confidence 75)  [47B3B20D]
    Copy OK

Track  6

    Filename C:\Documents and Settings\Compaq_Owner\My Documents\My Music\Switchfoot\The Beautiful Letdown\Redemption.wav

    Peak level 98.8 %
    Track quality 100.0 %
    Copy CRC A46C1E5A
    Accurately ripped (confidence 77)  [E8B0F3AB]
    Copy OK

Track  7

    Filename C:\Documents and Settings\Compaq_Owner\My Documents\My Music\Switchfoot\The Beautiful Letdown\The Beautiful Letdown.wav

    Peak level 98.8 %
    Track quality 100.0 %
    Copy CRC 1C96D8F7
    Accurately ripped (confidence 75)  [36AF5DA0]
    Copy OK

Track  8

    Filename C:\Documents and Settings\Compaq_Owner\My Documents\My Music\Switchfoot\The Beautiful Letdown\Gone.wav

    Peak level 98.8 %
    Track quality 100.0 %
    Copy CRC 596CF307
    Accurately ripped (confidence 76)  [E8EF57D0]
    Copy OK

Track  9

    Filename C:\Documents and Settings\Compaq_Owner\My Documents\My Music\Switchfoot\The Beautiful Letdown\On Fire.wav

    Peak level 98.8 %
    Track quality 100.0 %
    Copy CRC 8984E21F
    Accurately ripped (confidence 76)  [8F69D78E]
    Copy OK

Track 10

    Filename C:\Documents and Settings\Compaq_Owner\My Documents\My Music\Switchfoot\The Beautiful Letdown\Adding To The Noise.wav

    Peak level 98.8 %
    Track quality 100.0 %
    Copy CRC BD263A06
    Accurately ripped (confidence 76)  [EC04CA5C]
    Copy OK

Track 11

    Filename C:\Documents and Settings\Compaq_Owner\My Documents\My Music\Switchfoot\The Beautiful Letdown\Twenty-Four.wav

    Peak level 98.8 %
    Track quality 100.0 %
    Copy CRC 17E9D031
    Accurately ripped (confidence 75)  [4587489D]
    Copy OK


All tracks accurately ripped

No errors occurred

End of status report
[!--sizeo:1--][span style=\"font-size:8pt;line-height:100%\"][!--/sizeo--]Moderation: Placed log in a codebox, changed topic title (this is a public forum and there are others besides myself who are more than qualified to help you).[/size]

Installed latest version of EAC/LAME, still having trouble encoding.

Reply #1
-v 2 --vbr-new %s %d

needs to be

-V2 %s %d

The "V" is case-sensitive.  The "--vbr-new" is now the default in 3.98.2, so having it in your command line options is redundant (though having it there does no harm).

For tracks that AccurateRip cannot verify as accurate, generate a Test CRC to make sure it matches the Copy/Read CRC.  Simply select those tracks that cannot be verified and press F8.  EAC has a CRC colum that will show "OK" if they match and "#" if they don't.

Nice job getting it set up and working this far!

 

Installed latest version of EAC/LAME, still having trouble encoding.

Reply #2
Ok that worked, thanks for all the help.

 
SimplePortal 1.0.0 RC1 © 2008-2021