Skip to main content

Notice

Please note that most of the software linked on this forum is likely to be safe to use. If you are unsure, feel free to ask in the relevant topics, or send a private message to an administrator or moderator. To help curb the problems of false positives, or in the event that you do find actual malware, you can contribute through the article linked here.
Topic: CUETools verifying different AccurateRip ID (Read 583 times) previous topic - next topic
0 Members and 1 Guest are viewing this topic.

CUETools verifying different AccurateRip ID

I've seen a few instances now where CUETools is not detecting the correct AccurateRipID and is instead stating "disk not present in database".

Here's a CD I ripped with dBpoweramp a long time ago. The log shows an accurate rip and associates the CD with a DiscID: 014-001ea367-014ac1a9-c50f430e
Code: [Select]
dBpoweramp Release 13.5 Digital Audio Extraction Log from 02 September 2010 9:34 AM

Drive & Settings
----------------

Ripping with drive 'D:   [_NEC     - DVD_RW ND-3520AW]',  Drive offset: 48,  Overread Lead-in/out: Yes
AccurateRip: Active,  Using C2: Yes,  Cache: 1024 KB,  FUA Cache Invalidate: No
Pass 1 Drive Speed: Max,  Pass 2 Drive Speed: Max
Ultra::  Vary Drive Speed: No,  Min Passes: 2,  Max Passes: 6,  Finish After Clean Passes: 2
Bad Sector Re-rip::  Drive Speed: Max,  Maximum Re-reads: 50

Encoder: FLAC -compression-level-5
DSP Effects / Actions: -dspeffect1="ReplayGain=-albummode={qt}0{qt}" -dspeffect2="HDCD="

Extraction Log
--------------

Track 1:  Ripped LBA 33 to 17773 (3:56) in 0:16. Filename: L:\Music\Lossless\Albums\Glen Goldsmith\What You See Is What You Get\01.I Won't Cry.flac
  AccurateRip: Accurate (confidence 10)     [Pass 1]
  CRC32: 3AF1F38A     AccurateRip CRC: 763F29C2     [DiscID: 014-001ea367-014ac1a9-c50f430e-1]

Track 2:  Ripped LBA 17773 to 37265 (4:19) in 0:15. Filename: L:\Music\Lossless\Albums\Glen Goldsmith\What You See Is What You Get\02.Save A Little Bit.flac
  AccurateRip: Accurate (confidence 10)     [Pass 1]
  CRC32: 884B760D     AccurateRip CRC: BFC2B7BC     [DiscID: 014-001ea367-014ac1a9-c50f430e-2]

Track 3:  Ripped LBA 37265 to 56300 (4:13) in 0:14. Filename: L:\Music\Lossless\Albums\Glen Goldsmith\What You See Is What You Get\03.Dreaming.flac
  AccurateRip: Accurate (confidence 10)     [Pass 1]
  CRC32: 500701BB     AccurateRip CRC: D4407486     [DiscID: 014-001ea367-014ac1a9-c50f430e-3]

Track 4:  Ripped LBA 56300 to 72968 (3:42) in 0:11. Filename: L:\Music\Lossless\Albums\Glen Goldsmith\What You See Is What You Get\04.Undercover.flac
  AccurateRip: Accurate (confidence 10)     [Pass 1]
  CRC32: CC099E15     AccurateRip CRC: 5F424301     [DiscID: 014-001ea367-014ac1a9-c50f430e-4]

Track 5:  Ripped LBA 72968 to 95530 (5:00) in 0:14. Filename: L:\Music\Lossless\Albums\Glen Goldsmith\What You See Is What You Get\05.Gone Too Far.flac
  AccurateRip: Accurate (confidence 10)     [Pass 1]
  CRC32: 756D148D     AccurateRip CRC: 83034828     [DiscID: 014-001ea367-014ac1a9-c50f430e-5]

Track 6:  Ripped LBA 95530 to 110253 (3:16) in 0:08. Filename: L:\Music\Lossless\Albums\Glen Goldsmith\What You See Is What You Get\06.What You See Is What You Get.flac
  AccurateRip: Accurate (confidence 10)     [Pass 1]
  CRC32: AB4234E8     AccurateRip CRC: 955FBA27     [DiscID: 014-001ea367-014ac1a9-c50f430e-6]

Track 7:  Ripped LBA 110253 to 126910 (3:42) in 0:09. Filename: L:\Music\Lossless\Albums\Glen Goldsmith\What You See Is What You Get\07.Shame.flac
  AccurateRip: Accurate (confidence 10)     [Pass 1]
  CRC32: 0DFB1F2A     AccurateRip CRC: 390838C8     [DiscID: 014-001ea367-014ac1a9-c50f430e-7]

Track 8:  Ripped LBA 126910 to 145098 (4:02) in 0:10. Filename: L:\Music\Lossless\Albums\Glen Goldsmith\What You See Is What You Get\08.Keep In Touch.flac
  AccurateRip: Accurate (confidence 10)     [Pass 1]
  CRC32: A451ED11     AccurateRip CRC: 542F684B     [DiscID: 014-001ea367-014ac1a9-c50f430e-8]

Track 9:  Ripped LBA 145098 to 165875 (4:37) in 0:11. Filename: L:\Music\Lossless\Albums\Glen Goldsmith\What You See Is What You Get\09.Rhythm Of Romance.flac
  AccurateRip: Accurate (confidence 10)     [Pass 1]
  CRC32: 3B16A470     AccurateRip CRC: C065B209     [DiscID: 014-001ea367-014ac1a9-c50f430e-9]

Track 10:  Ripped LBA 165875 to 181145 (3:23) in 0:41. Filename: L:\Music\Lossless\Albums\Glen Goldsmith\What You See Is What You Get\10.Shadow Of Doubt.flac
  AccurateRip: Accurate (confidence 10)     [Pass 1, Ultra 1 to 2, Re-Rip 7 Frames]
  CRC32: F45BDEB3     AccurateRip CRC: BA418BC7     [DiscID: 014-001ea367-014ac1a9-c50f430e-10]
    Re-rip Frame: 172373 (00:01:26.640) matched 10 / 11
    Re-rip Frame: 172374 (00:01:26.653) matched 10 / 11
    Re-rip Frame: 172841 (00:01:32.880) matched 10 / 11
    Re-rip Frame: 173025 (00:01:35.333) matched 10 / 11
    Re-rip Frame: 173026 (00:01:35.346) matched 10 / 11
    Re-rip Frame: 173627 (00:01:43.360) matched 10 / 11
    Re-rip Frame: 173628 (00:01:43.373) matched 10 / 11

Track 11:  Ripped LBA 181145 to 210088 (6:25) in 0:16. Filename: L:\Music\Lossless\Albums\Glen Goldsmith\What You See Is What You Get\11.What You See Is What You Get (Remix).flac
  AccurateRip: Accurate (confidence 10)     [Pass 1]
  CRC32: 220EE799     AccurateRip CRC: 261E1E36     [DiscID: 014-001ea367-014ac1a9-c50f430e-11]

Track 12:  Ripped LBA 210088 to 233928 (5:17) in 0:13. Filename: L:\Music\Lossless\Albums\Glen Goldsmith\What You See Is What You Get\12.I Won't Cry (Back Yardie Mix).flac
  AccurateRip: Accurate (confidence 10)     [Pass 1]
  CRC32: F68E5715     AccurateRip CRC: 2CFA3B15     [DiscID: 014-001ea367-014ac1a9-c50f430e-12]

Track 13:  Ripped LBA 233928 to 261710 (6:10) in 0:14. Filename: L:\Music\Lossless\Albums\Glen Goldsmith\What You See Is What You Get\13.I Won't Cry (Original).flac
  AccurateRip: Accurate (confidence 10)     [Pass 1]
  CRC32: 7BD2366C     AccurateRip CRC: C037C456     [DiscID: 014-001ea367-014ac1a9-c50f430e-13]

Track 14:  Ripped LBA 261710 to 293035 (6:57) in 2:39. Filename: L:\Music\Lossless\Albums\Glen Goldsmith\What You See Is What You Get\14.Dreaming (Glen G For President Mix).flac
  AccurateRip: Accurate (confidence 10)     [Pass 1, Ultra 1 to 2, Re-Rip 53 Frames]
  CRC32: B2EDB1BE     AccurateRip CRC: 717A5A94     [DiscID: 014-001ea367-014ac1a9-c50f430e-14]
    Re-rip Frame: 272872 (00:02:28.826) matched 10 / 11
    Re-rip Frame: 272873 (00:02:28.840) matched 10 / 11
    Re-rip Frame: 273051 (00:02:31.213) matched 10 / 11  (c2 dropped 1)
    Re-rip Frame: 273210 (00:02:33.333) matched 10 / 11
    Re-rip Frame: 273310 (00:02:34.666) matched 10 / 11  (c2 dropped 1)
    Re-rip Frame: 273330 (00:02:34.933) matched 10 / 11
    Re-rip Frame: 273488 (00:02:37.040) matched 10 / 11  (c2 dropped 1)
    Re-rip Frame: 273508 (00:02:37.306) matched 10 / 11  (c2 dropped 1)
    Re-rip Frame: 273587 (00:02:38.360) matched 10 / 11
    Re-rip Frame: 273588 (00:02:38.373) matched 10 / 11
    Re-rip Frame: 273746 (00:02:40.480) matched 10 / 11  (c2 dropped 1)
    Re-rip Frame: 273826 (00:02:41.546) matched 10 / 11
    Re-rip Frame: 273827 (00:02:41.560) matched 10 / 11
    Re-rip Frame: 273884 (00:02:42.320) matched 10 / 11
    Re-rip Frame: 273965 (00:02:43.400) matched 10 / 11  (c2 dropped 1)
    Re-rip Frame: 274025 (00:02:44.200) matched 10 / 11
    Re-rip Frame: 274045 (00:02:44.466) matched 10 / 11
    Re-rip Frame: 274084 (00:02:44.986) matched 10 / 11
    Re-rip Frame: 274085 (00:02:45.000) matched 10 / 11
    Re-rip Frame: 274124 (00:02:45.520) matched 10 / 11
    Re-rip Frame: 274144 (00:02:45.786) matched 10 / 11
    Re-rip Frame: 274164 (00:02:46.053) matched 10 / 11
    Re-rip Frame: 274243 (00:02:47.106) matched 10 / 11
    Re-rip Frame: 274281 (00:02:47.613) matched 10 / 12
    Re-rip Frame: 274303 (00:02:47.906) matched 10 / 11
    Re-rip Frame: 274420 (00:02:49.466) matched 10 / 11
    Re-rip Frame: 274421 (00:02:49.480) matched 10 / 11
    Re-rip Frame: 274423 (00:02:49.506) matched 10 / 11
    Re-rip Frame: 274500 (00:02:50.533) matched 10 / 11
    Re-rip Frame: 274502 (00:02:50.560) matched 10 / 12
    Re-rip Frame: 274641 (00:02:52.413) matched 10 / 11
    Re-rip Frame: 274642 (00:02:52.426) matched 10 / 11
    Re-rip Frame: 274721 (00:02:53.480) matched 10 / 12
    Re-rip Frame: 274758 (00:02:53.973) matched 10 / 11
    Re-rip Frame: 274761 (00:02:54.013) matched 10 / 11
    Re-rip Frame: 274858 (00:02:55.306) matched 10 / 11
    Re-rip Frame: 274860 (00:02:55.333) matched 10 / 11
    Re-rip Frame: 274918 (00:02:56.106) matched 10 / 11
    Re-rip Frame: 274940 (00:02:56.400) matched 10 / 11
    Re-rip Frame: 274978 (00:02:56.906) matched 10 / 11
    Re-rip Frame: 275017 (00:02:57.426) matched 10 / 11
    Re-rip Frame: 275020 (00:02:57.466) matched 10 / 11
    Re-rip Frame: 275058 (00:02:57.973) matched 10 / 11
    Re-rip Frame: 275098 (00:02:58.506) matched 10 / 11
    Re-rip Frame: 275239 (00:03:00.386) matched 10 / 11
    Re-rip Frame: 275299 (00:03:01.186) matched 10 / 11
    Re-rip Frame: 275338 (00:03:01.706) matched 10 / 11
    Re-rip Frame: 275339 (00:03:01.720) matched 10 / 11
    Re-rip Frame: 275356 (00:03:01.946) matched 10 / 11
    Re-rip Frame: 275438 (00:03:03.040) matched 10 / 12
    Re-rip Frame: 275715 (00:03:06.733) matched 10 / 11
    Re-rip Frame: 276295 (00:03:14.466) matched 10 / 11
    Re-rip Frame: 276296 (00:03:14.480) matched 10 / 11

--------------

14 Tracks Ripped Accurately


I can check the AccurateRip again in PerfectTUNES and confirm the match with that same Disc ID:
Code: [Select]
Glen Goldsmith - What You See Is What You Get   [AccurateRip DiscIDs: 014-001EA367-014AC1A9-C50F430E]
  Track 1: AccurateRip Verified Confidence 13, Pressing Offset +0 [ARv2 CRC 296CF610]  D:\audio\music\Glen Goldsmith\Glen Goldsmith · 1988 · What You See Is What You Get [RCA PD 71750] [CD-FLAC]\01. I Won't Cry.flac
  Track 2: AccurateRip Verified Confidence 12, Pressing Offset +0 [ARv2 CRC 10DB6830]  D:\audio\music\Glen Goldsmith\Glen Goldsmith · 1988 · What You See Is What You Get [RCA PD 71750] [CD-FLAC]\02. Save A Little Bit.flac
  Track 3: AccurateRip Verified Confidence 13, Pressing Offset +0 [ARv2 CRC EE8D732C]  D:\audio\music\Glen Goldsmith\Glen Goldsmith · 1988 · What You See Is What You Get [RCA PD 71750] [CD-FLAC]\03. Dreaming.flac
  Track 4: AccurateRip Verified Confidence 12, Pressing Offset +0 [ARv2 CRC 7744EA0E]  D:\audio\music\Glen Goldsmith\Glen Goldsmith · 1988 · What You See Is What You Get [RCA PD 71750] [CD-FLAC]\04. Undercover.flac
  Track 5: AccurateRip Verified Confidence 12, Pressing Offset +0 [ARv2 CRC 4E57DB88]  D:\audio\music\Glen Goldsmith\Glen Goldsmith · 1988 · What You See Is What You Get [RCA PD 71750] [CD-FLAC]\05. Gone Too Far.flac
  Track 6: AccurateRip Verified Confidence 12, Pressing Offset +0 [ARv2 CRC BCC86B56]  D:\audio\music\Glen Goldsmith\Glen Goldsmith · 1988 · What You See Is What You Get [RCA PD 71750] [CD-FLAC]\06. What You See Is What You Get.flac
  Track 7: AccurateRip Verified Confidence 12, Pressing Offset +0 [ARv2 CRC 5EBF57D9]  D:\audio\music\Glen Goldsmith\Glen Goldsmith · 1988 · What You See Is What You Get [RCA PD 71750] [CD-FLAC]\07. Shame.flac
  Track 8: AccurateRip Verified Confidence 12, Pressing Offset +0 [ARv2 CRC A61C23A0]  D:\audio\music\Glen Goldsmith\Glen Goldsmith · 1988 · What You See Is What You Get [RCA PD 71750] [CD-FLAC]\08. Keep In Touch.flac
  Track 9: AccurateRip Verified Confidence 12, Pressing Offset +0 [ARv2 CRC 3A587B5C]  D:\audio\music\Glen Goldsmith\Glen Goldsmith · 1988 · What You See Is What You Get [RCA PD 71750] [CD-FLAC]\09. Rhythm Of Romance.flac
  Track 10: AccurateRip Verified Confidence 12, Pressing Offset +0 [ARv2 CRC 0910ED85]  D:\audio\music\Glen Goldsmith\Glen Goldsmith · 1988 · What You See Is What You Get [RCA PD 71750] [CD-FLAC]\10. Shadow Of Doubt.flac
  Track 11: AccurateRip Verified Confidence 12, Pressing Offset +0 [ARv2 CRC 3FB8B4D3]  D:\audio\music\Glen Goldsmith\Glen Goldsmith · 1988 · What You See Is What You Get [RCA PD 71750] [CD-FLAC]\11. What You See Is What You Get [Remix].flac
  Track 12: AccurateRip Verified Confidence 13, Pressing Offset +0 [ARv2 CRC C365E998]  D:\audio\music\Glen Goldsmith\Glen Goldsmith · 1988 · What You See Is What You Get [RCA PD 71750] [CD-FLAC]\12. I Won't Cry [Back Yardie Mix].flac
  Track 13: AccurateRip Verified Confidence 13, Pressing Offset +0 [ARv2 CRC 13DB83BD]  D:\audio\music\Glen Goldsmith\Glen Goldsmith · 1988 · What You See Is What You Get [RCA PD 71750] [CD-FLAC]\13. I Won't Cry [Original].flac
  Track 14: AccurateRip Verified Confidence 13, Pressing Offset +0 [ARv2 CRC B30E1370]  D:\audio\music\Glen Goldsmith\Glen Goldsmith · 1988 · What You See Is What You Get [RCA PD 71750] [CD-FLAC]\14. Dreaming [Glen G For President Mix].flac

 
Now if I go to CUETools to verify, I get the following detailed log:
Code: [Select]
[CUETools log; Date: 2021-02-20 07:45:06; Version: 2.1.6]
[CTDB TOCID: pdQdD7C6pGOHbsEZ6V6Fw1q98pQ-] found.
        [ CTDBID ] Status
        [000fc8ed] (33/38) Has pregap length 00:00:33, Accurately ripped
        [4854715a] (01/38) Has pregap length 00:00:33, No match
        [832834f9] (01/38) Has pregap length 00:00:33, No match
        [23b99ece] (01/38) Has pregap length 00:00:33, No match
        [bf0129ed] (01/38) Has pregap length 00:00:33, No match
        [7b530a6b] (01/38) Has pregap length 00:00:33, No match
Track | CTDB Status
  1   | (36/38) Accurately ripped
  2   | (38/38) Accurately ripped
  3   | (37/38) Accurately ripped
  4   | (37/38) Accurately ripped
  5   | (38/38) Accurately ripped
  6   | (37/38) Accurately ripped
  7   | (38/38) Accurately ripped
  8   | (38/38) Accurately ripped
  9   | (38/38) Accurately ripped
 10   | (36/38) Accurately ripped
 11   | (38/38) Accurately ripped
 12   | (38/38) Accurately ripped
 13   | (38/38) Accurately ripped
 14   | (38/38) Accurately ripped
[AccurateRip ID: 001ea178-014ab232-c00f420e] disk not present in database.

Track Peak [ CRC32  ] [W/O NULL]
 --  100.0 [A32CF576] [9E91CA67]          
 01   91.6 [3AF1F38A] [E049A7C9]          
 02   78.5 [884B760D] [681926A9]          
 03   92.8 [500701BB] [D6E0C383]          
 04   87.3 [CC099E15] [2E881442]          
 05   82.9 [756D148D] [2F819563]          
 06   84.7 [AB4234E8] [2A2E5E8E]          
 07   89.6 [0DFB1F2A] [35FF2259]          
 08   88.0 [A451ED11] [EC7CCF5C]          
 09   86.5 [3B16A470] [764A0016]          
 10   84.1 [F45BDEB3] [76E8BDA0]          
 11   92.2 [220EE799] [588EF04C]          
 12   88.6 [F68E5715] [08C5AE8C]          
 13  100.0 [7BD2366C] [C0341FDB]          
 14   99.5 [B2EDB1BE] [2D441818]          
Notice how CUETools is associating with a different AccurateRip Disc ID (001ea178-014ab232-c00f420e vs. 001ea367-014ac1a9-c50f430e) which doesn't get a match, despite the CTDB knowing about the AccurateRip Disc ID, because checking the TOC at http://db.cuetools.net/?tocid=pdQdD7C6pGOHbsEZ6V6Fw1q98pQ- shows the correct Disc ID.

So I don't understand why the CUETools Verify function not verifying against the correct ID. Is this a pressing offset difference? AccurateRip DB v1/v2? Have I configured the settings wrong? Any advice appreciated.

Re: CUETools verifying different AccurateRip ID

Reply #1
The issue is most likely a different pregap length than the standard. dBpoweramp does not preserve the pregap if it is very short, and in the absence of such, CUETools will just assume the default two seconds. Do the following:

* open in a tag editor
* populate the tag field ACCURATERIPID with the value 014-001ea367-014ac1a9-c50f430e you got from dBpoweramp
* Run CUETools again.

What happens?
High Voltage socket-nose-avatar

Re: CUETools verifying different AccurateRip ID

Reply #2
(Porcus posted while I typed. I'll leave my post as is.)
http://cue.tools/wiki/CUETools#Why_AccurateRip_database_lookups_sometimes_fail

Track 01 on the original CD started at 00:00:33 (LBA 33) instead of 00:00:00 (LBA 0) [see note below]. Once ripped into individual tracks, your Track 01 starts at 00:00:00.
CUETools cannot parse dBpoweramp's log file to know that the CD you ripped didn't actually start at 00:00:00.
You apparently didn't use or have a CUE file.
CUETools can also get some information from the metadata if in a format it recognizes. Did dBpoweramp write any tags to the files with the start position or AccurateRip ID?

The CUETools log tells you CTDB has a match that has a pregap length of 00:00:33.
If you enter 00:00:33 in the Pregap box in the Extra section and run Verify again does it find the correct AccurateRip ID?


Note: The start position of the audio data is 00:00:00 (which is 00:02:00 from the start of the CD). Ripping programs usually don't count the 2 second lead-in as part of the start position.
korth

Re: CUETools verifying different AccurateRip ID

Reply #3
Quote
* open in a tag editor
* populate the tag field ACCURATERIPID with the value 014-001ea367-014ac1a9-c50f430e you got from dBpoweramp
* Run CUETools again.

What happens?

With a new tag, ACCURATERIPID = 001ea367-014ac1a9-c50f430e, CUETools now finds it:
Code: [Select]
[CUETools log; Date: 2021-02-20 13:45:34; Version: 2.1.6]
Using preserved id, actual id is 001ea178-014ab232-c00f420e.
[CTDB TOCID: pdQdD7C6pGOHbsEZ6V6Fw1q98pQ-] found.
        [ CTDBID ] Status
        [000fc8ed] (33/38) Has pregap length 00:00:33, Accurately ripped
        [4854715a] (01/38) Has pregap length 00:00:33, No match
        [832834f9] (01/38) Has pregap length 00:00:33, No match
        [23b99ece] (01/38) Has pregap length 00:00:33, No match
        [bf0129ed] (01/38) Has pregap length 00:00:33, No match
        [7b530a6b] (01/38) Has pregap length 00:00:33, No match
Track | CTDB Status
  1   | (36/38) Accurately ripped
  2   | (38/38) Accurately ripped
  3   | (37/38) Accurately ripped
  4   | (37/38) Accurately ripped
  5   | (38/38) Accurately ripped
  6   | (37/38) Accurately ripped
  7   | (38/38) Accurately ripped
  8   | (38/38) Accurately ripped
  9   | (38/38) Accurately ripped
 10   | (36/38) Accurately ripped
 11   | (38/38) Accurately ripped
 12   | (38/38) Accurately ripped
 13   | (38/38) Accurately ripped
 14   | (38/38) Accurately ripped
[AccurateRip ID: 001ea367-014ac1a9-c50f430e] found.
Track   [  CRC   |   V2   ] Status
 01     [763f29c2|296cf610] (14+13/27) Accurately ripped
 02     [bfc2b7bc|10db6830] (14+12/26) Accurately ripped
 03     [d4407486|ee8d732c] (13+13/26) Accurately ripped
 04     [5f424301|7744ea0e] (14+12/26) Accurately ripped
 05     [83034828|4e57db88] (14+12/26) Accurately ripped
 06     [955fba27|bcc86b56] (14+12/26) Accurately ripped
 07     [390838c8|5ebf57d9] (14+12/26) Accurately ripped
 08     [542f684b|a61c23a0] (14+12/26) Accurately ripped
 09     [c065b209|3a587b5c] (14+12/26) Accurately ripped
 10     [ba418bc7|0910ed85] (14+12/26) Accurately ripped
 11     [261e1e36|3fb8b4d3] (14+12/26) Accurately ripped
 12     [2cfa3b15|c365e998] (14+13/27) Accurately ripped
 13     [c037c456|13db83bd] (13+13/26) Accurately ripped
 14     [717a5a94|b30e1370] (13+13/26) Accurately ripped

Track Peak [ CRC32  ] [W/O NULL]
 --  100.0 [A32CF576] [9E91CA67]          
 01   91.6 [3AF1F38A] [E049A7C9]          
 02   78.5 [884B760D] [681926A9]          
 03   92.8 [500701BB] [D6E0C383]          
 04   87.3 [CC099E15] [2E881442]          
 05   82.9 [756D148D] [2F819563]          
 06   84.7 [AB4234E8] [2A2E5E8E]          
 07   89.6 [0DFB1F2A] [35FF2259]          
 08   88.0 [A451ED11] [EC7CCF5C]          
 09   86.5 [3B16A470] [764A0016]          
 10   84.1 [F45BDEB3] [76E8BDA0]          
 11   92.2 [220EE799] [588EF04C]          
 12   88.6 [F68E5715] [08C5AE8C]          
 13  100.0 [7BD2366C] [C0341FDB]          
 14   99.5 [B2EDB1BE] [2D441818]          

Quote
CUETools can also get some information from the metadata if in a format it recognizes. Did dBpoweramp write any tags to the files with the start position or AccurateRip ID?
Only the AccurateRip confidence in the COMMENT field. Clearly not useful.
Code: [Select]
AccurateRip: Accurate (confidence 10)   [763F29C2]

Quote
The CUETools log tells you CTDB has a match that has a pregap length of 00:00:33.
If you enter 00:00:33 in the Pregap box in the Extra section and run Verify again does it find the correct AccurateRip ID?
Yes it does. Same result as above. CUETools now finds the correct AccurateRip Disc ID.

Thanks for the explanation.

Re: CUETools verifying different AccurateRip ID

Reply #4
dBpoweramp - at least my (paid) version - can populate an ACCURATERIPDISCID tag upon ripping. Then it will be what the dBpoweramp log says e.g. "[DiscID: 014-001ea367-014ac1a9-c50f430e-9]" with the track number at the end.

So, to get everyone confused: this says "disc" ID, but is disc-and-track ID; then on the other hand, CUETools' ACCURATERIPID tag is the disc-only ID part of it, i.e. it cuts away the "-9". CUETools is largely disc-focused. AccurateRip and dBpoweramp are largely track-focused.
High Voltage socket-nose-avatar

Re: CUETools verifying different AccurateRip ID

Reply #5
PerfectTUNES is able to look up this different disc starting offset, we have a database of TOCs and match against that to generate the correct accuraterip id when not present.

 
SimplePortal 1.0.0 RC1 © 2008-2021