Skip to main content

Notice

Please note that most of the software linked on this forum is likely to be safe to use. If you are unsure, feel free to ask in the relevant topics, or send a private message to an administrator or moderator. To help curb the problems of false positives, or in the event that you do find actual malware, you can contribute through the article linked here.
Topic: Finding the Offset (Read 2659 times) previous topic - next topic
0 Members and 1 Guest are viewing this topic.

Finding the Offset

I will try and explain things so bare with me.

Ok i recently finished ripping my huge cd collection into flac using dbpoweramp.

During the process of ripping the 25,000+ cds i have, roughly a couple of hundred cds had errors , so i put them through my cd repair machine and some still had errors.

Recently the law where i live changed so as long as i own the original cd i could own a legal copy of that cd, so i began using various sites to download a flac version of the cd i own , then using the offset found in the log file i began creating cd copies of the downloaded flac files (so making a non damaged duplicate of the cd i own) which is accurate etc.

Problem is i occasionally come across a cd in the flac format i own however there is no log file, so i run the files through cuetools and occasionally it will tell me the that it is Offsetted by 6: which is great , but sometimes it just doesnt tell me any offset ie


Track | CTDB Status
  1  | (3/3) Accurately ripped
  2  | (3/3) Accurately ripped
  3  | (3/3) Accurately ripped
  4  | (3/3) Accurately ripped
  5  | (3/3) Accurately ripped
  6  | (3/3) Accurately ripped
  7  | (3/3) Accurately ripped
  8  | (3/3) Accurately ripped
  9  | (3/3) Accurately ripped
10  | (3/3) Accurately ripped
11  | (3/3) Accurately ripped
12  | (3/3) Accurately ripped
13  | (3/3) Accurately ripped
14  | (3/3) Accurately ripped
15  | (3/3) Accurately ripped
16  | (3/3) Accurately ripped
17  | (3/3) Accurately ripped
18  | (3/3) Accurately ripped
[AccurateRip ID: 00340460-02ad80e6-ce121712] found.
Track  [  CRC  |  V2  ] Status
01    [4c63ebba|41002651] (12+05/17) Accurately ripped
02    [e59974b6|9444465f] (12+05/17) Accurately ripped
03    [b99de675|cc4e13f7] (12+05/17) Accurately ripped
04    [5823034f|1c90809a] (12+05/17) Accurately ripped
05    [f844d09b|c79c93b3] (12+05/17) Accurately ripped
06    [ef1c46ae|8f74cc22] (12+05/17) Accurately ripped
07    [160c4f51|3e81638f] (12+05/17) Accurately ripped
08    [80bca237|622ccbfd] (12+05/17) Accurately ripped
09    [9eae00ea|95cf471f] (12+05/17) Accurately ripped
10    [daa082d3|7b49d079] (12+05/17) Accurately ripped
11    [b183b197|d1978333] (12+05/17) Accurately ripped
12    [fad13ebb|4ad11211] (12+05/17) Accurately ripped
13    [75b4a97c|3bb23149] (12+05/17) Accurately ripped
14    [5a8142e6|32d683e4] (12+04/16) Accurately ripped
15    [98035854|682e500e] (12+05/17) Accurately ripped
16    [a3286d49|f93bd266] (12+05/17) Accurately ripped
17    [5abe61f0|124109ff] (12+05/17) Accurately ripped
18    [182bfcc4|0732e6d1] (12+05/17) Accurately ripped

Track Peak [ CRC32  ] [W/O NULL]
--  100.0 [1CEEEBBE] [C31B0287]         
01  87.1 [F750149F] [CC0D20B7]         
02  87.1 [09540847] [5B86A4AA]         
03  97.7 [9454586C] [69EFE9E1]         
04  86.1 [353CEA98] [7E019965]         
05  98.8 [2E8A21C2] [31F3E6B0]         
06  98.8 [3EE9C658] [3FCA64EC]         
07  98.8 [6F8BB0A9] [C3C3DB61]         
08  88.1 [B4BC7E5F] [5A4F6455]         
09  97.7 [FF5416AB] [B83AC30E]         
10  95.5 [2FA3D627] [2BAE52C3]         
11  98.8 [C0DA052B] [B4572868]         
12  71.6 [166E0B87] [49BE180C]         
13  91.2 [3A662B1B] [93A59522]         
14  80.3 [839DBA38] [0924FE78]         
15  98.8 [BBE5DEC6] [E4ED1F58]         
16  89.1 [68FF0AFC] [88F84C5F]         
17  98.8 [B7ABD84C] [AE07BC24]         
18  100.0 [F9877F4A] [1DEC41D6]         


So could anyone please tell me how i could get the offset for this so i can make a accurate copy ?


Thanks.

Finding the Offset

Reply #1
Read the color highlighted text section here.
korth

 

 
SimplePortal 1.0.0 RC1 © 2008-2021