Skip to main content
Recent Posts
5
Support - (fb2k) / Re: Files could not be written (bad allocation) ERRORs
Last post by davideleo -
I'm seeing the same warning often, since I installed beta version 17, a few days ago. My library is much smaller than Andrea's, though: 2TB and 220.000 tracks, and memory usage is within the usual values (5-600 MB) when this happens.



I'm sorry to disappoint you but foobar2000's library is not designed to handle this amount of files and will inevitably give you trouble.

Peter, what is the maximum library size foobar2000 can handle comfortably?


10
CD Hardware/Software / Re: Create cue sheet from EAC log
Last post by korth -
I put up my post in response to Porcus's recent post that CueTools could generate the CUE from log, which happens to be a topic that I'm interested in.
I thought Porcus was replying to a request for source code and suggesting the OP also look at CUETools' source code.

Is the source code for cue corrector available anywhere?

And an English version of the website...
Thanks
By now you could also consider CUETools [edit: if your point is to get .cue out of an EAC log as per topic title]. Source code on github.


How is this done using CUETools exactly? Every time I try to use the "Create CUE sheet" option, I get a cue sheet that doesn't replicate the gaps correctly at all. The CUETools cue sheet has only INDEX 01 entries and no INDEX 00 entries. Furthermore, it doesn't have the CD-TEXT fields!! I suppose I don't understand how to load an EAC log into CUETools...
CUETools currently cannot create a CUE sheet if all you have is
  • an EAC log
  • an image file
  • an image file + an EAC log

As you already know
CUETools currently can create a simple CUE sheet from a set of track files* or extract an embedded CUE sheet from an image* using the 'Create CUE Sheet' tool.

CUETools currently can create a CUE sheet from a set of track files* and parse an EAC log for gap information using the Action: Encode.
tips
  • If you want a CUE sheet only, you set the 'Audio Output' to 'None'.
  • If you want to fill the CUE tags (CD-TEXT) using only the tags from the audio files, remove the check from the 'Edit Tags' box. Leave the box checked to search CTDB for metadata.
  • Filenames in the CUE sheet are determined by the 'Audio Filenames' setting in CUETools
  • The EAC log should be in the same folder as the track files*

Code: [Select]
Exact Audio Copy V1.3 from 2. September 2016

EAC extraction logfile from 21. June 2018, 9:08

Styx / The Grand Illusion

Used drive  : ASUS    DRW-24B1ST   a   Adapter: 1  ID: 0

Read mode               : Secure
Utilize accurate stream : Yes
Defeat audio cache      : No
Make use of C2 pointers : No

Read offset correction                      : 6
Overread into Lead-In and Lead-Out          : No
Fill up missing offset samples with silence : Yes
Delete leading and trailing silent blocks   : No
Null samples used in CRC calculations       : Yes
Used interface                              : Native Win32 interface for Win NT & 2000
Gap handling                                : Appended to previous track

Used output format              : User Defined Encoder
Selected bitrate                : 1024 kBit/s
Quality                         : High
Add ID3 tag                     : No
Command line compressor         : E:\MyApps\AudTools\Exact Audio Copy\Flac\flac.exe
Additional command line options : -6 -T "ARTIST=%artist%" -T "TITLE=%title%" -T "ALBUM=%albumtitle%" -T "DATE=%year%"
-T "TRACKNUMBER=%tracknr%" -T "GENRE=%genre%" -T "COMMENT=%comment%" -T "ALBUMARTIST= %albumartist%"
-T "COMPOSER=%composer%" %haslyrics%--tag-from-file=LYRICS="%lyricsfile%"%haslyrics% -T "DISCNUMBER=%cdnumber%"
-T "TOTALDISCS=%totalcds%" -T "TOTALTRACKS=%numtracks%" %hascover%--picture="%coverfile%"%hascover% %source%


TOC of the extracted CD

     Track |   Start  |  Length  | Start sector | End sector
    ---------------------------------------------------------
        1  |  0:00.00 |  4:38.18 |         0    |    20867 
        2  |  4:38.18 |  5:31.25 |     20868    |    45717 
        3  | 10:09.43 |  4:02.57 |     45718    |    63924 
        4  | 14:12.25 |  6:08.25 |     63925    |    91549 
        5  | 20:20.50 |  5:04.03 |     91550    |   114352 
        6  | 25:24.53 |  5:51.47 |    114353    |   140724 
        7  | 31:16.25 |  6:00.00 |    140725    |   167724 
        8  | 37:16.25 |  1:57.55 |    167725    |   176554 


Track  1

     Filename 01 The Grand Illusion.wav

     Pre-gap length  0:00:02.00

     Peak level 100.0 %
     Extraction speed 5.6 X
     Track quality 99.9 %
     Copy CRC 98DCF831
     Accurately ripped (confidence 13)  [84A4965F]  (AR v2)
     Copy OK

Track  2

     Filename 02 Fooling Yourself (The Angry Young Man).wav

     Pre-gap length  0:00:01.25

     Peak level 100.0 %
     Extraction speed 6.6 X
     Track quality 99.9 %
     Copy CRC DD25D91C
     Accurately ripped (confidence 13)  [782A1C9E]  (AR v2)
     Copy OK

Track  3

     Filename 03 Superstars.wav

     Pre-gap length  0:00:03.28

     Peak level 100.0 %
     Extraction speed 7.4 X
     Track quality 100.0 %
     Copy CRC F4E9F4C0
     Accurately ripped (confidence 12)  [D486A74E]  (AR v2)
     Copy OK

Track  4

     Filename 04 Come Sail Away.wav

     Pre-gap length  0:00:03.60

     Peak level 100.0 %
     Extraction speed 8.2 X
     Track quality 100.0 %
     Copy CRC 41D59F5C
     Accurately ripped (confidence 12)  [188DA08E]  (AR v2)
     Copy OK

Track  5

     Filename 05 Miss America.wav

     Pre-gap length  0:00:02.60

     Peak level 99.5 %
     Extraction speed 8.7 X
     Track quality 100.0 %
     Copy CRC 40840ECF
     Accurately ripped (confidence 13)  [787799AD]  (AR v2)
     Copy OK

Track  6

     Filename 06 Man In The Wilderness.wav

     Pre-gap length  0:00:01.15

     Peak level 100.0 %
     Extraction speed 9.3 X
     Track quality 100.0 %
     Copy CRC 782A1C7C
     Accurately ripped (confidence 13)  [80F9231F]  (AR v2)
     Copy OK

Track  7

     Filename 07 Castle Walls.wav

     Pre-gap length  0:00:02.62

     Peak level 100.0 %
     Extraction speed 9.8 X
     Track quality 100.0 %
     Copy CRC 7A4EE833
     Accurately ripped (confidence 13)  [EF054206]  (AR v2)
     Copy OK

Track  8

     Filename 08 The Grand Finale.wav

     Peak level 100.0 %
     Extraction speed 9.8 X
     Track quality 100.0 %
     Copy CRC 9CDD59E5
     Accurately ripped (confidence 12)  [126A31DA]  (AR v2)
     Copy OK


All tracks accurately ripped

No errors occurred

End of status report


---- CUETools DB Plugin V2.1.6

[CTDB TOCID: rRcE7bbN4KblS7DsmdYuvSh042A-] found
Submit result: already submitted
Track | CTDB Status
  1   | (52/52) Accurately ripped
  2   | (52/52) Accurately ripped
  3   | (52/52) Accurately ripped
  4   | (51/52) Accurately ripped
  5   | (52/52) Accurately ripped
  6   | (51/52) Accurately ripped
  7   | (51/52) Accurately ripped
  8   | (52/52) Accurately ripped
Code: [Select]
REM COMMENT "CUETools generated dummy CUE sheet"
PERFORMER " Styx"
TITLE "The Grand Illusion"
REM DATE 1977
REM DISCNUMBER 1
REM TOTALDISCS 1
REM GENRE "Pop/Rock"
FILE "01 The Grand Illusion.flac" WAVE
  TRACK 01 AUDIO
    PERFORMER "Styx"
    TITLE "The Grand Illusion"
    INDEX 01 00:00:00
  TRACK 02 AUDIO
    PERFORMER "Styx"
    TITLE "Fooling Yourself (The Angry Young Man)"
    INDEX 00 04:36:74
FILE "02 Fooling Yourself (The Angry Young Man).flac" WAVE
    INDEX 01 00:00:00
  TRACK 03 AUDIO
    PERFORMER "Styx"
    TITLE "Superstars"
    INDEX 00 05:28:04
FILE "03 Superstars.flac" WAVE
    INDEX 01 00:00:00
  TRACK 04 AUDIO
    PERFORMER "Styx"
    TITLE "Come Sail Away"
    INDEX 00 03:59:12
FILE "04 Come Sail Away.flac" WAVE
    INDEX 01 00:00:00
  TRACK 05 AUDIO
    PERFORMER "Styx"
    TITLE "Miss America"
    INDEX 00 06:05:55
FILE "05 Miss America.flac" WAVE
    INDEX 01 00:00:00
  TRACK 06 AUDIO
    PERFORMER "Styx"
    TITLE "Man In The Wilderness"
    INDEX 00 05:02:67
FILE "06 Man In The Wilderness.flac" WAVE
    INDEX 01 00:00:00
  TRACK 07 AUDIO
    PERFORMER "Styx"
    TITLE "Castle Walls"
    INDEX 00 05:49:00
FILE "07 Castle Walls.flac" WAVE
    INDEX 01 00:00:00
FILE "08 The Grand Finale.flac" WAVE
  TRACK 08 AUDIO
    PERFORMER "Styx"
    TITLE "The Grand Finale"
    INDEX 01 00:00:00


*audio files must be uncompressed or lossless compressed Red Book 2-channel 16-bit LPCM sampled at 44,100 Hz

SimplePortal 1.0.0 RC1 © 2008-2018