Skip to main content

Notice

Please note that most of the software linked on this forum is likely to be safe to use. If you are unsure, feel free to ask in the relevant topics, or send a private message to an administrator or moderator. To help curb the problems of false positives, or in the event that you do find actual malware, you can contribute through the article linked here.
Topic: CUE sheets and track detection (Read 182 times) previous topic - next topic
0 Members and 1 Guest are viewing this topic.

CUE sheets and track detection

Hi all.

I am trying my luck re the following.

I am ripping all of my CDs to a lossless library using EAC, what I need for each CD is: an image file (wave) + cue sheet and log, and separate files for each track with trimmed leading and ending silences, which I do manually, however, I  am not sure if the cue sheets are not generated correctly or there is a problem with my DVD drive (HP DVDRW GUE1N UE00) because most of the time the first beat of each song after song number 1 is trimmed in half (as per the below screenshot)




This is causing the previous track to have a noticeable "click sound" in the end and the track in question is starting with a noticeable cut.

But it is not all of the time, sometimes track detection is fair enough

Hopefully, somebody will give more info. Is it an EAC issue, my drive issue, or the way my CDs were produced?
Thank you!




Re: CUE sheets and track detection

Reply #1
Post log and cuesheet(s)
I unable to determine if you are saying you are having issue with an unaltered lossless cue+image, an altered image with possible uncorrected cue or the altered individual tracks?
Perhaps you are using EAC's 'Process WAV' tool to trim the silent blocks from the image then trying to generate a new CUE sheet.
korth

Re: CUE sheets and track detection

Reply #2
@korth  I am referring to an unaltered lossless cue+image and correct I am using EAC's Process WAV tool to open the image and check the CUE sheet and correct it manually if necessary.

Posting CUE and log as requested above.

Quote
REM GENRE Pop-folk
REM DATE 2021
REM DISCID BC0D1010
REM COMMENT "ExactAudioCopy v1.6"
PERFORMER "Various Artists"
TITLE "Hitovete na Planeta Payner 19"
REM COMPOSER ""
FILE "Various Artists - Hitovete na Planeta Payner 19.wav" WAVE
  TRACK 01 AUDIO
    TITLE "100 zhivota"
    PERFORMER "Galena"
    REM COMPOSER ""
    INDEX 01 00:00:00
  TRACK 02 AUDIO
    TITLE "Sartse moe"
    PERFORMER "Emrah/Tedi Aleksandrova"
    REM COMPOSER ""
    INDEX 01 04:11:53
  TRACK 03 AUDIO
    TITLE "Toy"
    PERFORMER "Danna"
    REM COMPOSER ""
    INDEX 01 07:58:20
  TRACK 04 AUDIO
    TITLE "Granitsi / Den Mporo"
    PERFORMER "Emanuela/Kyriakos Georgiou"
    REM COMPOSER ""
    INDEX 01 11:58:65
  TRACK 05 AUDIO
    TITLE "Tvoeto ferari"
    PERFORMER "Yanitsa"
    REM COMPOSER ""
    INDEX 01 15:08:74
  TRACK 06 AUDIO
    TITLE "Kasay"
    PERFORMER "Aria"
    REM COMPOSER ""
    INDEX 01 18:23:36
  TRACK 07 AUDIO
    TITLE "Dilema"
    PERFORMER "Galin"
    REM COMPOSER ""
    INDEX 01 21:21:08
  TRACK 08 AUDIO
    TITLE "Razmazan"
    PERFORMER "Vanya"
    REM COMPOSER ""
    INDEX 01 24:49:15
  TRACK 09 AUDIO
    TITLE "Loshite momcheta"
    PERFORMER "Boris Dali"
    REM COMPOSER ""
    INDEX 01 28:18:53
  TRACK 10 AUDIO
    TITLE "I tova shte otmine"
    PERFORMER "Denis Teofikov/Malkata"
    REM COMPOSER ""
    INDEX 01 32:10:68
  TRACK 11 AUDIO
    TITLE "Dvama"
    PERFORMER "Aneliya"
    REM COMPOSER ""
    INDEX 01 35:28:62
  TRACK 12 AUDIO
    TITLE "Angazhimenti"
    PERFORMER "Emrah"
    REM COMPOSER ""
    INDEX 01 39:08:31
  TRACK 13 AUDIO
    TITLE "Neka me boli (feat. Preslava)"
    PERFORMER "Roksana"
    REM COMPOSER ""
    INDEX 01 42:42:72
  TRACK 14 AUDIO
    TITLE "24/7"
    PERFORMER "Iliyan"
    REM COMPOSER ""
    INDEX 01 46:00:00
  TRACK 15 AUDIO
    TITLE "Greshna rolya"
    PERFORMER "Iveta Kostova"
    REM COMPOSER ""
    INDEX 01 49:16:28
  TRACK 16 AUDIO
    TITLE "Mercedes"
    PERFORMER "Dzhordan"
    REM COMPOSER ""
    INDEX 01 52:31:07

Quote
Exact Audio Copy V1.6 from 23. October 2020

EAC extraction logfile from 27. August 2021, 14:31

Various Artists / Hitovete na Planeta Payner 19

Used drive  : hp      DVDRW GUE1N   Adapter: 1  ID: 0

Read mode               : Secure
Utilize accurate stream : Yes
Defeat audio cache      : Yes
Make use of C2 pointers : No

Read offset correction                      : 6
Overread into Lead-In and Lead-Out          : No
Fill up missing offset samples with silence : Yes
Delete leading and trailing silent blocks   : No
Null samples used in CRC calculations       : Yes
Used interface                              : Native Win32 interface for Win NT & 2000

Used output format : Internal WAV Routines
Sample format      : 44.100 Hz; 16 Bit; Stereo


TOC of the extracted CD

     Track |   Start  |  Length  | Start sector | End sector
    ---------------------------------------------------------
        1  |  0:00.00 |  4:11.53 |         0    |    18877  
        2  |  4:11.53 |  3:46.42 |     18878    |    35869  
        3  |  7:58.20 |  4:00.45 |     35870    |    53914  
        4  | 11:58.65 |  3:10.09 |     53915    |    68173  
        5  | 15:08.74 |  3:14.37 |     68174    |    82760  
        6  | 18:23.36 |  2:57.47 |     82761    |    96082  
        7  | 21:21.08 |  3:28.07 |     96083    |   111689  
        8  | 24:49.15 |  3:29.38 |    111690    |   127402  
        9  | 28:18.53 |  3:52.15 |    127403    |   144817  
       10  | 32:10.68 |  3:17.69 |    144818    |   159661  
       11  | 35:28.62 |  3:39.44 |    159662    |   176130  
       12  | 39:08.31 |  3:34.41 |    176131    |   192221  
       13  | 42:42.72 |  3:17.03 |    192222    |   206999  
       14  | 46:00.00 |  3:16.28 |    207000    |   221727  
       15  | 49:16.28 |  3:14.54 |    221728    |   236331  
       16  | 52:31.07 |  3:12.74 |    236332    |   250805  


Range status and errors

Selected range

     Filename D:\CD's Archive\Various Artists - Hitovete na Planeta Payner 19.wav

     Peak level 100.0 %
     Extraction speed 4.5 X
     Range quality 100.0 %
     Test CRC CDFF6884
     Copy CRC CDFF6884
     Copy OK

No errors occurred

 
AccurateRip summary
 
Track  1  not present in database
Track  2  not present in database
Track  3  not present in database
Track  4  not present in database
Track  5  not present in database
Track  6  not present in database
Track  7  not present in database
Track  8  not present in database
Track  9  not present in database
Track 10  not present in database
Track 11  not present in database
Track 12  not present in database
Track 13  not present in database
Track 14  not present in database
Track 15  not present in database
Track 16  not present in database
 
None of the tracks are present in the AccurateRip database

End of status report

---- CUETools DB Plugin V2.1.6

[CTDB TOCID: LjK2KP26LlG71Y4IRjeKvmiqJyA-] found
Submit result: already submitted
Track | CTDB Status
  1   | (1/1) Accurately ripped
  2   | (1/1) Accurately ripped
  3   | (1/1) Accurately ripped
  4   | (1/1) Accurately ripped
  5   | (1/1) Accurately ripped
  6   | (1/1) Accurately ripped
  7   | (1/1) Accurately ripped
  8   | (1/1) Accurately ripped
  9   | (1/1) Accurately ripped
 10   | (1/1) Accurately ripped
 11   | (1/1) Accurately ripped
 12   | (1/1) Accurately ripped
 13   | (1/1) Accurately ripped
 14   | (1/1) Accurately ripped
 15   | (1/1) Accurately ripped
 16   | (1/1) Accurately ripped


==== Log checksum D9D3FC9F160A2E899FF810CC736F10B2FDA436979B57F4023175DD7C3EEEB010 ====

Re: CUE sheets and track detection

Reply #3
The start positions for each track (INDEX 01 in CUE sheet) are taken from the TOC which is read from the lead-in area of the CD.
Quote
Is it an EAC issue, my drive issue, or the way my CDs were produced?
The CD. Occasionally this happens on a repressing. The audio data on the newer pressing is offset to a point that the original TOC no longer points to the actual start of the track.
korth

Re: CUE sheets and track detection

Reply #4
Thank you, so it has to be the way these CDs were produced since it is not a repress, this compilation came out at the beginning of 2021.

 

 
SimplePortal 1.0.0 RC1 © 2008-2021