Skip to main content

Notice

Please note that most of the software linked on this forum is likely to be safe to use. If you are unsure, feel free to ask in the relevant topics, or send a private message to an administrator or moderator. To help curb the problems of false positives, or in the event that you do find actual malware, you can contribute through the article linked here.
Topic: Foobar2000 won't recognize tracks in .cue file (Read 115 times) previous topic - next topic
0 Members and 1 Guest are viewing this topic.

Foobar2000 won't recognize tracks in .cue file

When playing this album, it view the album as a single track. Below is the cuesheet. Does anything look wrong? Thanks.
Code: [Select]
REM DISCID 3F0F6817
PERFORMER "Irene Sankoff; David Hein"
TITLE "Come From Away"
REM CATALOG 0888072025950
REM DATE 2017
REM DISCNUMBER 1
REM TOTALDISCS 1
REM GENRE "Musical"
REM COMMENT "CUERipper v2.1.8 Copyright (C) 2008-2021 Grigory Chudov"
FILE "Come From Away ~ 2017 ~ 1 of 1 ~ Musical ~ 888072025950.flac" WAVE
  TRACK 01 AUDIO
    PERFORMER "Irene Sankoff; David Hein"
    TITLE "Welcome to the Rock"
    ISRC USC4R1700016
    INDEX 01 00:00:00
  TRACK 02 AUDIO
    PERFORMER "Irene Sankoff; David Hein"
    TITLE "38 Planes"
    ISRC USC4R1700017
    INDEX 01 03:41:23
  TRACK 03 AUDIO
    PERFORMER "Irene Sankoff; David Hein"
    TITLE "Blankets and Bedding"
    ISRC USC4R1700018
    INDEX 01 04:50:34
  TRACK 04 AUDIO
    PERFORMER "Irene Sankoff; David Hein"
    TITLE "28 Hours / Wherever We Are"
    ISRC USC4R1700019
    INDEX 01 07:42:14
  TRACK 05 AUDIO
    PERFORMER "Irene Sankoff; David Hein"
    TITLE "Darkness and Trees"
    ISRC USC4R1700020
    INDEX 01 15:15:46
  TRACK 06 AUDIO
    PERFORMER "Irene Sankoff; David Hein"
    TITLE "On the Bus"
    ISRC USC4R1700021
    INDEX 01 18:23:58
  TRACK 07 AUDIO
    PERFORMER "Irene Sankoff; David Hein"
    TITLE "Darkness and Trees (reprise)"
    ISRC USC4R1700022
    INDEX 01 19:30:14
  TRACK 08 AUDIO
    PERFORMER "Irene Sankoff; David Hein"
    TITLE "Lead Us Out of the Night"
    ISRC USC4R1700023
    INDEX 01 21:14:36
  TRACK 09 AUDIO
    PERFORMER "Irene Sankoff; David Hein"
    TITLE "Phoning Home"
    ISRC USC4R1700024
    INDEX 01 22:26:43
  TRACK 10 AUDIO
    PERFORMER "Irene Sankoff; David Hein"
    TITLE "Costume Party"
    ISRC USC4R1700025
    INDEX 01 23:29:03
  TRACK 11 AUDIO
    PERFORMER "Irene Sankoff; David Hein"
    TITLE "I Am Here"
    ISRC USC4R1700026
    INDEX 01 28:47:24
  TRACK 12 AUDIO
    PERFORMER "Irene Sankoff; David Hein"
    TITLE "Prayer"
    ISRC USC4R1700027
    INDEX 01 30:35:06
  TRACK 13 AUDIO
    PERFORMER "Irene Sankoff; David Hein"
    TITLE "On the Edge"
    ISRC USC4R1700028
    INDEX 01 34:01:05
  TRACK 14 AUDIO
    PERFORMER "Irene Sankoff; David Hein"
    TITLE "In the Bar / Heave Away"
    ISRC USC4R1700029
    INDEX 01 37:22:46
  TRACK 15 AUDIO
    PERFORMER "Irene Sankoff; David Hein"
    TITLE "Screech In"
    ISRC USC4R1700030
    INDEX 01 38:44:70
  TRACK 16 AUDIO
    PERFORMER "Irene Sankoff; David Hein"
    TITLE "Me and the Sky"
    ISRC USC4R1700031
    INDEX 01 42:48:39
  TRACK 17 AUDIO
    PERFORMER "Irene Sankoff; David Hein"
    TITLE "The Dover Fault"
    ISRC USC4R1700032
    INDEX 01 47:25:10
  TRACK 18 AUDIO
    PERFORMER "Irene Sankoff; David Hein"
    TITLE "Stop the World"
    ISRC USC4R1700033
    INDEX 01 47:54:16
  TRACK 19 AUDIO
    PERFORMER "Irene Sankoff; David Hein"
    TITLE "38 Planes (reprise) / Somewhere in the Middle of Nowhere"
    ISRC USC4R1700034
    INDEX 01 50:14:40
  TRACK 20 AUDIO
    PERFORMER "Irene Sankoff; David Hein"
    TITLE "Something's Missing"
    ISRC USC4R1700035
    INDEX 01 54:37:25
  TRACK 21 AUDIO
    PERFORMER "Irene Sankoff; David Hein"
    TITLE "Years Later"
    ISRC USC4R1700036
    INDEX 01 60:13:72
  TRACK 22 AUDIO
    PERFORMER "Irene Sankoff; David Hein"
    TITLE "Finale"
    ISRC USC4R1700037
    INDEX 01 60:31:06
  TRACK 23 AUDIO
    PERFORMER "Irene Sankoff; David Hein"
    TITLE "Screech Out"
    ISRC USC4R1700038
    INDEX 01 64:00:09


MOD Edit: Move CUE text to code for easier viewing

 

Re: Foobar2000 won't recognize tracks in .cue file

Reply #1
I believe the file type is incorrect in this line, FILE "Come From Away ~ 2017 ~ 1 of 1 ~ Musical ~ 888072025950.flac" WAVE.  Try changing WAVE to FLAC as your source file is a .flac file.