Skip to main content

Notice

Please note that most of the software linked on this forum is likely to be safe to use. If you are unsure, feel free to ask in the relevant topics, or send a private message to an administrator or moderator. To help curb the problems of false positives, or in the event that you do find actual malware, you can contribute through the article linked here.
Topic: FB not loading Cue Sheets with leading spaces (Read 122 times) previous topic - next topic
0 Members and 1 Guest are viewing this topic.

FB not loading Cue Sheets with leading spaces

Several cue sheets with indenting spaces refuse to load on Foobar (v1.6.5), same cuesheet with spaces removed loads ok. IE:

Code: [Select]
REM GENRE "Progressive Rock"
REM DATE 1985
REM DISCID 9A085F0C
REM COMMENT "ExactAudioCopy v1.0b3"
PERFORMER "Peter Gabriel"
TITLE "Birdy (CAS CD 1167)"
FILE "Peter Gabriel - Birdy (CAS CD 1167).flac" WAVE
  TRACK 01 AUDIO
    TITLE "At Night"
    PERFORMER "Peter Gabriel"
    INDEX 00 00:00:00
    INDEX 01 00:00:57
  TRACK 02 AUDIO
    TITLE "Floating Dogs"
    PERFORMER "Peter Gabriel"
    INDEX 00 02:43:00
    INDEX 01 02:47:17
  TRACK 03 AUDIO
    TITLE "Quiet And Alone"
    PERFORMER "Peter Gabriel"
    INDEX 00 05:46:07
    INDEX 01 05:49:47
  TRACK 04 AUDIO
    TITLE "Close Up (from Family Snapshot)"
    PERFORMER "Peter Gabriel"
    INDEX 00 08:21:55
    INDEX 01 08:25:02
  TRACK 05 AUDIO
    TITLE "Slow Water"
    PERFORMER "Peter Gabriel"
    INDEX 01 09:20:72
  TRACK 06 AUDIO
    TITLE "Dressing The Wound"
    PERFORMER "Peter Gabriel"
    INDEX 00 12:12:62
    INDEX 01 12:15:12
  TRACK 07 AUDIO
    TITLE "Birdy's Flight (from Not One Of Us)"
    PERFORMER "Peter Gabriel"
    INDEX 00 16:24:25
    INDEX 01 16:26:02
  TRACK 08 AUDIO
    TITLE "Slow Marimbas"
    PERFORMER "Peter Gabriel"
    INDEX 00 19:24:62
    INDEX 01 19:29:07
  TRACK 09 AUDIO
    TITLE "The Heat (from Rhythm Of The Heat)"
    PERFORMER "Peter Gabriel"
    INDEX 00 22:52:72
    INDEX 01 22:53:57
  TRACK 10 AUDIO
    TITLE "Sketch Pad With Trumpet And Voice"
    PERFORMER "Peter Gabriel"
    INDEX 00 27:38:30
    INDEX 01 27:41:05
  TRACK 11 AUDIO
    TITLE "Under Lock And Key (from Wallflower)"
    PERFORMER "Peter Gabriel"
    INDEX 00 30:47:45
    INDEX 01 30:50:22
  TRACK 12 AUDIO
    TITLE "Powerhouse At The Foot Of The Mountain (from San Jacinto)"
    PERFORMER "Peter Gabriel"
    INDEX 01 33:18:47


 
SimplePortal 1.0.0 RC1 © 2008-2021