Skip to main content

Topic: EAC file creation errors. (Read 829 times) previous topic - next topic

0 Members and 1 Guest are viewing this topic.
  • kmplsv
  • [*]
EAC file creation errors.
I am not sure what the problem is. I've included the log. Any help will be appreciated. Thank you.

Code: [Select]
Exact Audio Copy V1.0 beta 3 from 29. August 2011

EAC extraction logfile from 28. December 2012, 15:06

Oktober / Projekt Building

Used drive  : HL-DT-STDVD-RAM GH22LS30  Adapter: 0  ID: 0

Read mode              : Secure
Utilize accurate stream : Yes
Defeat audio cache      : Yes
Make use of C2 pointers : No

Read offset correction                      : 102
Overread into Lead-In and Lead-Out          : Yes
Fill up missing offset samples with silence : Yes
Delete leading and trailing silent blocks  : No
Null samples used in CRC calculations      : Yes
Used interface                              : Native Win32 interface for Win NT & 2000
Gap handling                                : Appended to previous track

Used output format              : User Defined Encoder
Selected bitrate                : 768 kBit/s
Quality                        : High
Add ID3 tag                    : No
Command line compressor        : C:\Program Files (x86)\Exact Audio Copy\FLAC\FLAC.EXE
Additional command line options : -6 -V -T "ARTIST=%artist%" -T "TITLE=%title%" -T "ALBUM=%albumtitle%" -T "DATE=%year%" -T "TRACKNUMBER=%tracknr%" -T "GENRE=%genre%" -T "COMMENT=%comment%" -T "BAND=%albuminterpret%" -T "ALBUMARTIST=%albuminterpret%" -T "COMPOSER=%composer%" %haslyrics%--tag-from-file=LYRICS="%lyricsfile%"%haslyrics% -T "DISCNUMBER=%cdnumber%" -T "TOTALDISCS=%totalcds%" -T "TOTALTRACKS=%numtracks%" %hascover%--picture="%coverfile%"%hascover% %source% -o %dest%


TOC of the extracted CD

     Track |  Start  |  Length  | Start sector | End sector
   ---------------------------------------------------------
       1  |  0:00.00 |  2:58.14 |        0    |    13363 
       2  |  2:58.14 |  3:55.12 |    13364    |    31000 
       3  |  6:53.26 |  3:24.39 |    31001    |    46339 
       4  | 10:17.65 |  3:30.49 |    46340    |    62138 
       5  | 13:48.39 |  3:53.17 |    62139    |    79630 
       6  | 17:41.56 |  3:46.10 |    79631    |    96590 
       7  | 21:27.66 |  3:23.31 |    96591    |  111846 
       8  | 24:51.22 |  4:03.05 |    111847    |  130076 
       9  | 28:54.27 |  4:07.61 |    130077    |  148662 
       10  | 33:02.13 |  2:39.01 |    148663    |  160588 
       11  | 35:41.14 |  3:40.70 |    160589    |  177158 
       12  | 39:22.09 |  3:08.25 |    177159    |  191283 
       13  | 42:30.34 |  3:23.09 |    191284    |  206517 
       14  | 45:53.43 |  3:20.64 |    206518    |  221581 
       15  | 49:14.32 |  4:18.13 |    221582    |  240944 
       16  | 53:32.45 |  4:51.42 |    240945    |  262811 


Track  1

     Filename D:\Rip\Music\Oktober - 01 - In The Building (Front Entrance) .wav

     Pre-gap length  0:00:02.00

     Copy aborted

Track  2

     Filename D:\Rip\Music\Oktober - 02 - NYC.wav

     Peak level 92.1 %
     Extraction speed 1.6 X
     Track quality 100.0 %
     Copy CRC D28F589B
     Track not present in AccurateRip database
     Copy OK

Track  3

     Filename D:\Rip\Music\Oktober - 03 - Beefeater.wav

     Peak level 92.1 %
     Extraction speed 1.5 X
     Track quality 99.9 %
     Copy CRC 0E715832
     Track not present in AccurateRip database
     Copy OK

Track  4

     Filename D:\Rip\Music\Oktober - 04 - Four Korners.wav

     Peak level 96.6 %
     Extraction speed 1.9 X
     Track quality 100.0 %
     Copy CRC 3FBC9B17
     Track not present in AccurateRip database
     Copy OK

Track  5

     Filename D:\Rip\Music\Oktober - 05 - Stay In Line.wav

     Peak level 96.6 %
     Extraction speed 2.1 X
     Track quality 100.0 %
     Copy CRC 33AA339B
     Track not present in AccurateRip database
     Copy OK

Track  6

     Filename D:\Rip\Music\Oktober - 06 - Digamelo.wav

     Peak level 96.6 %
     Extraction speed 2.2 X
     Track quality 100.0 %
     Copy CRC F393E056
     Track not present in AccurateRip database
     Copy OK

Track  7

     Filename D:\Rip\Music\Oktober - 07 - Dont Want Hell .wav

     Copy aborted

Track  8

     Filename D:\Rip\Music\Oktober - 08 - Frostbitten.wav

     Peak level 85.3 %
     Extraction speed 2.5 X
     Track quality 100.0 %
     Copy CRC BDF6FD34
     Track not present in AccurateRip database
     Copy OK

Track  9

     Filename D:\Rip\Music\Oktober - 09 - On My Mind .wav

     Copy aborted

Track 10

     Filename D:\Rip\Music\Oktober - 10 - Letter Zero .wav

     Copy aborted

Track 11

     Filename D:\Rip\Music\Oktober - 11 - Sounds Like Drama .wav

     Copy aborted

Track 12

     Filename D:\Rip\Music\Oktober - 12 - Reset The Game.wav

     Peak level 98.1 %
     Extraction speed 2.6 X
     Track quality 100.0 %
     Copy CRC 7D4EEACC
     Track not present in AccurateRip database
     Copy OK

Track 13

     Filename D:\Rip\Music\Oktober - 13 - Hell To Pay .wav

     Copy aborted

Track 14

     Filename D:\Rip\Music\Oktober - 14 - None Wanna Die.wav

     Peak level 96.6 %
     Extraction speed 2.5 X
     Track quality 99.9 %
     Copy CRC 4E2A9C03
     Track not present in AccurateRip database
     Copy OK

Track 15

     Filename D:\Rip\Music\Oktober - 15 - Murder Me In My Sleep .wav

     Copy aborted

Track 16

     Filename D:\Rip\Music\Oktober - 16 - In Your Eye (Back Exit).wav

     Peak level 96.6 %
     Extraction speed 3.6 X
     Track quality 100.0 %
     Copy CRC 8675A6F8
     Track not present in AccurateRip database
     Copy OK


 9 track(s) not present in the AccurateRip database
 7 track(s) not fully ripped for AccurateRip lookup

No tracks could be verified as accurate

No errors occurred

End of status report
cheers,
kmplsv
"idleness is the holiday of fools."

  • kmplsv
  • [*]
EAC file creation errors.
Reply #1
Nevermind, problem solved. I had a lot of accidental spaces at the end of some of the track names and it was causing the issue.
cheers,
kmplsv
"idleness is the holiday of fools."