Skip to main content

Topic: Test Results: Ripping Damaged Music CD's (Read 2777 times) previous topic - next topic

0 Members and 1 Guest are viewing this topic.
  • jayess
  • [*][*]
Test Results: Ripping Damaged Music CD's
Here's what happens when you take two identical pressings of a music CD with very minor visible scratches and no other apparent damage and attempt to accurately rip the songs. These discs are capable of being played with no audible errors, but yet present very different results when ripped. Error Correction does not appear to restore their accuracy well during ripping. When held up to a household fluorescent light, they show very small pinholes.

http://www.flickr.com/photos/86975222@N06/...in/photostream/

The discs were ripped using DBPoweramp on a HP1270i full size drive, a HP 560s USB notebook drive, and an internal HP DVD RAM U897 drive in an HP Envy notebook. The 1270i and DVD RAM U897 both report they are capable of performing error correction in DBPoweramp.

Here's what the discs look like when you scan them on a scanner to check for pinhole damage:

http://www.flickr.com/photos/86975222@N06/.../in/photostream

http://www.flickr.com/photos/86975222@N06/.../in/photostream

http://www.flickr.com/photos/86975222@N06/.../in/photostream

http://www.flickr.com/photos/86975222@N06/.../in/photostream

Both the HP 1270i and the HP 560s are able to rip disc 1 and 2, but the DVD RAM U897 wants to rip roughly 5,000 frames on each track, so ripping disc 1 and 2 on that drive was cancelled because it would have taken days to perform the rip. In testing with my collection, the U 897 does appear to be the most accurate drive, especially when ripping problem last tracks on discs.

Here are the Accuraterip log contents for each disc on the various drives:

HP 1270i Disc 1

dBpoweramp Release 14.2 Digital Audio Extraction Log from Sunday, September 09, 2012 09:56 AM

Drive & Settings
----------------

Ripping with drive 'E:  [HP      - DVD Writer 1270t]',  Drive offset: 6,  Overread Lead-in/out: No
AccurateRip: Active,  Using C2: Yes,  Cache: 1024 KB,  FUA Cache Invalidate: No
Pass 1 Drive Speed: 10,  Pass 2 Drive Speed: 10
Ultra::  Vary Drive Speed: No,  Min Passes: 3,  Max Passes: 6,  Finish After Clean Passes: 2
Bad Sector Re-rip::  Drive Speed: 4,  Maximum Re-reads: 34

Encoder: Wave -compression="PCM"

Extraction Log
--------------

Track 1:  Ripped LBA 37 to 24940 (5:32) in 1:25. Filename: C:\Users\User-1\Music\Elton John\Sleeping with the Past\01 Elton John - Durban Deep.wav
  AccurateRip: Accurate (confidence 4)    [Pass 1]
  CRC32: 0E9887A1    AccurateRip CRC: C8D19798 (CRCv2)    [DiscID: 010-0012b4fa-00948737-810b3c0a-1]
  AccurateRip Verified Confidence 4 [CRCv2 c8d19798]
  AccurateRip Verified Confidence 19 [CRCv1 9c42d4c7]
  AccurateRip Verified Confidence 22 [CRCv1 ff5f40ca], Using Pressing Offset -278
  AccurateRip Verified Confidence 12 [CRCv1 7c6c2fa3], Using Pressing Offset -685

Track 2:  Ripped LBA 24940 to 44667 (4:23) in 0:59. Filename: C:\Users\User-1\Music\Elton John\Sleeping with the Past\02 Elton John - Healing Hands.wav
  AccurateRip: Accurate (confidence 4)    [Pass 1]
  CRC32: 2D57E79B    AccurateRip CRC: D329C3DF (CRCv2)    [DiscID: 010-0012b4fa-00948737-810b3c0a-2]
  AccurateRip Verified Confidence 4 [CRCv2 d329c3df]
  AccurateRip Verified Confidence 19 [CRCv1 b4281416]
  AccurateRip Verified Confidence 22 [CRCv1 b476ac0b], Using Pressing Offset -278
  AccurateRip Verified Confidence 12 [CRCv1 6896be99], Using Pressing Offset -685

Track 3:  Ripped LBA 44667 to 69432 (5:30) in 1:08. Filename: C:\Users\User-1\Music\Elton John\Sleeping with the Past\03 Elton John - Whispers.wav
  AccurateRip: Accurate (confidence 3)    [Pass 1]
  CRC32: 68602F2D    AccurateRip CRC: 61894AD4 (CRCv2)    [DiscID: 010-0012b4fa-00948737-810b3c0a-3]
  AccurateRip Verified Confidence 3 [CRCv2 61894ad4]
  AccurateRip Verified Confidence 19 [CRCv1 b527411d]
  AccurateRip Verified Confidence 22 [CRCv1 29f8da3b], Using Pressing Offset -278
  AccurateRip Verified Confidence 12 [CRCv1 ddbb880b], Using Pressing Offset -685

Track 4:  Ripped LBA 69432 to 91257 (4:51) in 0:55. Filename: C:\Users\User-1\Music\Elton John\Sleeping with the Past\04 Elton John - Club at the End of the Street.wav
  AccurateRip: Accurate (confidence 4)    [Pass 1]
  CRC32: B23E1A21    AccurateRip CRC: F6A5E38C (CRCv2)    [DiscID: 010-0012b4fa-00948737-810b3c0a-4]
  AccurateRip Verified Confidence 4 [CRCv2 f6a5e38c]
  AccurateRip Verified Confidence 19 [CRCv1 4ea98889]
  AccurateRip Verified Confidence 22 [CRCv1 ca0b3bfb], Using Pressing Offset -278
  AccurateRip Verified Confidence 12 [CRCv1 5365c838], Using Pressing Offset -685

Track 5:  Ripped LBA 91257 to 113747 (4:59) in 0:52. Filename: C:\Users\User-1\Music\Elton John\Sleeping with the Past\05 Elton John - Sleeping With the Past.wav
  AccurateRip: Accurate (confidence 4)    [Pass 1]
  CRC32: C6CAA0DB    AccurateRip CRC: CBC12F9E (CRCv2)    [DiscID: 010-0012b4fa-00948737-810b3c0a-5]
  AccurateRip Verified Confidence 4 [CRCv2 cbc12f9e]
  AccurateRip Verified Confidence 19 [CRCv1 3a460eae]
  AccurateRip Verified Confidence 22 [CRCv1 2b402a8], Using Pressing Offset -278
  AccurateRip Verified Confidence 11 [CRCv1 44af3ab9], Using Pressing Offset -685

Track 6:  Ripped LBA 113747 to 135992 (4:56) in 0:49. Filename: C:\Users\User-1\Music\Elton John\Sleeping with the Past\06 Elton John - Stone's Throw From Hurtin'.wav
  AccurateRip: Accurate (confidence 3)    [Pass 1]
  CRC32: C66F418A    AccurateRip CRC: F395DD13 (CRCv2)    [DiscID: 010-0012b4fa-00948737-810b3c0a-6]
  AccurateRip Verified Confidence 3 [CRCv2 f395dd13]
  AccurateRip Verified Confidence 19 [CRCv1 d092d741]
  AccurateRip Verified Confidence 22 [CRCv1 6c50bb22], Using Pressing Offset -278
  AccurateRip Verified Confidence 11 [CRCv1 c848f672], Using Pressing Offset -685

Track 7:  Ripped LBA 135992 to 159102 (5:08) in 0:48. Filename: C:\Users\User-1\Music\Elton John\Sleeping with the Past\07 Elton John - Sacrifice.wav
  AccurateRip: Accurate (confidence 3)    [Pass 1]
  CRC32: F4B524C1    AccurateRip CRC: C6D04BE5 (CRCv2)    [DiscID: 010-0012b4fa-00948737-810b3c0a-7]
  AccurateRip Verified Confidence 3 [CRCv2 c6d04be5]
  AccurateRip Verified Confidence 19 [CRCv1 a556f602]
  AccurateRip Verified Confidence 22 [CRCv1 217845b9], Using Pressing Offset -278
  AccurateRip Verified Confidence 11 [CRCv1 4c19e253], Using Pressing Offset -685

Track 8:  Ripped LBA 159102 to 175007 (3:32) in 0:31. Filename: C:\Users\User-1\Music\Elton John\Sleeping with the Past\08 Elton John - I Never Knew Her Name.wav
  AccurateRip: Accurate (confidence 4)    [Pass 1]
  CRC32: 827BFCA0    AccurateRip CRC: CC50CA12 (CRCv2)    [DiscID: 010-0012b4fa-00948737-810b3c0a-8]
  AccurateRip Verified Confidence 4 [CRCv2 cc50ca12]
  AccurateRip Verified Confidence 19 [CRCv1 640387d4]
  AccurateRip Verified Confidence 22 [CRCv1 f676c5c2], Using Pressing Offset -278
  AccurateRip Verified Confidence 11 [CRCv1 ceb682f5], Using Pressing Offset -685

Track 9:  Ripped LBA 175007 to 196060 (4:40) in 0:40. Filename: C:\Users\User-1\Music\Elton John\Sleeping with the Past\09 Elton John - Amazes Me.wav
  AccurateRip: Accurate (confidence 3)    [Pass 1]
  CRC32: 70048F41    AccurateRip CRC: 5F06DA7B (CRCv2)    [DiscID: 010-0012b4fa-00948737-810b3c0a-9]
  AccurateRip Verified Confidence 3 [CRCv2 5f06da7b]
  AccurateRip Verified Confidence 19 [CRCv1 44a92493]
  AccurateRip Verified Confidence 22 [CRCv1 7bcfdc35], Using Pressing Offset -278
  AccurateRip Verified Confidence 11 [CRCv1 393781ea], Using Pressing Offset -685

Track 10:  Ripped LBA 196060 to 215737 (4:22) in 0:36. Filename: C:\Users\User-1\Music\Elton John\Sleeping with the Past\10 Elton John - Blue Avenue.wav
  AccurateRip: Accurate (confidence 3)    [Pass 1]
  CRC32: 18F774DD    AccurateRip CRC: 1723D2F8 (CRCv2)    [DiscID: 010-0012b4fa-00948737-810b3c0a-10]
  AccurateRip Verified Confidence 3 [CRCv2 1723d2f8]
  AccurateRip Verified Confidence 19 [CRCv1 6a297d2a]
  AccurateRip Verified Confidence 22 [CRCv1 85c2de76], Using Pressing Offset -278
  AccurateRip Verified Confidence 12 [CRCv1 c7f38974], Using Pressing Offset -685

--------------

10 Tracks Ripped Accurately

HP 1270i Disc 2

dBpoweramp Release 14.2 Digital Audio Extraction Log from Sunday, September 09, 2012 10:08 AM

Drive & Settings
----------------

Ripping with drive 'E:  [HP      - DVD Writer 1270t]',  Drive offset: 6,  Overread Lead-in/out: No
AccurateRip: Active,  Using C2: Yes,  Cache: 1024 KB,  FUA Cache Invalidate: No
Pass 1 Drive Speed: 10,  Pass 2 Drive Speed: 10
Ultra::  Vary Drive Speed: No,  Min Passes: 3,  Max Passes: 6,  Finish After Clean Passes: 2
Bad Sector Re-rip::  Drive Speed: 4,  Maximum Re-reads: 34

Encoder: Wave -compression="PCM"

Extraction Log
--------------

Track 1:  Ripped LBA 0 to 24848 (5:31) in 1:25. Filename: C:\Users\User-1\Music\Elton John\Sleeping with the Past\01 Elton John - Durban Deep.wav
  AccurateRip: Accurate (confidence 1)    [Pass 1]
  CRC32: C775C3BE    AccurateRip CRC: F19CA45A    [DiscID: 010-0012b14d-00947184-760b3c0a-1]
  AccurateRip Verified Confidence 1 [CRCv1 f19ca45a]

Track 2:  Ripped LBA 24848 to 44577 (4:23) in 0:59. Filename: C:\Users\User-1\Music\Elton John\Sleeping with the Past\02 Elton John - Healing Hands.wav
  AccurateRip: Accurate (confidence 1)    [Pass 1]
  CRC32: 8EBBF75E    AccurateRip CRC: FF622EA2    [DiscID: 010-0012b14d-00947184-760b3c0a-2]
  AccurateRip Verified Confidence 1 [CRCv1 ff622ea2]

Track 3:  Ripped LBA 44577 to 69328 (5:30) in 1:07. Filename: C:\Users\User-1\Music\Elton John\Sleeping with the Past\03 Elton John - Whispers.wav
  AccurateRip: Accurate (confidence 1)    [Pass 1]
  CRC32: 093F7805    AccurateRip CRC: FAE75FB1    [DiscID: 010-0012b14d-00947184-760b3c0a-3]
  AccurateRip Verified Confidence 1 [CRCv1 fae75fb1]

Track 4:  Ripped LBA 69328 to 91153 (4:51) in 0:54. Filename: C:\Users\User-1\Music\Elton John\Sleeping with the Past\04 Elton John - Club at the End of the Street.wav
  AccurateRip: Accurate (confidence 1)    [Pass 1]
  CRC32: 7DFC5560    AccurateRip CRC: 9B791E26    [DiscID: 010-0012b14d-00947184-760b3c0a-4]
  AccurateRip Verified Confidence 1 [CRCv1 9b791e26]

Track 5:  Ripped LBA 91153 to 113640 (4:59) in 0:51. Filename: C:\Users\User-1\Music\Elton John\Sleeping with the Past\05 Elton John - Sleeping With the Past.wav
  AccurateRip: Accurate (confidence 1)    [Pass 1]
  CRC32: AB6EB44A    AccurateRip CRC: B7B2549A    [DiscID: 010-0012b14d-00947184-760b3c0a-5]
  AccurateRip Verified Confidence 1 [CRCv1 b7b2549a]

Track 6:  Ripped LBA 113640 to 135903 (4:56) in 0:48. Filename: C:\Users\User-1\Music\Elton John\Sleeping with the Past\06 Elton John - Stone's Throw From Hurtin'.wav
  AccurateRip: Accurate (confidence 1)    [Pass 1]
  CRC32: 19E2AFD6    AccurateRip CRC: 3B3A66C0    [DiscID: 010-0012b14d-00947184-760b3c0a-6]
  AccurateRip Verified Confidence 1 [CRCv1 3b3a66c0]

Track 7:  Ripped LBA 135903 to 158995 (5:07) in 0:47. Filename: C:\Users\User-1\Music\Elton John\Sleeping with the Past\07 Elton John - Sacrifice.wav
  AccurateRip: Accurate (confidence 1)    [Pass 1]
  CRC32: 8686CB0E    AccurateRip CRC: 589F9D6F    [DiscID: 010-0012b14d-00947184-760b3c0a-7]
  AccurateRip Verified Confidence 1 [CRCv1 589f9d6f]

Track 8:  Ripped LBA 158995 to 174903 (3:32) in 0:31. Filename: C:\Users\User-1\Music\Elton John\Sleeping with the Past\08 Elton John - I Never Knew Her Name.wav
  AccurateRip: Accurate (confidence 1)    [Pass 1]
  CRC32: 077CDE2A    AccurateRip CRC: 588B3884    [DiscID: 010-0012b14d-00947184-760b3c0a-8]
  AccurateRip Verified Confidence 1 [CRCv1 588b3884]

Track 9:  Ripped LBA 174903 to 195955 (4:40) in 0:39. Filename: C:\Users\User-1\Music\Elton John\Sleeping with the Past\09 Elton John - Amazes Me.wav
  AccurateRip: Accurate (confidence 1)    [Pass 1]
  CRC32: 26B71F43    AccurateRip CRC: BCD4EEAF    [DiscID: 010-0012b14d-00947184-760b3c0a-9]
  AccurateRip Verified Confidence 1 [CRCv1 bcd4eeaf]

Track 10:  Ripped LBA 195955 to 215735 (4:23) in 0:35. Filename: C:\Users\User-1\Music\Elton John\Sleeping with the Past\10 Elton John - Blue Avenue.wav
  AccurateRip: Accurate (confidence 1)    [Pass 1]
  CRC32: A9CA4FBF    AccurateRip CRC: B329D3AA    [DiscID: 010-0012b14d-00947184-760b3c0a-10]
  AccurateRip Verified Confidence 1 [CRCv1 b329d3aa]

--------------

10 Tracks Ripped Accurately

HP 560s Disc 1

dBpoweramp Release 14.2 Digital Audio Extraction Log from Sunday, September 09, 2012 10:22 AM

Drive & Settings
----------------

Ripping with drive 'E:  [HP      - DVD Writer 560r ]',  Drive offset: 6,  Overread Lead-in/out: No
AccurateRip: Active,  Using C2: No,  Cache: 1024 KB,  FUA Cache Invalidate: No
Pass 1 Drive Speed: 10,  Pass 2 Drive Speed: 10
Bad Sector Re-rip::  Drive Speed: 10,  Maximum Re-reads: 34

Encoder: Wave -compression="PCM"

Extraction Log
--------------

Track 1:  Ripped LBA 37 to 24940 (5:32) in 1:21. Filename: F:\Elton John\Sleeping with the Past\01 Elton John - Durban Deep.wav
  AccurateRip: Accurate (confidence 4)    [Pass 1]
  CRC32: 0E9887A1    AccurateRip CRC: C8D19798 (CRCv2)    [DiscID: 010-0012b4fa-00948737-810b3c0a-1]
  AccurateRip Verified Confidence 4 [CRCv2 c8d19798]
  AccurateRip Verified Confidence 19 [CRCv1 9c42d4c7]
  AccurateRip Verified Confidence 22 [CRCv1 ff5f40ca], Using Pressing Offset -278
  AccurateRip Verified Confidence 12 [CRCv1 7c6c2fa3], Using Pressing Offset -685

Track 2:  Ripped LBA 24940 to 44667 (4:23) in 0:56. Filename: F:\Elton John\Sleeping with the Past\02 Elton John - Healing Hands.wav
  AccurateRip: Accurate (confidence 4)    [Pass 1]
  CRC32: 2D57E79B    AccurateRip CRC: D329C3DF (CRCv2)    [DiscID: 010-0012b4fa-00948737-810b3c0a-2]
  AccurateRip Verified Confidence 4 [CRCv2 d329c3df]
  AccurateRip Verified Confidence 19 [CRCv1 b4281416]
  AccurateRip Verified Confidence 22 [CRCv1 b476ac0b], Using Pressing Offset -278
  AccurateRip Verified Confidence 12 [CRCv1 6896be99], Using Pressing Offset -685

Track 3:  Ripped LBA 44667 to 69432 (5:30) in 1:04. Filename: F:\Elton John\Sleeping with the Past\03 Elton John - Whispers.wav
  AccurateRip: Accurate (confidence 3)    [Pass 1]
  CRC32: 68602F2D    AccurateRip CRC: 61894AD4 (CRCv2)    [DiscID: 010-0012b4fa-00948737-810b3c0a-3]
  AccurateRip Verified Confidence 3 [CRCv2 61894ad4]
  AccurateRip Verified Confidence 19 [CRCv1 b527411d]
  AccurateRip Verified Confidence 22 [CRCv1 29f8da3b], Using Pressing Offset -278
  AccurateRip Verified Confidence 12 [CRCv1 ddbb880b], Using Pressing Offset -685

Track 4:  Ripped LBA 69432 to 91257 (4:51) in 0:52. Filename: F:\Elton John\Sleeping with the Past\04 Elton John - Club at the End of the Street.wav
  AccurateRip: Accurate (confidence 4)    [Pass 1]
  CRC32: B23E1A21    AccurateRip CRC: F6A5E38C (CRCv2)    [DiscID: 010-0012b4fa-00948737-810b3c0a-4]
  AccurateRip Verified Confidence 4 [CRCv2 f6a5e38c]
  AccurateRip Verified Confidence 19 [CRCv1 4ea98889]
  AccurateRip Verified Confidence 22 [CRCv1 ca0b3bfb], Using Pressing Offset -278
  AccurateRip Verified Confidence 12 [CRCv1 5365c838], Using Pressing Offset -685

Track 5:  Ripped LBA 91257 to 113747 (4:59) in 0:50. Filename: F:\Elton John\Sleeping with the Past\05 Elton John - Sleeping With the Past.wav
  AccurateRip: Accurate (confidence 4)    [Pass 1]
  CRC32: C6CAA0DB    AccurateRip CRC: CBC12F9E (CRCv2)    [DiscID: 010-0012b4fa-00948737-810b3c0a-5]
  AccurateRip Verified Confidence 4 [CRCv2 cbc12f9e]
  AccurateRip Verified Confidence 19 [CRCv1 3a460eae]
  AccurateRip Verified Confidence 22 [CRCv1 2b402a8], Using Pressing Offset -278
  AccurateRip Verified Confidence 11 [CRCv1 44af3ab9], Using Pressing Offset -685

Track 6:  Ripped LBA 113747 to 135992 (4:56) in 0:46. Filename: F:\Elton John\Sleeping with the Past\06 Elton John - Stone's Throw From Hurtin'.wav
  AccurateRip: Accurate (confidence 3)    [Pass 1]
  CRC32: C66F418A    AccurateRip CRC: F395DD13 (CRCv2)    [DiscID: 010-0012b4fa-00948737-810b3c0a-6]
  AccurateRip Verified Confidence 3 [CRCv2 f395dd13]
  AccurateRip Verified Confidence 19 [CRCv1 d092d741]
  AccurateRip Verified Confidence 22 [CRCv1 6c50bb22], Using Pressing Offset -278
  AccurateRip Verified Confidence 11 [CRCv1 c848f672], Using Pressing Offset -685

Track 7:  Ripped LBA 135992 to 159102 (5:08) in 0:45. Filename: F:\Elton John\Sleeping with the Past\07 Elton John - Sacrifice.wav
  AccurateRip: Accurate (confidence 3)    [Pass 1]
  CRC32: F4B524C1    AccurateRip CRC: C6D04BE5 (CRCv2)    [DiscID: 010-0012b4fa-00948737-810b3c0a-7]
  AccurateRip Verified Confidence 3 [CRCv2 c6d04be5]
  AccurateRip Verified Confidence 19 [CRCv1 a556f602]
  AccurateRip Verified Confidence 22 [CRCv1 217845b9], Using Pressing Offset -278
  AccurateRip Verified Confidence 11 [CRCv1 4c19e253], Using Pressing Offset -685

Track 8:  Ripped LBA 159102 to 175007 (3:32) in 0:30. Filename: F:\Elton John\Sleeping with the Past\08 Elton John - I Never Knew Her Name.wav
  AccurateRip: Accurate (confidence 4)    [Pass 1]
  CRC32: 827BFCA0    AccurateRip CRC: CC50CA12 (CRCv2)    [DiscID: 010-0012b4fa-00948737-810b3c0a-8]
  AccurateRip Verified Confidence 4 [CRCv2 cc50ca12]
  AccurateRip Verified Confidence 19 [CRCv1 640387d4]
  AccurateRip Verified Confidence 22 [CRCv1 f676c5c2], Using Pressing Offset -278
  AccurateRip Verified Confidence 11 [CRCv1 ceb682f5], Using Pressing Offset -685

Track 9:  Ripped LBA 175007 to 196060 (4:40) in 0:38. Filename: F:\Elton John\Sleeping with the Past\09 Elton John - Amazes Me.wav
  AccurateRip: Accurate (confidence 3)    [Pass 1]
  CRC32: 70048F41    AccurateRip CRC: 5F06DA7B (CRCv2)    [DiscID: 010-0012b4fa-00948737-810b3c0a-9]
  AccurateRip Verified Confidence 3 [CRCv2 5f06da7b]
  AccurateRip Verified Confidence 19 [CRCv1 44a92493]
  AccurateRip Verified Confidence 22 [CRCv1 7bcfdc35], Using Pressing Offset -278
  AccurateRip Verified Confidence 11 [CRCv1 393781ea], Using Pressing Offset -685

Track 10:  Ripped LBA 196060 to 215737 (4:22) in 0:34. Filename: F:\Elton John\Sleeping with the Past\10 Elton John - Blue Avenue.wav
  AccurateRip: Accurate (confidence 3)    [Pass 1]
  CRC32: 18F774DD    AccurateRip CRC: 1723D2F8 (CRCv2)    [DiscID: 010-0012b4fa-00948737-810b3c0a-10]
  AccurateRip Verified Confidence 3 [CRCv2 1723d2f8]
  AccurateRip Verified Confidence 19 [CRCv1 6a297d2a]
  AccurateRip Verified Confidence 22 [CRCv1 85c2de76], Using Pressing Offset -278
  AccurateRip Verified Confidence 12 [CRCv1 c7f38974], Using Pressing Offset -685

--------------

10 Tracks Ripped Accurately

HP 560s Disc 2

dBpoweramp Release 14.2 Digital Audio Extraction Log from Sunday, September 09, 2012 11:07 AM

Drive & Settings
----------------

Ripping with drive 'E:  [HP      - DVD Writer 560r ]',  Drive offset: 6,  Overread Lead-in/out: No
AccurateRip: Active,  Using C2: No,  Cache: 1024 KB,  FUA Cache Invalidate: No
Pass 1 Drive Speed: 10,  Pass 2 Drive Speed: 10
Bad Sector Re-rip::  Drive Speed: 10,  Maximum Re-reads: 34

Encoder: Wave -compression="PCM"

Extraction Log
--------------

Track 1:  Ripped LBA 0 to 24848 (5:31) in 1:20. Filename: F:\Elton John\Sleeping with the Past\01 Elton John - Durban Deep.wav
  AccurateRip: Accurate (confidence 1)    [Pass 1]
  CRC32: C775C3BE    AccurateRip CRC: F19CA45A    [DiscID: 010-0012b14d-00947184-760b3c0a-1]
  AccurateRip Verified Confidence 1 [CRCv1 f19ca45a]

Track 2:  Ripped LBA 24848 to 44577 (4:23) in 0:56. Filename: F:\Elton John\Sleeping with the Past\02 Elton John - Healing Hands.wav
  AccurateRip: Accurate (confidence 1)    [Pass 1]
  CRC32: 8EBBF75E    AccurateRip CRC: FF622EA2    [DiscID: 010-0012b14d-00947184-760b3c0a-2]
  AccurateRip Verified Confidence 1 [CRCv1 ff622ea2]

Track 3:  Ripped LBA 44577 to 69328 (5:30) in 1:03. Filename: F:\Elton John\Sleeping with the Past\03 Elton John - Whispers.wav
  AccurateRip: Accurate (confidence 1)    [Pass 1]
  CRC32: 093F7805    AccurateRip CRC: FAE75FB1    [DiscID: 010-0012b14d-00947184-760b3c0a-3]
  AccurateRip Verified Confidence 1 [CRCv1 fae75fb1]

Track 4:  Ripped LBA 69328 to 91153 (4:51) in 0:51. Filename: F:\Elton John\Sleeping with the Past\04 Elton John - Club at the End of the Street.wav
  AccurateRip: Accurate (confidence 1)    [Pass 1]
  CRC32: 7DFC5560    AccurateRip CRC: 9B791E26    [DiscID: 010-0012b14d-00947184-760b3c0a-4]
  AccurateRip Verified Confidence 1 [CRCv1 9b791e26]

Track 5:  Ripped LBA 91153 to 113640 (4:59) in 0:49. Filename: F:\Elton John\Sleeping with the Past\05 Elton John - Sleeping With the Past.wav
  AccurateRip: Accurate (confidence 1)    [Pass 1]
  CRC32: AB6EB44A    AccurateRip CRC: B7B2549A    [DiscID: 010-0012b14d-00947184-760b3c0a-5]
  AccurateRip Verified Confidence 1 [CRCv1 b7b2549a]

Track 6:  Ripped LBA 113640 to 135903 (4:56) in 0:45. Filename: F:\Elton John\Sleeping with the Past\06 Elton John - Stone's Throw From Hurtin'.wav
  AccurateRip: Accurate (confidence 1)    [Pass 1]
  CRC32: 19E2AFD6    AccurateRip CRC: 3B3A66C0    [DiscID: 010-0012b14d-00947184-760b3c0a-6]
  AccurateRip Verified Confidence 1 [CRCv1 3b3a66c0]

Track 7:  Ripped LBA 135903 to 158995 (5:07) in 0:44. Filename: F:\Elton John\Sleeping with the Past\07 Elton John - Sacrifice.wav
  AccurateRip: Accurate (confidence 1)    [Pass 1]
  CRC32: 8686CB0E    AccurateRip CRC: 589F9D6F    [DiscID: 010-0012b14d-00947184-760b3c0a-7]
  AccurateRip Verified Confidence 1 [CRCv1 589f9d6f]

Track 8:  Ripped LBA 158995 to 174903 (3:32) in 0:29. Filename: F:\Elton John\Sleeping with the Past\08 Elton John - I Never Knew Her Name.wav
  AccurateRip: Accurate (confidence 1)    [Pass 1]
  CRC32: 077CDE2A    AccurateRip CRC: 588B3884    [DiscID: 010-0012b14d-00947184-760b3c0a-8]
  AccurateRip Verified Confidence 1 [CRCv1 588b3884]

Track 9:  Ripped LBA 174903 to 195955 (4:40) in 0:37. Filename: F:\Elton John\Sleeping with the Past\09 Elton John - Amazes Me.wav
  AccurateRip: Accurate (confidence 1)    [Pass 1]
  CRC32: 26B71F43    AccurateRip CRC: BCD4EEAF    [DiscID: 010-0012b14d-00947184-760b3c0a-9]
  AccurateRip Verified Confidence 1 [CRCv1 bcd4eeaf]

Track 10:  Ripped LBA 195955 to 215735 (4:23) in 0:33. Filename: F:\Elton John\Sleeping with the Past\10 Elton John - Blue Avenue.wav
  AccurateRip: Accurate (confidence 1)    [Pass 1]
  CRC32: A9CA4FBF    AccurateRip CRC: B329D3AA    [DiscID: 010-0012b14d-00947184-760b3c0a-10]
  AccurateRip Verified Confidence 1 [CRCv1 b329d3aa]

--------------

10 Tracks Ripped Accurately

HP DVD RAM U897 Disc 1

dBpoweramp Release 14.2 Digital Audio Extraction Log from Sunday, September 09, 2012 10:35 AM

Drive & Settings
----------------

Ripping with drive 'D:  [hp      - DVD RAM UJ897  ]',  Drive offset: 102,  Overread Lead-in/out: No
AccurateRip: Active,  Using C2: Yes,  Cache: 1024 KB,  FUA Cache Invalidate: No
Pass 1 Drive Speed: 6,  Pass 2 Drive Speed: 6
Bad Sector Re-rip::  Drive Speed: 6,  Maximum Re-reads: 34

Encoder: Wave -compression="PCM"

Extraction Log
--------------

Track 1:  ERROR Ripping LBA 37 to 24940 (5:32) in 2:36. Filename: F:\Elton John\Sleeping with the Past\01 Elton John - Durban Deep.wav

Track 2:  ERROR Ripping LBA 24940 to 44667 (4:23) in 4:36. Filename: F:\Elton John\Sleeping with the Past\02 Elton John - Healing Hands.wav

Track 3:  ERROR Ripping LBA 44667 to 69432 (5:30) in 1:39. Filename: F:\Elton John\Sleeping with the Past\03 Elton John - Whispers.wav

Track 4:  ERROR Ripping LBA 69432 to 91257 (4:51) in 6:21. Filename: F:\Elton John\Sleeping with the Past\04 Elton John - Club at the End of the Street.wav

Track 5:  ERROR Ripping LBA 91257 to 113747 (4:59) in 1:56. Filename: F:\Elton John\Sleeping with the Past\05 Elton John - Sleeping With the Past.wav

Track 6:  ERROR Ripping LBA 113747 to 135992 (4:56) in 3:09. Filename: F:\Elton John\Sleeping with the Past\06 Elton John - Stone's Throw From Hurtin'.wav

Track 7:  ERROR Ripping LBA 135992 to 159102 (5:08) in 2:52. Filename: F:\Elton John\Sleeping with the Past\07 Elton John - Sacrifice.wav

Track 8:  ERROR Ripping LBA 159102 to 175007 (3:32) in 2:14. Filename: F:\Elton John\Sleeping with the Past\08 Elton John - I Never Knew Her Name.wav

Track 9:  ERROR Ripping LBA 175007 to 196060 (4:40) in 2:11. Filename: F:\Elton John\Sleeping with the Past\09 Elton John - Amazes Me.wav

Track 10:  ERROR Ripping LBA 196060 to 215737 (4:22) in 1:22. Filename: F:\Elton John\Sleeping with the Past\10 Elton John - Blue Avenue.wav

--------------

10 Tracks Could Not Be Ripped

HP DVD RAM U897 Disc 2

dBpoweramp Release 14.2 Digital Audio Extraction Log from Sunday, September 09, 2012 11:18 AM

Drive & Settings
----------------

Ripping with drive 'D:  [hp      - DVD RAM UJ897  ]',  Drive offset: 102,  Overread Lead-in/out: No
AccurateRip: Active,  Using C2: Yes,  Cache: 1024 KB,  FUA Cache Invalidate: No
Pass 1 Drive Speed: 6,  Pass 2 Drive Speed: 6
Bad Sector Re-rip::  Drive Speed: 6,  Maximum Re-reads: 34

Encoder: Wave -compression="PCM"

Extraction Log
--------------

Track 1:  ERROR Ripping LBA 0 to 24848 (5:31) in 2:10. Filename: F:\Elton John\Sleeping with the Past\01 Elton John - Durban Deep.wav

Track 2:  ERROR Ripping LBA 24848 to 44577 (4:23) in 4:33. Filename: F:\Elton John\Sleeping with the Past\02 Elton John - Healing Hands.wav

Track 3:  ERROR Ripping LBA 44577 to 69328 (5:30) in 1:40. Filename: F:\Elton John\Sleeping with the Past\03 Elton John - Whispers.wav

Track 4:  ERROR Ripping LBA 69328 to 91153 (4:51) in 1:19. Filename: F:\Elton John\Sleeping with the Past\04 Elton John - Club at the End of the Street.wav

Track 5:  ERROR Ripping LBA 91153 to 113640 (4:59) in 2:52. Filename: F:\Elton John\Sleeping with the Past\05 Elton John - Sleeping With the Past.wav

Track 6:  ERROR Ripping LBA 113640 to 135903 (4:56) in 1:15. Filename: F:\Elton John\Sleeping with the Past\06 Elton John - Stone's Throw From Hurtin'.wav

Track 7:  ERROR Ripping LBA 135903 to 158995 (5:07) in 1:09. Filename: F:\Elton John\Sleeping with the Past\07 Elton John - Sacrifice.wav

Track 8:  ERROR Ripping LBA 158995 to 174903 (3:32) in 0:46. Filename: F:\Elton John\Sleeping with the Past\08 Elton John - I Never Knew Her Name.wav

Track 9:  ERROR Ripping LBA 174903 to 195955 (4:40) in 1:00. Filename: F:\Elton John\Sleeping with the Past\09 Elton John - Amazes Me.wav

Track 10:  ERROR Ripping LBA 195955 to 215735 (4:23) in 1:07. Filename: F:\Elton John\Sleeping with the Past\10 Elton John - Blue Avenue.wav

--------------

10 Tracks Could Not Be Ripped

**********************************************************

This test was done as a result of the heated debate in this thread:

http://www.hydrogenaudio.org/forums/index....showtopic=96837

Overall, I'm still not impressed with error correction when it comes to CD's with pinholes or minor scratches and it's inability to help them be ripped.

Feel free to post your own test, or if you have the CD "Elton Johh - Sleeping with the Past" then feel free to post your rip results from Accuraterip. And I'm still waiting on some other posters who claim that error correction can work with a hole drilled in a disc to demonstrate their claim.

Test Results: Ripping Damaged Music CD's
Reply #1
The reason why you get different AccurateRip results for the two discs is because they are different pressings.

For example, the location and length of track 1 on your discs are not the same.

In your first disc, "Track 1: Ripped LBA 37 to 24940 (5:32)"
While for your second disc, "Track 1: Ripped LBA 0 to 24848 (5:31)"

  • jayess
  • [*][*]
Test Results: Ripping Damaged Music CD's
Reply #2
The reason why you get different AccurateRip results for the two discs is because they are different pressings.

For example, the location and length of track 1 on your discs are not the same.

In your first disc, "Track 1: Ripped LBA 37 to 24940 (5:32)"
While for your second disc, "Track 1: Ripped LBA 0 to 24848 (5:31)"


So the software can't differentiate between pressings?

And if not, what good are the Accuraterip numbers?

I just want to lead a simple life and rip music accurately without too much headache in doing so.

  • jayess
  • [*][*]
Test Results: Ripping Damaged Music CD's
Reply #3
Going into DBPoweramp I turned off the "C2 error pointers for error detection" that is reported the drive was able to use on the DVD RAM UJ897 drive, it then was able to rip both discs without wanting to rip 5,000 or so frames.

These are the rip results:

DVD RAM UJ897 disc 1:

dBpoweramp Release 14.2 Digital Audio Extraction Log from Sunday, September 09, 2012 12:14 PM

Drive & Settings
----------------

Ripping with drive 'D:  [hp      - DVD RAM UJ897  ]',  Drive offset: 102,  Overread Lead-in/out: No
AccurateRip: Active,  Using C2: No,  Cache: 1024 KB,  FUA Cache Invalidate: No
Pass 1 Drive Speed: 6,  Pass 2 Drive Speed: 6
Bad Sector Re-rip::  Drive Speed: 6,  Maximum Re-reads: 34

Encoder: Wave -compression="PCM"

Extraction Log
--------------

Track 1:  Ripped LBA 37 to 24940 (5:32) in 2:01. Filename: F:\Elton John\Sleeping with the Past\01 Elton John - Durban Deep.wav
  AccurateRip: Accurate (confidence 4)    [Pass 1]
  CRC32: 0E9887A1    AccurateRip CRC: C8D19798 (CRCv2)    [DiscID: 010-0012b4fa-00948737-810b3c0a-1]
  AccurateRip Verified Confidence 4 [CRCv2 c8d19798]
  AccurateRip Verified Confidence 19 [CRCv1 9c42d4c7]
  AccurateRip Verified Confidence 22 [CRCv1 ff5f40ca], Using Pressing Offset -278
  AccurateRip Verified Confidence 12 [CRCv1 7c6c2fa3], Using Pressing Offset -685

Track 2:  Ripped LBA 24940 to 44667 (4:23) in 1:24. Filename: F:\Elton John\Sleeping with the Past\02 Elton John - Healing Hands.wav
  AccurateRip: Accurate (confidence 4)    [Pass 1]
  CRC32: 2D57E79B    AccurateRip CRC: D329C3DF (CRCv2)    [DiscID: 010-0012b4fa-00948737-810b3c0a-2]
  AccurateRip Verified Confidence 4 [CRCv2 d329c3df]
  AccurateRip Verified Confidence 19 [CRCv1 b4281416]
  AccurateRip Verified Confidence 22 [CRCv1 b476ac0b], Using Pressing Offset -278
  AccurateRip Verified Confidence 12 [CRCv1 6896be99], Using Pressing Offset -685

Track 3:  Ripped LBA 44667 to 69432 (5:30) in 1:36. Filename: F:\Elton John\Sleeping with the Past\03 Elton John - Whispers.wav
  AccurateRip: Accurate (confidence 3)    [Pass 1]
  CRC32: 68602F2D    AccurateRip CRC: 61894AD4 (CRCv2)    [DiscID: 010-0012b4fa-00948737-810b3c0a-3]
  AccurateRip Verified Confidence 3 [CRCv2 61894ad4]
  AccurateRip Verified Confidence 19 [CRCv1 b527411d]
  AccurateRip Verified Confidence 22 [CRCv1 29f8da3b], Using Pressing Offset -278
  AccurateRip Verified Confidence 12 [CRCv1 ddbb880b], Using Pressing Offset -685

Track 4:  Ripped LBA 69432 to 91257 (4:51) in 1:17. Filename: F:\Elton John\Sleeping with the Past\04 Elton John - Club at the End of the Street.wav
  AccurateRip: Accurate (confidence 4)    [Pass 1]
  CRC32: B23E1A21    AccurateRip CRC: F6A5E38C (CRCv2)    [DiscID: 010-0012b4fa-00948737-810b3c0a-4]
  AccurateRip Verified Confidence 4 [CRCv2 f6a5e38c]
  AccurateRip Verified Confidence 19 [CRCv1 4ea98889]
  AccurateRip Verified Confidence 22 [CRCv1 ca0b3bfb], Using Pressing Offset -278
  AccurateRip Verified Confidence 12 [CRCv1 5365c838], Using Pressing Offset -685

Track 5:  Ripped LBA 91257 to 113747 (4:59) in 1:14. Filename: F:\Elton John\Sleeping with the Past\05 Elton John - Sleeping With the Past.wav
  AccurateRip: Accurate (confidence 4)    [Pass 1]
  CRC32: C6CAA0DB    AccurateRip CRC: CBC12F9E (CRCv2)    [DiscID: 010-0012b4fa-00948737-810b3c0a-5]
  AccurateRip Verified Confidence 4 [CRCv2 cbc12f9e]
  AccurateRip Verified Confidence 19 [CRCv1 3a460eae]
  AccurateRip Verified Confidence 22 [CRCv1 2b402a8], Using Pressing Offset -278
  AccurateRip Verified Confidence 11 [CRCv1 44af3ab9], Using Pressing Offset -685

Track 6:  Ripped LBA 113747 to 135992 (4:56) in 1:09. Filename: F:\Elton John\Sleeping with the Past\06 Elton John - Stone's Throw From Hurtin'.wav
  AccurateRip: Accurate (confidence 3)    [Pass 1]
  CRC32: C66F418A    AccurateRip CRC: F395DD13 (CRCv2)    [DiscID: 010-0012b4fa-00948737-810b3c0a-6]
  AccurateRip Verified Confidence 3 [CRCv2 f395dd13]
  AccurateRip Verified Confidence 19 [CRCv1 d092d741]
  AccurateRip Verified Confidence 22 [CRCv1 6c50bb22], Using Pressing Offset -278
  AccurateRip Verified Confidence 11 [CRCv1 c848f672], Using Pressing Offset -685

Track 7:  Ripped LBA 135992 to 159102 (5:08) in 1:08. Filename: F:\Elton John\Sleeping with the Past\07 Elton John - Sacrifice.wav
  AccurateRip: Accurate (confidence 3)    [Pass 1]
  CRC32: F4B524C1    AccurateRip CRC: C6D04BE5 (CRCv2)    [DiscID: 010-0012b4fa-00948737-810b3c0a-7]
  AccurateRip Verified Confidence 3 [CRCv2 c6d04be5]
  AccurateRip Verified Confidence 19 [CRCv1 a556f602]
  AccurateRip Verified Confidence 22 [CRCv1 217845b9], Using Pressing Offset -278
  AccurateRip Verified Confidence 11 [CRCv1 4c19e253], Using Pressing Offset -685

Track 8:  Ripped LBA 159102 to 175007 (3:32) in 0:44. Filename: F:\Elton John\Sleeping with the Past\08 Elton John - I Never Knew Her Name.wav
  AccurateRip: Accurate (confidence 4)    [Pass 1]
  CRC32: 827BFCA0    AccurateRip CRC: CC50CA12 (CRCv2)    [DiscID: 010-0012b4fa-00948737-810b3c0a-8]
  AccurateRip Verified Confidence 4 [CRCv2 cc50ca12]
  AccurateRip Verified Confidence 19 [CRCv1 640387d4]
  AccurateRip Verified Confidence 22 [CRCv1 f676c5c2], Using Pressing Offset -278
  AccurateRip Verified Confidence 11 [CRCv1 ceb682f5], Using Pressing Offset -685

Track 9:  Ripped LBA 175007 to 196060 (4:40) in 0:57. Filename: F:\Elton John\Sleeping with the Past\09 Elton John - Amazes Me.wav
  AccurateRip: Accurate (confidence 3)    [Pass 1]
  CRC32: 70048F41    AccurateRip CRC: 5F06DA7B (CRCv2)    [DiscID: 010-0012b4fa-00948737-810b3c0a-9]
  AccurateRip Verified Confidence 3 [CRCv2 5f06da7b]
  AccurateRip Verified Confidence 19 [CRCv1 44a92493]
  AccurateRip Verified Confidence 22 [CRCv1 7bcfdc35], Using Pressing Offset -278
  AccurateRip Verified Confidence 11 [CRCv1 393781ea], Using Pressing Offset -685

Track 10:  Ripped LBA 196060 to 215737 (4:22) in 0:51. Filename: F:\Elton John\Sleeping with the Past\10 Elton John - Blue Avenue.wav
  AccurateRip: Accurate (confidence 3)    [Pass 1]
  CRC32: 18F774DD    AccurateRip CRC: 1723D2F8 (CRCv2)    [DiscID: 010-0012b4fa-00948737-810b3c0a-10]
  AccurateRip Verified Confidence 3 [CRCv2 1723d2f8]
  AccurateRip Verified Confidence 19 [CRCv1 6a297d2a]
  AccurateRip Verified Confidence 22 [CRCv1 85c2de76], Using Pressing Offset -278
  AccurateRip Verified Confidence 12 [CRCv1 c7f38974], Using Pressing Offset -685

--------------

10 Tracks Ripped Accurately

DVD RAM UJ897 disc 2:

dBpoweramp Release 14.2 Digital Audio Extraction Log from Sunday, September 09, 2012 11:58 AM

Drive & Settings
----------------

Ripping with drive 'D:  [hp      - DVD RAM UJ897  ]',  Drive offset: 102,  Overread Lead-in/out: No
AccurateRip: Active,  Using C2: No,  Cache: 1024 KB,  FUA Cache Invalidate: No
Pass 1 Drive Speed: 6,  Pass 2 Drive Speed: 6
Bad Sector Re-rip::  Drive Speed: 6,  Maximum Re-reads: 34

Encoder: Wave -compression="PCM"

Extraction Log
--------------

Track 1:  Ripped LBA 0 to 24848 (5:31) in 2:00. Filename: F:\Elton John\Sleeping with the Past\01 Elton John - Durban Deep.wav
  AccurateRip: Accurate (confidence 1)    [Pass 1]
  CRC32: C775C3BE    AccurateRip CRC: F19CA45A    [DiscID: 010-0012b14d-00947184-760b3c0a-1]
  AccurateRip Verified Confidence 1 [CRCv1 f19ca45a]

Track 2:  Ripped LBA 24848 to 44577 (4:23) in 1:23. Filename: F:\Elton John\Sleeping with the Past\02 Elton John - Healing Hands.wav
  AccurateRip: Accurate (confidence 1)    [Pass 1]
  CRC32: 8EBBF75E    AccurateRip CRC: FF622EA2    [DiscID: 010-0012b14d-00947184-760b3c0a-2]
  AccurateRip Verified Confidence 1 [CRCv1 ff622ea2]

Track 3:  Ripped LBA 44577 to 69328 (5:30) in 1:34. Filename: F:\Elton John\Sleeping with the Past\03 Elton John - Whispers.wav
  AccurateRip: Accurate (confidence 1)    [Pass 1]
  CRC32: 093F7805    AccurateRip CRC: FAE75FB1    [DiscID: 010-0012b14d-00947184-760b3c0a-3]
  AccurateRip Verified Confidence 1 [CRCv1 fae75fb1]

Track 4:  Ripped LBA 69328 to 91153 (4:51) in 1:16. Filename: F:\Elton John\Sleeping with the Past\04 Elton John - Club at the End of the Street.wav
  AccurateRip: Accurate (confidence 1)    [Pass 1]
  CRC32: 7DFC5560    AccurateRip CRC: 9B791E26    [DiscID: 010-0012b14d-00947184-760b3c0a-4]
  AccurateRip Verified Confidence 1 [CRCv1 9b791e26]

Track 5:  Ripped LBA 91153 to 113640 (4:59) in 1:13. Filename: F:\Elton John\Sleeping with the Past\05 Elton John - Sleeping With the Past.wav
  AccurateRip: Accurate (confidence 1)    [Pass 1]
  CRC32: AB6EB44A    AccurateRip CRC: B7B2549A    [DiscID: 010-0012b14d-00947184-760b3c0a-5]
  AccurateRip Verified Confidence 1 [CRCv1 b7b2549a]

Track 6:  Ripped LBA 113640 to 135903 (4:56) in 1:08. Filename: F:\Elton John\Sleeping with the Past\06 Elton John - Stone's Throw From Hurtin'.wav
  AccurateRip: Accurate (confidence 1)    [Pass 1]
  CRC32: 19E2AFD6    AccurateRip CRC: 3B3A66C0    [DiscID: 010-0012b14d-00947184-760b3c0a-6]
  AccurateRip Verified Confidence 1 [CRCv1 3b3a66c0]

Track 7:  Ripped LBA 135903 to 158995 (5:07) in 1:06. Filename: F:\Elton John\Sleeping with the Past\07 Elton John - Sacrifice.wav
  AccurateRip: Accurate (confidence 1)    [Pass 1]
  CRC32: 8686CB0E    AccurateRip CRC: 589F9D6F    [DiscID: 010-0012b14d-00947184-760b3c0a-7]
  AccurateRip Verified Confidence 1 [CRCv1 589f9d6f]

Track 8:  Ripped LBA 158995 to 174903 (3:32) in 0:43. Filename: F:\Elton John\Sleeping with the Past\08 Elton John - I Never Knew Her Name.wav
  AccurateRip: Accurate (confidence 1)    [Pass 1]
  CRC32: 077CDE2A    AccurateRip CRC: 588B3884    [DiscID: 010-0012b14d-00947184-760b3c0a-8]
  AccurateRip Verified Confidence 1 [CRCv1 588b3884]

Track 9:  Ripped LBA 174903 to 195955 (4:40) in 0:56. Filename: F:\Elton John\Sleeping with the Past\09 Elton John - Amazes Me.wav
  AccurateRip: Accurate (confidence 1)    [Pass 1]
  CRC32: 26B71F43    AccurateRip CRC: BCD4EEAF    [DiscID: 010-0012b14d-00947184-760b3c0a-9]
  AccurateRip Verified Confidence 1 [CRCv1 bcd4eeaf]

Track 10:  Ripped LBA 195955 to 215735 (4:23) in 0:50. Filename: F:\Elton John\Sleeping with the Past\10 Elton John - Blue Avenue.wav
  AccurateRip: Accurate (confidence 1)    [Pass 1]
  CRC32: A9CA4FBF    AccurateRip CRC: B329D3AA    [DiscID: 010-0012b14d-00947184-760b3c0a-10]
  AccurateRip Verified Confidence 1 [CRCv1 b329d3aa]

--------------

10 Tracks Ripped Accurately

  • greynol
  • [*][*][*][*][*]
  • Global Moderator
Test Results: Ripping Damaged Music CD's
Reply #4
Apparenly both discs can be ripped without errors, proving the point that the damage you're talking about is not an instant death sentence. 
13 February 2016: The world was blessed with the passing of a truly vile and wretched person.

Your eyes cannot hear.

  • jayess
  • [*][*]
Test Results: Ripping Damaged Music CD's
Reply #5
Apparenly both discs can be ripped without errors, proving the point that the damage you're talking about is not an instant death sentence. 


Where's your error correction on this disc Greynol?



dBpoweramp Release 14.2 Digital Audio Extraction Log from Sunday, September 09, 2012 01:17 PM

Drive & Settings
----------------

Ripping with drive 'E:  [HP      - DVD Writer 1270t]',  Drive offset: 6,  Overread Lead-in/out: No
AccurateRip: Active,  Using C2: Yes,  Cache: 1024 KB,  FUA Cache Invalidate: No
Pass 1 Drive Speed: 10,  Pass 2 Drive Speed: 10
Ultra::  Vary Drive Speed: No,  Min Passes: 3,  Max Passes: 6,  Finish After Clean Passes: 2
Bad Sector Re-rip::  Drive Speed: 4,  Maximum Re-reads: 34

Encoder: Wave -compression="PCM"

Extraction Log
--------------

Track 1:  Ripped LBA 0 to 14987 (3:19) in 0:20. Filename: C:\Users\User-1\Music\Jennifer Paige\Jennifer Paige\01 Jennifer Paige - Crush.wav
    [Pass 1]
  CRC32: D63F2A04    AccurateRip CRC: 00000000    [DiscID: 011-0011ed71-009c3cf7-7f0a590b-1]

--------------

User Stopped Ripping


====================

dBpoweramp Release 14.2 Digital Audio Extraction Log from Sunday, September 09, 2012 01:18 PM

Drive & Settings
----------------

Ripping with drive 'E:  [HP      - DVD Writer 1270t]',  Drive offset: 6,  Overread Lead-in/out: No
AccurateRip: Active,  Using C2: Yes,  Cache: 1024 KB,  FUA Cache Invalidate: No
Pass 1 Drive Speed: 8,  Pass 2 Drive Speed: 10
Ultra::  Vary Drive Speed: No,  Min Passes: 3,  Max Passes: 6,  Finish After Clean Passes: 2
Bad Sector Re-rip::  Drive Speed: 4,  Maximum Re-reads: 34

Encoder: Wave -compression="PCM"

Extraction Log
--------------

Track 1:  Ripped LBA 0 to 14987 (3:19) in 0:23. Filename: C:\Users\User-1\Music\Jennifer Paige\Jennifer Paige\01 Jennifer Paige - Crush.wav
  AccurateRip: Accurate (confidence 3)    [Pass 1]
  CRC32: 658AF539    AccurateRip CRC: 22E74B63 (CRCv2)    [DiscID: 011-0011ed71-009c3cf7-7f0a590b-1]
  AccurateRip Verified Confidence 3 [CRCv2 22e74b63]
  AccurateRip Verified Confidence 20 [CRCv1 ba2c81fc]

Track 2:  Ripped LBA 14987 to 34112 (4:15) in 0:30. Filename: C:\Users\User-1\Music\Jennifer Paige\Jennifer Paige\02 Jennifer Paige - Questions.wav
  AccurateRip: Accurate (confidence 3)    [Pass 1]
  CRC32: D29F057A    AccurateRip CRC: 79DF2BB9 (CRCv2)    [DiscID: 011-0011ed71-009c3cf7-7f0a590b-2]
  AccurateRip Verified Confidence 3 [CRCv2 79df2bb9]
  AccurateRip Verified Confidence 19 [CRCv1 a47925ed]

Track 3:  Ripped LBA 34112 to 52525 (4:05) in 0:29. Filename: C:\Users\User-1\Music\Jennifer Paige\Jennifer Paige\03 Jennifer Paige - Always You.wav
  AccurateRip: Accurate (confidence 3)    [Pass 1]
  CRC32: 921C3B60    AccurateRip CRC: D8C8AA51 (CRCv2)    [DiscID: 011-0011ed71-009c3cf7-7f0a590b-3]
  AccurateRip Verified Confidence 3 [CRCv2 d8c8aa51]
  AccurateRip Verified Confidence 19 [CRCv1 f238ff4d]

Track 4:  Ripped LBA 52525 to 70595 (4:00) in 0:29. Filename: C:\Users\User-1\Music\Jennifer Paige\Jennifer Paige\04 Jennifer Paige - Get to Me.wav
  AccurateRip: Accurate (confidence 3)    [Pass 1]
  CRC32: 5596F924    AccurateRip CRC: 7A91E432 (CRCv2)    [DiscID: 011-0011ed71-009c3cf7-7f0a590b-4]
  AccurateRip Verified Confidence 3 [CRCv2 7a91e432]
  AccurateRip Verified Confidence 19 [CRCv1 c611a326]

Track 5:  ERROR Ripping LBA 70595 to 87700 (3:48) in 5:54. Filename: C:\Users\User-1\Music\Jennifer Paige\Jennifer Paige\05 Jennifer Paige - Busted.wav
Unable to read CD, check CD disc (frame LBA 71687  ripping 26 frames  track end LBA 87700)

Track 6:  Ripped LBA 87700 to 106122 (4:05) in 0:30. Filename: C:\Users\User-1\Music\Jennifer Paige\Jennifer Paige\06 Jennifer Paige - Sober.wav
  AccurateRip: Accurate (confidence 3)    [Pass 1]
  CRC32: 06A95A44    AccurateRip CRC: 40128A00 (CRCv2)    [DiscID: 011-0011ed71-009c3cf7-7f0a590b-6]
  AccurateRip Verified Confidence 3 [CRCv2 40128a00]
  AccurateRip Verified Confidence 19 [CRCv1 ab9b0268]

Track 7:  Ripped LBA 106122 to 124127 (4:00) in 0:29. Filename: C:\Users\User-1\Music\Jennifer Paige\Jennifer Paige\07 Jennifer Paige - Between You and Me.wav
  AccurateRip: Accurate (confidence 3)    [Pass 1]
  CRC32: 29F85CA5    AccurateRip CRC: 7FECD8BA (CRCv2)    [DiscID: 011-0011ed71-009c3cf7-7f0a590b-7]
  AccurateRip Verified Confidence 3 [CRCv2 7fecd8ba]
  AccurateRip Verified Confidence 19 [CRCv1 65156f71]

Track 8:  Ripped LBA 124127 to 143247 (4:14) in 0:31. Filename: C:\Users\User-1\Music\Jennifer Paige\Jennifer Paige\08 Jennifer Paige - Let It Rain.wav
  AccurateRip: Accurate (confidence 3)    [Pass 1]
  CRC32: CC931EEA    AccurateRip CRC: 5BA1BB60 (CRCv2)    [DiscID: 011-0011ed71-009c3cf7-7f0a590b-8]
  AccurateRip Verified Confidence 3 [CRCv2 5ba1bb60]
  AccurateRip Verified Confidence 19 [CRCv1 39e64336]

Track 9:  Ripped LBA 143247 to 162460 (4:16) in 0:31. Filename: C:\Users\User-1\Music\Jennifer Paige\Jennifer Paige\09 Jennifer Paige - Just to Have You.wav
  AccurateRip: Accurate (confidence 3)    [Pass 1]
  CRC32: C4D4C23D    AccurateRip CRC: 4FBC639C (CRCv2)    [DiscID: 011-0011ed71-009c3cf7-7f0a590b-9]
  AccurateRip Verified Confidence 3 [CRCv2 4fbc639c]
  AccurateRip Verified Confidence 19 [CRCv1 e55a97c8]

Track 10:  Ripped LBA 162460 to 180320 (3:58) in 0:29. Filename: C:\Users\User-1\Music\Jennifer Paige\Jennifer Paige\10 Jennifer Paige - Somewhere, Someday.wav
  AccurateRip: Accurate (confidence 3)    [Pass 1]
  CRC32: 94CA7D9C    AccurateRip CRC: 1EC77D17 (CRCv2)    [DiscID: 011-0011ed71-009c3cf7-7f0a590b-10]
  AccurateRip Verified Confidence 3 [CRCv2 1ec77d17]
  AccurateRip Verified Confidence 19 [CRCv1 b02b5fd8]

Track 11:  Ripped LBA 180320 to 198702 (4:05) in 0:29. Filename: C:\Users\User-1\Music\Jennifer Paige\Jennifer Paige\11 Jennifer Paige - Always You.wav
  AccurateRip: Accurate (confidence 3)    [Pass 1]
  CRC32: A21C4BF5    AccurateRip CRC: 5C2C5C58 (CRCv2)    [DiscID: 011-0011ed71-009c3cf7-7f0a590b-11]
  AccurateRip Verified Confidence 3 [CRCv2 5c2c5c58]
  AccurateRip Verified Confidence 19 [CRCv1 3e4012d3]

--------------

11 Tracks Ripped: 10 Accurate, 1 Could Not Be Ripped

  • greynol
  • [*][*][*][*][*]
  • Global Moderator
Test Results: Ripping Damaged Music CD's
Reply #6
At this point I don't even care what other "evidence" you have to offer.

At this point in time I think you need to show the readers of Hydrogenaudio where I told you that any and all damage could result in error-free extraction.
13 February 2016: The world was blessed with the passing of a truly vile and wretched person.

Your eyes cannot hear.

  • jayess
  • [*][*]
Test Results: Ripping Damaged Music CD's
Reply #7
At this point I don't even care what other "evidence" you have to offer.

At this point in time I think you need to show the readers of Hydrogenaudio where I told you that any and all damage could result in error-free extraction.


You said we could run over this stuff in the driveway and drill holes in it and error correction would make it all good.

Why can't I rip this?

http://www.flickr.com/photos/86975222@N06/.../in/photostream


  • greynol
  • [*][*][*][*][*]
  • Global Moderator
Test Results: Ripping Damaged Music CD's
Reply #8
...now you're just making things up.

Discussion closed.
13 February 2016: The world was blessed with the passing of a truly vile and wretched person.

Your eyes cannot hear.