Skip to main content

Topic: Cue-sheets: Album List does not show individual tracks (only cue name) (Read 2246 times) previous topic - next topic

0 Members and 1 Guest are viewing this topic.
  • hexanite
  • [*]
Cue-sheets: Album List does not show individual tracks (only cue name)
When I drag and drop the .cue file into foobar, it loads up all my songs with the correct names.  When I look in the album area and click the album, it shows only one song with the name " 02. End of Me (feat. Gavin Rossdale)".  So I right clicked that went to utilities, and embedded the cue sheet onto that file. The cue sheet loaded up fine with correct names.  I click ok, add it to a playlist to listen, but it's all the same title :  " 02. End of Me (feat. Gavin Rossdale)".  I right click the same file to check the cue and all the song names got changed to  " 02. End of Me (feat. Gavin Rossdale)" !
Here is my cue sheet:

Code: [Select]
REM GENRE Metal
REM DATE 2010
REM DISCID 8A0D820C
REM COMMENT "ExactAudioCopy v0.99pb4"
PERFORMER "Apocalyptica"
TITLE "7th Symphony"
FILE "Apocalyptica - 7th Symphony.flac" WAVE
  TRACK 01 AUDIO
   TITLE "At the Gates of Manala"
   PERFORMER "Apocalyptica"
   INDEX 01 00:00:00
  TRACK 02 AUDIO
   TITLE "End of Me (feat. Gavin Rossdale)"
   PERFORMER "Apocalyptica"
   INDEX 01 07:03:35
  TRACK 03 AUDIO
   TITLE "Not Strong Enough (feat. Brent Smith)"
   PERFORMER "Apocalyptica"
   INDEX 01 10:32:04
  TRACK 04 AUDIO
   TITLE "2010 (feat. Dave Lombardo)"
   PERFORMER "Apocalyptica"
   INDEX 00 14:07:72
   INDEX 01 14:08:43
  TRACK 05 AUDIO
   TITLE "Through Paris in a Sportscar"
   PERFORMER "Apocalyptica"
   INDEX 01 18:39:28
  TRACK 06 AUDIO
   TITLE "Beautiful"
   PERFORMER "Apocalyptica"
   INDEX 00 22:31:46
   INDEX 01 22:31:51
  TRACK 07 AUDIO
   TITLE "Broken Pieces (feat. Lacey)"
   PERFORMER "Apocalyptica"
   INDEX 00 24:49:53
   INDEX 01 24:50:35
  TRACK 08 AUDIO
   TITLE "On the Rooftop with Quasimodo"
   PERFORMER "Apocalyptica"
   INDEX 01 28:44:72
  TRACK 09 AUDIO
   TITLE "Bring them to Light (feat. Joseph Duplantier)"
   PERFORMER "Apocalyptica"
   INDEX 00 33:44:25
   INDEX 01 33:44:33
  TRACK 10 AUDIO
   TITLE "Sacra"
   PERFORMER "Apocalyptica"
   INDEX 00 38:26:51
   INDEX 01 38:29:05
  TRACK 11 AUDIO
   TITLE "Rage of Poseidon"
   PERFORMER "Apocalyptica"
   INDEX 01 42:51:38
  TRACK 12 AUDIO
   TITLE "The Shadow of Venus"
   PERFORMER "Apocalyptica"
   INDEX 01 51:32:64
Please help, thanks.

edit: it's not just this song, it does this will all my cue sheets.
  • Last Edit: 22 March, 2012, 11:27:31 AM by db1989

Cue-sheets: Album List does not show individual tracks (only cue name)
Reply #1
Your cue sheet looks okay; not sure where you mean by the "album area" (facets? album list?) but a best guess is that your flac file (not the cue) has a tag on it, and that's what the library viewer is retrieving information from.

You might want to try removing the embedded cue sheet from the flac, opening the flac properties if foobar and removing any/all tags (album, title, etc.), then re-embedding your cue sheet.

  • hexanite
  • [*]
Cue-sheets: Album List does not show individual tracks (only cue name)
Reply #2
Your cue sheet looks okay; not sure where you mean by the "album area" (facets? album list?) but a best guess is that your flac file (not the cue) has a tag on it, and that's what the library viewer is retrieving information from.

You might want to try removing the embedded cue sheet from the flac, opening the flac properties if foobar and removing any/all tags (album, title, etc.), then re-embedding your cue sheet.

Thank you so much, it worked.