Skip to main content

Topic: 128,192,320 bitrates in FLAC logs? (Read 4476 times) previous topic - next topic

0 Members and 1 Guest are viewing this topic.
  • Neil27
  • [*]
128,192,320 bitrates in FLAC logs?
Hi There,

I was wondering what the log file from an aparent FLAC rip ment when it states "Used output format: C:\Program Files\FLAC\flac.exe  (User Defined Encoder) 192 kBit/s"

I have a few FLAC rips which state  192 kBit/s, 128 and 320 after 'Used output format:flac.exe' Why is it stating common MP3 bitrates within a FLAC rip, is this normal?
or are these some kind of mp3 rips disguised as FLACS?

An example of this is below, Thanks for any help!

Code: [Select]
EAC extraction logfile from 5. July 2007, 15:21 for CD
Katatonia / Brave Murder Day

Used drive  : SONY    DVD-ROM DDU1613   Adapter: 2  ID: 0
Read mode   : Secure with NO C2, accurate stream, disable cache
Read offset correction : 12
Overread into Lead-In and Lead-Out : No

Used output format : C:\Program Files\FLAC\flac.exe   (User Defined Encoder)
                     192 kBit/s
                     Additional command line options : -V -5 -T "artist=%a" -T "title=%t" -T "album=%g" -T "date=%y" -T "tracknumber=%n" -T "genre=%m" %s

Other options      :
    Fill up missing offset samples with silence : Yes
    Delete leading and trailing silent blocks : No
    Installed external ASPI interface


Track  1
     Filename C:\Documents and Settings\Gabe\Desktop\Brave Murder Day (2006 Remaster)\01 - Brave.wav

     Pre-gap length  0:00:02.00

     Peak level 97.7 %
     Track quality 100.0 %
     Test CRC 501FB5AE
     Copy CRC 501FB5AE
     Copy OK

Track  2
     Filename C:\Documents and Settings\Gabe\Desktop\Brave Murder Day (2006 Remaster)\02 - Murder.wav

     Pre-gap length  0:00:02.00

     Peak level 97.7 %
     Track quality 99.9 %
     Test CRC 4B13E380
     Copy CRC 4B13E380
     Copy OK

//..............................................etc.................................//

Track  9
     Filename C:\Documents and Settings\Gabe\Desktop\Brave Murder Day (2006 Remaster)\09 - Inside the Fall.wav

     Pre-gap length  0:00:01.60

     Peak level 96.9 %
     Track quality 99.9 %
     Test CRC 688F1E2F
     Copy CRC 688F1E2F
     Copy OK

No errors occured


End of status report
  • Last Edit: 27 April, 2010, 02:38:51 PM by Neil27

  • Soap
  • [*][*][*][*][*]
128,192,320 bitrates in FLAC logs?
Reply #1
Simply a report of what the ripper (you?) had the "Compression Options" -> "External Compression" -> "Bitrate" drop-down set to in the EAC configuration.

Used only to calculate the displayed compressed size before you rip.

Ignore it.

EDIT:  I don't farking know why I'm telling you this.  Rereading your post it is obvious you not are the ripper, and if you are questioning the files' authenticity you probably have no farking right to them.
  • Last Edit: 27 April, 2010, 02:42:14 PM by Soap
Creature of habit.

  • greynol
  • [*][*][*][*][*]
  • Global Moderator
128,192,320 bitrates in FLAC logs?
Reply #2
Concerns about quality problems can easily be avoided by buying the CD.
13 February 2016: The world was blessed with the passing of a truly vile and wretched person.

Your eyes cannot hear.

  • Neil27
  • [*]
128,192,320 bitrates in FLAC logs?
Reply #3
Thanks for your answer soap,

Just to clear things up, I actually do own most of my music on CD or Vinyl, However i will download releases that are rare or out of print and appreciate the quality, In this case it is a rare remaster of an album that i own.

  • greynol
  • [*][*][*][*][*]
  • Global Moderator
128,192,320 bitrates in FLAC logs?
Reply #4
What a load of crap!

http://www.amazon.co.uk/Brave-Murder-Day-K...8259&sr=8-1

The fact that you own the non-remastered version does not entitle you to a free copy of the remastered version.
  • Last Edit: 27 April, 2010, 06:45:57 PM by greynol
13 February 2016: The world was blessed with the passing of a truly vile and wretched person.

Your eyes cannot hear.

  • frozenspeed
  • [*][*][*]
128,192,320 bitrates in FLAC logs?
Reply #5
no wonder that scene is the wreck it currently is. People hardly buy 500 copies of an album anymore

  • Pulse
  • [*]
128,192,320 bitrates in FLAC logs?
Reply #6
Can the purchaser of an album on vinyl make a case that he or she is entitled to download a digital copy as well, or does Fair Use dictate the person is required to rip the album personally?

Fortunately, many new vinyl releases include a coupon allowing for a free digital download from the label's website.

128,192,320 bitrates in FLAC logs?
Reply #7
I was under the impression that the bitrate setting configured in EAC for FLAC is always ignored.. so it wouldn't make a difference. Would it?

  • Soap
  • [*][*][*][*][*]
128,192,320 bitrates in FLAC logs?
Reply #8
I was under the impression that the bitrate setting configured in EAC for FLAC is always ignored.. so it wouldn't make a difference. Would it?

It doesn't for any codec, as I said above.
Creature of habit.