Skip to main content

Topic: CUETools versions 1.9.5 through 2.1.5 (current) (Read 1319577 times) previous topic - next topic

0 Members and 1 Guest are viewing this topic.
  • Wombat
  • [*][*][*][*][*]
CUETools versions 1.9.5 through 2.1.5 (current)
Reply #2200
Hi Gregory. I think i asked once but now that you are on the new version is there a chance to disable writing the COMMENT field from the cue to tag? One more option for that undere Advanced-Tagging really would be nice
Is troll-adiposity coming from feederism?
With 24bit music you can listen to silence much louder!

CUETools versions 1.9.5 through 2.1.5 (current)
Reply #2201
If possible, I'd like to request that "always write utf-8 .cuesheet" option for this new version, thank you

  • korth
  • [*][*][*][*][*]
CUETools versions 1.9.5 through 2.1.5 (current)
Reply #2202
edit: I... probably should stop worrying about the different .cue formats and why some programs use the INDEX00/01 entries or both. It probably depends on gap settings or something, the result of burning these different .cue should be identical in the end, is that correct?
I'm just worried about burning those back to the CD since I'm ripping it to lossless mostly as a backup.
I personally don't worry too much about gaps. If gaps are 'Appended to previous track' or are 'Not detected, thus appended to previous track', the resulting audio files are the same. See the 'Writing gaps' section in this hydrogenaudio wiki tutorial written about EAC Gap Settings.
korth

CUETools versions 1.9.5 through 2.1.5 (current)
Reply #2203
Understood, thank you korth.

CUETools versions 1.9.5 through 2.1.5 (current)
Reply #2204
A special thanks to Gregory for the new (incoming) version  ...
One question : how can i change the 'totaltrack' & 'totaldisc' tags with the reference standard 'tracktotal' & 'disktotal' during the flac creation ?
'Albumartist' tag is supported ? In the setting file i don't see anything...
Any chance in future to see the option 'capitalize first letter' in the tags option ?
Thanks in advance .

CUETools versions 1.9.5 through 2.1.5 (current)
Reply #2205
Code: [Select]
[CUETools log; Date: 25.4.2013 г. 19:19:09; Version: 2.1.4]
[CTDB TOCID: 3z8odFV3jnWsbEMRXrW9FU_BQF8-] found.
Track | CTDB Status
  1  | (474/486) Accurately ripped
  2  | (475/486) Accurately ripped
  3  | (478/486) Accurately ripped
  4  | (477/486) Accurately ripped
  5  | (476/486) Accurately ripped
  6  | (476/486) Accurately ripped
  7  | (479/486) Accurately ripped
  8  | (474/486) Accurately ripped
  9  | (475/486) Accurately ripped
 10  | (467/486) Accurately ripped
[AccurateRip ID: 000ef298-0078238f-8909cc0a] found.
Track  [  CRC  |  V2  ] Status
 01 [2035f107|e17eac17] (200+114/1064) Accurately ripped
 02 [3e6b300b|8f4345fa] (200+113/1058) Accurately ripped
 03 [8d36f4f8|afd25f29] (200+114/1062) Accurately ripped
 04 [89cacf08|98934068] (200+114/1064) Accurately ripped
 05 [e7080942|6605142a] (200+113/1066) Accurately ripped
 06 [17f24b51|66cf23bf] (200+112/1064) Accurately ripped
 07 [1b566b73|76094fdd] (200+114/1066) Accurately ripped
 08 [639da5fc|65d0ccd5] (200+113/1059) Accurately ripped
 09 [8b75923c|23435bc4] (200+114/1061) Accurately ripped
 10 [aa5757c8|91745db1] (200+111/1061) Accurately ripped
[color=#FF0000]Offsetted by -2116[/color]:
 01 [dcdf0a75] (011/1064) Accurately ripped
 02 [86ac18b5] (011/1058) Accurately ripped
 03 [cfcedf54] (011/1062) Accurately ripped
 04 [df9f6e94] (011/1064) Accurately ripped
 05 [2f02a3bf] (011/1066) Accurately ripped
 06 [76d1fbbc] (011/1064) Accurately ripped
 07 [81c48137] (011/1066) Accurately ripped
 08 [012755bc] (011/1059) Accurately ripped
 09 [8c861a66] (011/1061) Accurately ripped
 10 [2a742822] (012/1061) Accurately ripped
[color=#FF0000]Offsetted by -2080[/color]:
 01 [29a71a5d] (099/1064) Accurately ripped
 02 [32035bad] (100/1058) Accurately ripped
 03 [65a971d8] (099/1062) Accurately ripped
 04 [70cb3d68] (100/1064) Accurately ripped
 05 [fb0cd9de] (099/1066) Accurately ripped
 06 [904a63bd] (099/1064) Accurately ripped
 07 [9eff1f93] (100/1066) Accurately ripped
 08 [f4ceb1ef] (099/1059) Accurately ripped
 09 [5d8a7e64] (097/1061) Accurately ripped
 10 [a869e105] (094/1061) Accurately ripped
[color=#FF0000]Offsetted by -1939:[/color]
 01 [b1ff0bf2] (013/1064) Accurately ripped
 02 [c61f3b1b] (013/1058) Accurately ripped
 03 [3096da5d] (013/1062) Accurately ripped
 04 [e9617cd1] (013/1064) Accurately ripped
 05 [f9541edf] (012/1066) Accurately ripped
 06 [61b215ea] (013/1064) Accurately ripped
 07 [66cf6126] (013/1066) Accurately ripped
 08 [e833ecc9] (012/1059) Accurately ripped
 09 [0cbf8218] (013/1061) Accurately ripped
 10 [a5a94a0a] (012/1061) Accurately ripped
[color=#FF0000]Offsetted by -1636:[/color]
 01 [acfcd391] (002/1064) Accurately ripped
 02 [55a161c9] (002/1058) Accurately ripped
 03 [9ddbd634] (002/1062) Accurately ripped
 04 [6f3cdef4] (002/1064) Accurately ripped
 05 [7622e88d] (002/1066) Accurately ripped
 06 [cf3662ae] (002/1064) Accurately ripped
 07 [b2276b57] (002/1066) Accurately ripped
 08 [a7c6f8a0] (002/1059) Accurately ripped
 09 [c3aa434b] (002/1061) Accurately ripped
 10 [84fbdf95] (002/1061) Accurately ripped
[color=#FF0000]Offsetted by -1628[/color]:
 01 [1ef7a895] (002/1064) Accurately ripped
 02 [09704e5d] (002/1058) Accurately ripped
 03 [69d384fc] (002/1062) Accurately ripped
 04 [3a2a295c] (002/1064) Accurately ripped
 05 [ea7afb95] (002/1066) Accurately ripped
 06 [9ccb1d56] (002/1064) Accurately ripped
 07 [d518004f] (002/1066) Accurately ripped
 08 [a12f4c18] (002/1059) Accurately ripped
 09 [13618e75] (002/1061) Accurately ripped
 10 [2cd0c79f] (002/1061) Accurately ripped
[color=#FF0000]Offsetted by -1614[/color]:
 01 [a9c0bfa6] (002/1064) Accurately ripped
 02 [03b4ebc2] (002/1058) Accurately ripped
 03 [4ec4f6da] (002/1062) Accurately ripped
 04 [9d496b92] (002/1064) Accurately ripped
 05 [af4cab41] (002/1066) Accurately ripped
 06 [c46a63e6] (002/1064) Accurately ripped
 07 [523d0501] (002/1066) Accurately ripped
 08 [95a5de2a] (002/1059) Accurately ripped
 09 [fab0a9a9] (002/1061) Accurately ripped
 10 [92869d5f] (002/1061) Accurately ripped
[color=#FF0000]Offsetted by -1602[/color]:
 01 [106228cc] (003/1064) Accurately ripped
 02 [907e4d5c] (003/1058) Accurately ripped
 03 [80b87d06] (003/1062) Accurately ripped
 04 [cdad5b2e] (003/1064) Accurately ripped
 05 [bb5f7c31] (003/1066) Accurately ripped
 06 [78947bae] (003/1064) Accurately ripped
 07 [06a5e475] (003/1066) Accurately ripped
 08 [8bc25b5e] (003/1059) Accurately ripped
 09 [5822de69] (003/1061) Accurately ripped
 10 [0e4878e3] (003/1061) Accurately ripped
[color=#FF0000]Offsetted by -1584:[/color]
 01 [5853e30f] (002/1064) Accurately ripped
 02 [62605e17] (002/1058) Accurately ripped
 03 [cba5c648] (002/1062) Accurately ripped
 04 [96434298] (002/1064) Accurately ripped
 05 [f22cea00] (002/1066) Accurately ripped
 06 [86a01f23] (002/1064) Accurately ripped
 07 [154333a3] (002/1066) Accurately ripped
 08 [7ced172c] (002/1059) Accurately ripped
 09 [76ea92d6] (002/1061) Accurately ripped
 10 [47d941c2] (002/1061) Accurately ripped
[color=#FF0000]Offsetted by -1334[/color]:
 01 [a43ab9f0] (038/1064) Accurately ripped
 02 [b2642534] (036/1058) Accurately ripped
 03 [31a1dc32] (036/1062) Accurately ripped
 04 [5bba97ca] (036/1064) Accurately ripped
 05 [ccd23ad4] (036/1066) Accurately ripped
 06 [c72fa0e3] (036/1064) Accurately ripped
 07 [192162e9] (036/1066) Accurately ripped
 08 [aee94792] (036/1059) Accurately ripped
 09 [7d3d7003] (036/1061) Accurately ripped
 10 [5d410e81] (036/1061) Accurately ripped
[color=#FF0000]Offsetted by -1154[/color]:
 01 [d86928c2] (002/1064) Accurately ripped
 02 [af8914b2] (002/1058) Accurately ripped
 03 [1ee6b8c6] (002/1062) Accurately ripped
 04 [3195a1ee] (002/1064) Accurately ripped
 05 [1e998cb5] (002/1066) Accurately ripped
 06 [6d1d7852] (002/1064) Accurately ripped
 07 [ab467ab5] (002/1066) Accurately ripped
 08 [1a949d9e] (002/1059) Accurately ripped
 09 [1d6ac354] (002/1061) Accurately ripped
 10 [694b9efc] (002/1061) Accurately ripped
[color=#FF0000]Offsetted by -1063[/color]:
 01 [765cc1f7] (005/1064) Accurately ripped
 02 [0cd9a522] (004/1058) Accurately ripped
 03 [6f081ce9] (004/1062) Accurately ripped
 04 [b5e0d04d] (004/1064) Accurately ripped
 05 [aa6e76c7] (005/1066) Accurately ripped
 06 [05b9dd52] (005/1064) Accurately ripped
 07 [d8b7193a] (004/1066) Accurately ripped
 08 [4f975313] (004/1059) Accurately ripped
 09 [1f286f36] (004/1061) Accurately ripped
 10 [6d31c816] (004/1061) Accurately ripped
[color=#FF0000]Offsetted by -993[/color]:
 01 [012151a9] (003/1064) Accurately ripped
 02 [cc434a8e] (003/1058) Accurately ripped
 03 [e7bf563f] (002/1062) Accurately ripped
 04 [a57d1b5b] (003/1064) Accurately ripped
 05 [e1456024] (002/1066) Accurately ripped
 06 [d6b4e909] (003/1064) Accurately ripped
 07 [4a7030b4] (003/1066) Accurately ripped
 08 [15e82d6d] (003/1059) Accurately ripped
 09 [182e62f7] (003/1061) Accurately ripped
 10 [6267b049] (002/1061) Accurately ripped
[color=#FF0000]Offsetted by -964[/color]:
 01 [fd578d2d] (004/1064) Accurately ripped
 02 [d812ec95] (004/1058) Accurately ripped
 03 [8b212fd4] (004/1062) Accurately ripped
 04 [05194914] (004/1064) Accurately ripped
 05 [a5b1e603] (004/1066) Accurately ripped
 06 [60a6e958] (004/1064) Accurately ripped
 07 [29184cb7] (004/1066) Accurately ripped
 08 [7e025c00] (004/1059) Accurately ripped
 09 [bd2234e0] (004/1061) Accurately ripped
 10 [2135b78c] (004/1061) Accurately ripped
[color=#FF0000]Offsetted by -676[/color]:
 01 [dfe53a18] (023/1064) Accurately ripped
 02 [07e2a526] (023/1058) Accurately ripped
 03 [39f5c3f4] (023/1062) Accurately ripped
 04 [8e77bfb4] (023/1064) Accurately ripped
 05 [c2a96f5f] (023/1066) Accurately ripped
 06 [3aba754c] (023/1064) Accurately ripped
 07 [12ed3f97] (023/1066) Accurately ripped
 08 [90ae18e0] (023/1059) Accurately ripped
 09 [8f1b9c9c] (023/1061) Accurately ripped
 10 [aea9e534] (023/1061) Accurately ripped
[color=#FF0000]Offsetted by -667[/color]:
 01 [176b05a6] (063/1064) Accurately ripped
 02 [f2381da7] (062/1058) Accurately ripped
 03 [df6c6895] (064/1062) Accurately ripped
 04 [f2c2b369] (064/1064) Accurately ripped
 05 [f27db184] (065/1066) Accurately ripped
 06 [4278b71d] (062/1064) Accurately ripped
 07 [1a3be72e] (064/1066) Accurately ripped
 08 [094376c7] (064/1059) Accurately ripped
 09 [719c4629] (064/1061) Accurately ripped
 10 [4a093dc3] (064/1061) Accurately ripped
[color=#FF0000]Offsetted by -665[/color]:
 01 [99aafb76] (002/1064) Accurately ripped
 02 [5f3654e5] (002/1058) Accurately ripped
 03 [926a5447] (002/1062) Accurately ripped
 04 [257e0603] (002/1064) Accurately ripped
 05 [f6466e17] (002/1066) Accurately ripped
 06 [b5fee226] (002/1064) Accurately ripped
 07 [e2f80c6c] (002/1066) Accurately ripped
 08 [079d8ba5] (002/1059) Accurately ripped
 09 [276f65d3] (002/1061) Accurately ripped
 10 [33aa34fd] (002/1061) Accurately ripped
[color=#FF0000]Offsetted by -664[/color]:
 01 [abfcd4b2] (102/1064) Accurately ripped
 02 [95b5f084] (104/1058) Accurately ripped
 03 [6be94a20] (104/1062) Accurately ripped
 04 [bedbaf50] (104/1064) Accurately ripped
 05 [f8294c62] (104/1066) Accurately ripped
 06 [efc377a9] (104/1064) Accurately ripped
 07 [c7561f0b] (104/1066) Accurately ripped
 08 [86ca9614] (103/1059) Accurately ripped
 09 [16d9e17b] (104/1061) Accurately ripped
 10 [287bb099] (104/1061) Accurately ripped
More than 16 offsets match![color=#FF0000] (is that good or bad [too less])[/color]
[color=#008000]Offsetted by -1090:
 01 [70a78afd] (000/1064) No match (V2 was not tested)
 02 [50c82b63] (000/1058) No match (V2 was not tested)
 03 [7ea42f06] (000/1062) No match (V2 was not tested)
 04 [88fff52e] (000/1064) No match (V2 was not tested)
 05 [0f104621] (000/1066) No match (V2 was not tested)
 06 [e96d0706] (000/1064) No match (V2 was not tested)
 07 [c2cb2275] (000/1066) No match (V2 was not tested)
 08 [e5d7395e] (000/1059) No match (V2 was not tested)
 09 [deac2447] (000/1061) No match (V2 was not tested)
 10 [9b47af4d] (000/1061) No match (V2 was not tested)
Offsetted by -730:
 01 [a8afda7b] (000/1064) No match (V2 was not tested)
 02 [9276d7e1] (000/1058) No match (V2 was not tested)
 03 [592de82e] (000/1062) No match (V2 was not tested)
 04 [34b60976] (000/1064) No match (V2 was not tested)
 05 [a2a0f8dc] (000/1066) No match (V2 was not tested)
 06 [0d78e743] (000/1064) No match (V2 was not tested)
 07 [e715520d] (000/1066) No match (V2 was not tested)
 08 [bd2de576] (000/1059) No match (V2 was not tested)
 09 [1148629e] (000/1061) No match (V2 was not tested)
 10 [0847cfaa] (000/1061) No match (V2 was not tested)
Offsetted by -690:
 01 [b656b68b] (000/1064) No match
 02 [0dc1230d] (000/1058) No match
 03 [55045216] (000/1062) No match (V2 was not tested)
 04 [2b587d7e] (000/1064) No match
 05 [6a8e6482] (000/1066) No match
 06 [124e4775] (000/1064) No match
 07 [95c83ae5] (000/1066) No match
 08 [9c3786ce] (000/1059) No match
 09 [361b88eb] (000/1061) No match
 10 [4ad22275] (000/1061) No match
Offsetted by -566:
 01 [ada3d967] (000/1064) No match (V2 was not tested)
 02 [6d9c7d2d] (000/1058) No match (V2 was not tested)
 03 [ae836732] (002/1062) Accurately ripped
 04 [74b67eca] (000/1064) No match (V2 was not tested)
 05 [317a8f84] (000/1066) No match (V2 was not tested)
 06 [1788a56b] (000/1064) No match (V2 was not tested)
 07 [33593fe9] (000/1066) No match (V2 was not tested)
 08 [36089492] (002/1059) Accurately ripped
 09 [50fc0361] (002/1061) Accurately ripped
 10 [dd9f0087] (002/1061) Accurately ripped
Offsetted by -120:
 01 [f0b7cd88] (000/1064) No match
 02 [e8a4d346] (000/1058) No match
 03 [99b3b740] (000/1062) No match
 04 [a5e372f0] (000/1064) No match
 05 [d82d4479] (000/1066) No match
 06 [152cbf42] (000/1064) No match
 07 [0f3db0eb] (000/1066) No match
 08 [c680c1f4] (000/1059) No match
 09 [69ac50f5] (000/1061) No match
 10 [c0bc2dc7] (000/1061) No match (V2 was not tested)
Offsetted by -108:
 01 [e5636700] (000/1064) No match (V2 was not tested)
 02 [7248122a] (000/1058) No match (V2 was not tested)
 03 [cba73d6c] (000/1062) No match (V2 was not tested)
 04 [d647628c] (000/1064) No match (V2 was not tested)
 05 [4c9b3797] (000/1066) No match (V2 was not tested)
 06 [c95bb4dc] (000/1064) No match (V2 was not tested)
 07 [c3a6905f] (000/1066) No match (V2 was not tested)
 08 [bc9d3f28] (000/1059) No match (V2 was not tested)
 09 [96a4eb52] (000/1061) No match (V2 was not tested)
 10 [3f5ce68e] (000/1061) No match (V2 was not tested)
Offsetted by -66:
 01 [00fc61a4] (002/1064) Accurately ripped
 02 [542e6ae0] (000/1058) No match (V2 was not tested)
 03 [7a7b9306] (000/1062) No match (V2 was not tested)
 04 [ffa5292e] (002/1064) Accurately ripped
 05 [8b27f9b8] (002/1066) Accurately ripped
 06 [3e4c0e8f] (002/1064) Accurately ripped
 07 [3b159e75] (002/1066) Accurately ripped
 08 [9a00f55e] (002/1059) Accurately ripped
 09 [50c5922e] (002/1061) Accurately ripped
 10 [799eea32] (002/1061) Accurately ripped
Offsetted by -30:
 01 [e6375ee4] (000/1064) No match (V2 was not tested)
 02 [ee1f1ed4] (000/1058) No match (V2 was not tested)
 03 [1056258a] (000/1062) No match (V2 was not tested)
 04 [90d0f802] (000/1064) No match (V2 was not tested)
 05 [84343668] (000/1066) No match (V2 was not tested)
 06 [5845eb0f] (000/1064) No match (V2 was not tested)
 07 [58503cd1] (000/1066) No match (V2 was not tested)
 08 [7c566cfa] (000/1059) No match (V2 was not tested)
 09 [60f4eea6] (000/1061) No match (V2 was not tested)
 10 [f2900f3e] (000/1061) No match (V2 was not tested)
Offsetted by 6:
 01 [214d8abc] (000/1064) No match
 02 [80e2cc8c] (000/1058) No match
 03 [a630b80e] (000/1062) No match
 04 [21fcc6d6] (000/1064) No match
 05 [11759283] (003/1066) Accurately ripped
 06 [716bc4b4] (000/1064) No match
 07 [758adb2d] (002/1066) Accurately ripped
 08 [5eabe496] (002/1059) Accurately ripped
 09 [effbaaf0] (002/1061) Accurately ripped
 10 [685d3308] (002/1061) Accurately ripped
Offsetted by 588:
 01 [67b08413] (000/1064) No match (V2 was not tested)
 02 [99e0c253] (000/1058) No match
 03 [1cd3a364] (000/1062) No match
 04 [ccebabe4] (000/1064) No match
 05 [4fcbacca] (000/1066) No match
 06 [f7664011] (000/1064) No match
 07 [a36930a7] (000/1066) No match
 08 [7f119cf0] (000/1059) No match
 09 [4450d6eb] (000/1061) No match
 10 [feeee415] (000/1061) No match[/color]

[color=#FF0000]Track Peak [ CRC32  ] [W/O NULL] [  LOG  ]
 --  100.0 [FEA3664E] [4BEABE1F]  
 01  99.9 [47355552] [8C8499BC]  CRC32 
 02  99.9 [7A2C30ED] [E3D95218]  CRC32 
 03  99.9 [36C7F7C3] [F0987C03]  CRC32 
 04  99.9 [DA3F795B] [BDF6906E]  CRC32 
 05  100.0 [C16BCE47] [6FB38E1A]  CRC32 
 06  99.9 [7986A29D] [8C2D58AC]  CRC32 
 07  82.2 [FB11FE06] [43C78EA8]  CRC32 
 08  99.9 [ABC0DE84] [3F6B6B30]  CRC32 
 09  99.9 [17488E08] [B0AE783D]  CRC32 
 10  99.9 [BD0866A2] [839BD1D3]  CRC32 [/color]

Would you please tell me what should I search for in all that "poem" to make sure the rip is perfect and 100% identical to the CD quality.. Also, explain to me please, what do colored parts mean and especially the green part where I'm having a lot of "no match" results...

I'm a bit of a noobie, so I'm trying to learn
  • Last Edit: 27 April, 2013, 08:14:51 AM by db1989

  • korth
  • [*][*][*][*][*]
CUETools versions 1.9.5 through 2.1.5 (current)
Reply #2206
Please put logs in a code box!
see http://www.cuetools.net/wiki/CUETools_log (same link I gave you [a href='index.php?act=findpost&pid=832274']here[/a]).
Everything up to the first red text is your disc reported from 2 databases. Everything from the first red text through the green text are alternate records under the same ID (but not your disc) and are provided in case there were no AccurateRip records matching the exact pressing of your disc.  From the first red text to the green text are ARv1 alternate pressings which may or may not 100% match your disc. The green section can be alternate pressings or alternate mastering (including different in peak levels). The bottom red section is explained in the first link (bottom of page).
  • Last Edit: 25 April, 2013, 01:26:53 PM by korth
korth

CUETools versions 1.9.5 through 2.1.5 (current)
Reply #2207
Please put logs in a code box!
see http://www.cuetools.net/wiki/CUETools_log (same link I gave you [a href='index.php?act=findpost&pid=832274']here[/a]).
Everything up to the first red text is your disc reported from 2 databases. From the first red text to the green text are ARv1 alternate pressings which may or may not 100% match your disc. The green section can be alternate pressings or alternate mastering. The bottom red section is explained in the first link (bottom of page).


Sorry I put it in [codes] at first but color wouldnt show in code view so I switched to normal:)

1. But if that's the case, wouldnt all of tracks be no match not only few of them? Sorry, I'm confused now.
2.
Code: [Select]
[AccurateRip ID: 000ef298-0078238f-8909cc0a] found.
Track [ CRC | V2 ] Status
01 [2035f107|e17eac17] (200+114/1064) Accurately ripped


what does (200+114/1064) mean? Only 200+114 out of 1064 rips in the database match my rip? or? If so, is it not too few? It should be a number a little closer to that 1064 surely? or I don't know what I'm talking about here..?

Explain like you are explaining to your uneducated child or something, explain like you are explaining to a noob  I need to understand that.

  • korth
  • [*][*][*][*][*]
CUETools versions 1.9.5 through 2.1.5 (current)
Reply #2208
Quote
Sorry I put it in [codes] at first but color wouldnt show in code view so I switched to normal:)
Color can be edited into the code box same as it can inside quotes.

1. I edited my post. Sometimes CDs are normalized on alternate pressings thus raising the levels on some tracks but not all. This can change the CRCs on some tracks but not all. Alternately a small defect can be introduced into the master plate that will slightly alter future pressings.
2. Yes that means 314 (200+114) out of 1064 total rips in the database match your pressing but as you already noted there were more than 16 alternate pressings included in that 1064 total figure.

Try it with Verbose off. That will show combined matches across pressings. (Individual matches at 0(nnn) are your disc. If 0(nnn) appears twice, one is ARv1 and the other ARv2).
  • Last Edit: 25 April, 2013, 02:23:45 PM by korth
korth

  • o770
  • [*][*]
CUETools versions 1.9.5 through 2.1.5 (current)
Reply #2209
Hello there. Which one of these both rips is actually accurate?
AR Confidence equals 1 for each of these rips... How trustworthy is that? I ask because today the AR database for another CD was actually missing one track(!), just check the last log below.

Your software seems great to me, I really enjoyed it!

RIP 1
[!--sizeo:1--][span style=\"font-size:8pt;line-height:100%\"][!--/sizeo--]
Code: [Select]
CUERipper v2.1.4 Copyright © 2008-12 Grigory Chudov

EAC extraction logfile from 25. April 2013, 18:11

Adoniran Barbosa / Meus Momentos

Used drive  : HL-DT-ST DVD+-RW GT10N  Adapter: 1  ID: 0

Read mode   : Secure
Utilize accurate stream : Yes
Defeat audio cache   : Yes
Make use of C2 pointers : No

Read offset correction   : 102
Overread into Lead-In and Lead-Out   : No
Fill up missing offset samples with silence : Yes
Delete leading and trailing silent blocks  : No
Null samples used in CRC calculations   : Yes
Used interface   : Native Win32 interface for Win NT & 2000

Used output format : Internal WAV Routines
Sample format   : 44.100 Hz; 16 Bit; Stereo


TOC of the extracted CD

Track |  Start  |  Length  | Start sector | End sector
---------------------------------------------------------
1  |  0:00.00 |  2:43.50 | 0 | 12274 
2  |  2:43.50 |  4:02.37 | 12275 | 30461 
3  |  6:46.12 |  3:06.20 | 30462 | 44431 
4  |  9:52.32 |  2:21.50 | 44432 | 55056 
5  | 12:14.07 |  2:31.50 | 55057 | 66431 
6  | 14:45.57 |  2:17.35 | 66432 | 76741 
7  | 17:03.17 |  2:42.58 | 76742 | 88949 
8  | 19:46.00 |  2:53.70 | 88950 |  101994 
9  | 22:39.70 |  1:58.37 | 101995 |  110881 
  10  | 24:38.32 |  2:44.43 | 110882 |  123224 
  11  | 27:23.00 |  2:20.37 | 123225 |  133761 
  12  | 29:43.37 |  3:33.03 | 133762 |  149739 
  13  | 33:16.40 |  3:09.67 | 149740 |  163981 
  14  | 36:26.32 |  2:24.00 | 163982 |  174781 
  15  | 38:50.32 |  3:20.50 | 174782 |  189831 
  16  | 42:11.07 |  3:45.65 | 189832 |  206771 
  17  | 45:56.72 |  3:12.23 | 206772 |  221194 


Range status and errors

Selected range

Filename D:\Upload\Adoniran Barbosa - Meus Momentos\Adoniran Barbosa - Meus Momentos.wav

Peak level 100.0 %
Range quality 100.0 %
Copy CRC BCC3BBB0
Copy OK

No errors occurred


AccurateRip summary

Track  1  accurately ripped (confidence 1)  [EBDCC155]
Track  2  accurately ripped (confidence 1)  [BDD68958]
Track  3  accurately ripped (confidence 1)  [A35D337A]
Track  4  accurately ripped (confidence 1)  [BA751898]
Track  5  accurately ripped (confidence 1)  [F9DE4D42]
Track  6  accurately ripped (confidence 1)  [7340CA2D]
Track  7  accurately ripped (confidence 1)  [292EF13C]
Track  8  accurately ripped (confidence 1)  [E24F5755]
Track  9  accurately ripped (confidence 1)  [58EFE2FB]
Track 10  accurately ripped (confidence 1)  [F940935E]
Track 11  accurately ripped (confidence 1)  [45148C49]
Track 12  accurately ripped (confidence 1)  [97C2C4D3]
Track 13  accurately ripped (confidence 1)  [2C506723]
Track 14  accurately ripped (confidence 1)  [6CA1E898]
Track 15  accurately ripped (confidence 1)  [F5B1FE9C]
Track 16  accurately ripped (confidence 1)  [5B6BCA5B]
Track 17  cannot be verified as accurate (confidence 1)  [F476340E], AccurateRip returned [478E8581]

16 track(s) accurately ripped

Some tracks could not be verified as accurate

End of status report
Code: [Select]
[CUETools log; Date: 4/25/2013 18:11:25; Version: 2.1.4]
[CTDB TOCID: Y196.11voKgfRSsf2WYAiFLkYM4-] found.
Track | CTDB Status
  1  | (1/1) Accurately ripped
  2  | (1/1) Accurately ripped
  3  | (1/1) Accurately ripped
  4  | (1/1) Accurately ripped
  5  | (1/1) Accurately ripped
  6  | (1/1) Accurately ripped
  7  | (1/1) Accurately ripped
  8  | (1/1) Accurately ripped
  9  | (1/1) Accurately ripped
 10  | (1/1) Accurately ripped
 11  | (1/1) Accurately ripped
 12  | (1/1) Accurately ripped
 13  | (1/1) Accurately ripped
 14  | (1/1) Accurately ripped
 15  | (1/1) Accurately ripped
 16  | (1/1) Accurately ripped
 17  | (1/1) Accurately ripped
[AccurateRip ID: 001dc335-017764ae-060b8511] found.
Track  [  CRC  |  V2  ] Status
 01 [ebdcc155|3350e43f] (1+0/1) Accurately ripped
 02 [bdd68958|a7dea098] (1+0/1) Accurately ripped
 03 [a35d337a|a70b5297] (1+0/1) Accurately ripped
 04 [ba751898|a1154130] (1+0/1) Accurately ripped
 05 [f9de4d42|c1f64f5e] (1+0/1) Accurately ripped
 06 [7340ca2d|303e6095] (1+0/1) Accurately ripped
 07 [292ef13c|a0118b4d] (1+0/1) Accurately ripped
 08 [e24f5755|c393c33b] (1+0/1) Accurately ripped
 09 [58efe2fb|8ab95d9b] (1+0/1) Accurately ripped
 10 [f940935e|c67caa17] (1+0/1) Accurately ripped
 11 [45148c49|2cb93ff5] (1+0/1) Accurately ripped
 12 [97c2c4d3|4d528d68] (1+0/1) Accurately ripped
 13 [2c506723|7259ce0a] (1+0/1) Accurately ripped
 14 [6ca1e898|1340205b] (1+0/1) Accurately ripped
 15 [f5b1fe9c|556b347a] (1+0/1) Accurately ripped
 16 [5b6bca5b|ea49f36e] (1+0/1) Accurately ripped
 17 [f476340e|2980345e] (0+0/1) No match

Track Peak [ CRC32  ] [W/O NULL]
 --  100.0 [BCC3BBB0] [5BE86576]  
 01  100.0 [5AE806D5] [FE7CDC53]  
 02  100.0 [3692493D] [8F0FF0FA]  
 03  99.9 [629D6A63] [73099B35]  
 04  99.9 [9ADDDB05] [070E8ED5]  
 05  100.0 [4ABEFEF6] [4CB76C1F]  
 06  100.0 [FD9F2E00] [F6774FE9]  
 07  100.0 [490A511D] [6A48F7CE]  
 08  100.0 [7883EF5A] [47A17C42]  
 09  100.0 [66F7F906] [0E68944B]  
 10  100.0 [6E9EC68A] [D15836BB]  
 11  100.0 [75BD8E9E] [F00C44D2]  
 12  100.0 [633213E7] [06424AF0]  
 13  100.0 [D1D4249B] [C91D4F2B]  
 14  99.9 [FCB4545E] [957C18D7]  
 15  99.9 [CCB2392D] [0073C1BB]  
 16  100.0 [552F4048] [8A580C9E]  
 17  89.1 [9A5A1BF2] [4FFAFA0B]
[/size]

RIP 2
[!--sizeo:1--][span style=\"font-size:8pt;line-height:100%\"][!--/sizeo--]
Code: [Select]
CUERipper v2.1.4 Copyright © 2008-12 Grigory Chudov

EAC extraction logfile from 25. April 2013, 20:00

Carnaval / Sambas Enredo Grupo Especial 1995 São Paulo

Used drive  : HL-DT-ST DVD+-RW GT10N  Adapter: 1  ID: 0

Read mode   : Secure
Utilize accurate stream : Yes
Defeat audio cache   : Yes
Make use of C2 pointers : No

Read offset correction   : 102
Overread into Lead-In and Lead-Out   : No
Fill up missing offset samples with silence : Yes
Delete leading and trailing silent blocks  : No
Null samples used in CRC calculations   : Yes
Used interface   : Native Win32 interface for Win NT & 2000

Used output format : Internal WAV Routines
Sample format   : 44.100 Hz; 16 Bit; Stereo


TOC of the extracted CD

Track |  Start  |  Length  | Start sector | End sector
---------------------------------------------------------
1  |  0:00.00 |  4:32.60 | 0 | 20459 
2  |  4:32.60 |  4:30.10 | 20460 | 40719 
3  |  9:02.70 |  4:33.68 | 40720 | 61262 
4  | 13:36.63 |  4:33.37 | 61263 | 81774 
5  | 18:10.25 |  4:33.35 | 81775 |  102284 
6  | 22:43.60 |  4:33.65 | 102285 |  122824 
7  | 27:17.50 |  4:32.15 | 122825 |  143239 
8  | 31:49.65 |  4:33.70 | 143240 |  163784 
9  | 36:23.60 |  4:31.00 | 163785 |  184109 
  10  | 40:54.60 |  4:21.50 | 184110 |  203734 


Range status and errors

Selected range

Filename D:\Upload\Carnaval - Sambas Enredo Grupo Especial 1995 São Paulo\Carnaval - Sambas Enredo Grupo Especial 1995 São Paulo.wav

Peak level 100.0 %
Range quality 100.0 %
Copy CRC 5040A6E6
Copy OK

No errors occurred


AccurateRip summary

Track  1  accurately ripped (confidence 1)  [D6C8A8FB]
Track  2  accurately ripped (confidence 1)  [BC3CF057]
Track  3  cannot be verified as accurate (confidence 1)  [9A9A5D0C], AccurateRip returned [01CF11FA]
Track  4  accurately ripped (confidence 1)  [65682432]
Track  5  accurately ripped (confidence 1)  [197F40D7]
Track  6  accurately ripped (confidence 1)  [E2ECF2F2]
Track  7  accurately ripped (confidence 1)  [48244138]
Track  8  accurately ripped (confidence 1)  [5A85AE01]
Track  9  accurately ripped (confidence 1)  [15AFB58D]
Track 10  accurately ripped (confidence 1)  [D782BE8E]

 9 track(s) accurately ripped

Some tracks could not be verified as accurate

End of status report
Code: [Select]
[CUETools log; Date: 4/25/2013 20:00:03; Version: 2.1.4]
[CTDB TOCID: 1bY_ar7Ln7xO5oYGf60PpA2h8g4-] disk not present in database.
[AccurateRip ID: 00112766-00893797-880a9c0a] found.
Track  [  CRC  |  V2  ] Status
 01 [d6c8a8fb|cb59c60d] (0+1/1) Accurately ripped
 02 [bc3cf057|2c3d8d94] (0+1/1) Accurately ripped
 03 [9a9a5d0c|30f1bec7] (0+0/1) No match
 04 [65682432|8ea75dfc] (0+1/1) Accurately ripped
 05 [197f40d7|243ac2ef] (0+1/1) Accurately ripped
 06 [e2ecf2f2|a82ec81a] (0+1/1) Accurately ripped
 07 [48244138|3d1c726b] (0+1/1) Accurately ripped
 08 [5a85ae01|33d323d2] (0+1/1) Accurately ripped
 09 [15afb58d|fe2bbf57] (0+1/1) Accurately ripped
 10 [d782be8e|07d2b72c] (0+1/1) Accurately ripped

Track Peak [ CRC32  ] [W/O NULL]
 --  100.0 [5040A6E6] [0D2852E1]  
 01  100.0 [44F2AB77] [FE51DD52]  
 02  100.0 [8BCB0870] [70BD74D8]  
 03  100.0 [83806274] [70E9E2D8]  
 04  100.0 [66F8B4DD] [CE80AC13]  
 05  100.0 [069E3EEF] [BE3940CD]  
 06  100.0 [6F57D696] [51A21451]  
 07  100.0 [6CABD1D1] [13F67B3E]  
 08  100.0 [3C247622] [0396E488]  
 09  100.0 [E1163A99] [BBE62AA1]  
 10  100.0 [3C952DCC] [F471BB7E]
[/size]

Should this ever happen?
RIP 3
[!--sizeo:1--][span style=\"font-size:8pt;line-height:100%\"][!--/sizeo--]
Code: [Select]
CUERipper v2.1.4 Copyright © 2008-12 Grigory Chudov

EAC extraction logfile from 25. April 2013, 22:16

Raul Seixas / Série Grandes Nomes

Used drive  : HL-DT-ST DVD+-RW GT10N  Adapter: 1  ID: 0

Read mode   : Secure
Utilize accurate stream : Yes
Defeat audio cache   : Yes
Make use of C2 pointers : No

Read offset correction   : 102
Overread into Lead-In and Lead-Out   : No
Fill up missing offset samples with silence : Yes
Delete leading and trailing silent blocks  : No
Null samples used in CRC calculations   : Yes
Used interface   : Native Win32 interface for Win NT & 2000

Used output format : Internal WAV Routines
Sample format   : 44.100 Hz; 16 Bit; Stereo


TOC of the extracted CD

Track |  Start  |  Length  | Start sector | End sector
---------------------------------------------------------
1  |  0:00.00 |  3:49.42 | 0 | 17216 
2  |  3:49.42 |  3:14.25 | 17217 | 31791 
3  |  7:03.67 |  3:49.55 | 31792 | 49021 
4  | 10:53.47 |  3:53.23 | 49022 | 66519 
5  | 14:46.70 |  2:52.07 | 66520 | 79426 
6  | 17:39.02 |  2:06.28 | 79427 | 88904 
7  | 19:45.30 |  2:59.07 | 88905 |  102336 
8  | 22:44.37 |  4:50.35 | 102337 |  124121 
9  | 27:34.72 |  2:08.40 | 124122 |  133761 
  10  | 29:43.37 |  2:33.10 | 133762 |  145246 
  11  | 32:16.47 |  2:12.70 | 145247 |  155216 
  12  | 34:29.42 |  3:45.28 | 155217 |  172119 
  13  | 38:14.70 |  1:49.62 | 172120 |  180356 
  14  | 40:04.57 |  4:49.52 | 180357 |  202083 


Range status and errors

Selected range

Filename D:\Upload\Raul Seixas - Série Grandes Nomes\D2\Raul Seixas - Série Grandes Nomes Disco 2.wav

Peak level 98.8 %
Range quality 100.0 %
Copy CRC 640C2785
Copy OK

No errors occurred


AccurateRip summary

Track  1  accurately ripped (confidence 2)  [BB67BFFB]
Track  2  accurately ripped (confidence 2)  [E1B9DB0D]
Track  3  accurately ripped (confidence 2)  [42AC4225]
Track  4  accurately ripped (confidence 2)  [531A58A9]
Track  5  accurately ripped (confidence 2)  [84AE13A4]
Track  6  accurately ripped (confidence 2)  [E6C099E1]
Track  7  accurately ripped (confidence 2)  [A6EC4917]
Track  8  accurately ripped (confidence 2)  [95FA2B79]
Track  9  accurately ripped (confidence 2)  [6D945C7D]
Track 10  accurately ripped (confidence 2)  [2008C23C]
Track 11  accurately ripped (confidence 2)  [8451D270]
Track 12  accurately ripped (confidence 2)  [A0816C99]
Track 13  accurately ripped (confidence 2)  [462FD5F0]
Track 14  not present in database

13 track(s) accurately ripped
 1 track(s) not present in the AccurateRip database

Some tracks could not be verified as accurate

End of status report
[/size]
  • Last Edit: 27 April, 2013, 08:15:37 AM by db1989

  • korth
  • [*][*][*][*][*]
CUETools versions 1.9.5 through 2.1.5 (current)
Reply #2210
I'm sure Gregory appreciates that you like the software.
Confidence 1 is unreliable unless all tracks are a match for your rip and you know for sure that you didn't submit the previous rip. It is possible that the confidence 1 entry may have errors or ripped from a CDR copy but chances are slim that your rip and an existing rip in the database submitted by someone else would have the exact same errors. It is more likely that because the rips match, both are good. However, to be certain that you didn't submit the previous rip, Confidence 2 would be more reliable when determining accuracy.

Rip 1: Using the above thinking the rip would be accurate according to CTDB (if you didn't submit the CTDB entry last October using EAC with the v2.1.3 CTDB plugin). Including your recent entry, the CTDB confidence is now 2. The AccurateRip summary is unreliable until there are more entries.

Rip 2 cannot be determined. Neither database has enough matching entries for all the tracks.

Rip 3 (see spoon's replies in this discussion). The last track was probably put into limbo awaiting a third rip because the two previous rips of that track had different CRCs. Determining accuracy would be the same as Rip 2.
korth

  • o770
  • [*][*]
CUETools versions 1.9.5 through 2.1.5 (current)
Reply #2211
That was so definite and concise. Thanks a lot! I wonder how you found the month for the other rip submission to CTDB. By the way that wasn't me.

CUETools versions 1.9.5 through 2.1.5 (current)
Reply #2212
Code: [Select]
[CUETools log; Date: 26.4.2013 г. 14:36:36; Version: 2.1.4]
[CTDB TOCID: rrrcDFrz03RW_9pI5jGgaedgM3w-] found.
Track | CTDB Status
  1  | (2/3) Accurately ripped
  2  | (2/3) Accurately ripped
  3  | (2/3) Accurately ripped
  4  | (2/3) Accurately ripped
  5  | (1/3) Accurately ripped, or (1/3) differs in 1 samples @01:59:58
  6  | (2/3) Accurately ripped
  7  | (2/3) Accurately ripped
  8  | (2/3) Accurately ripped
  9  | (2/3) Accurately ripped
 10  | (2/3) Accurately ripped
 11  | (2/3) Accurately ripped
 12  | (2/3) Accurately ripped
 13  | (2/3) Accurately ripped
[AccurateRip ID: 001eb2e8-0131985e-b40e8d0d] found.
Track  [  CRC  |  V2  ] Status
 01 [c755b4c6|0caab4de] (2+0/2) Accurately ripped
 02 [9572e449|a39d86c8] (2+0/2) Accurately ripped
 03 [ce32335f|522f8916] (2+0/2) Accurately ripped
 04 [5b75ecf9|c8773bf1] (2+0/2) Accurately ripped
 05 [cdc54c48|bf97513c] (0+0/2) No match
 06 [bbcd4a0a|4665fe1c] (2+0/2) Accurately ripped
 07 [1e03681c|0e8f83b7] (2+0/2) Accurately ripped
 08 [591278e6|69e0f120] (2+0/2) Accurately ripped
 09 [9012f725|edf747d1] (2+0/2) Accurately ripped
 10 [e451a258|4b4755ee] (2+0/2) Accurately ripped
 11 [1fc341dd|2726a2f0] (2+0/2) Accurately ripped
 12 [27c06198|774407ba] (2+0/2) Accurately ripped
 13 [54b2e822|ade8f175] (2+0/2) Accurately ripped

Track Peak [ CRC32  ] [W/O NULL] [  LOG  ]
 --  100.0 [BDFBF8CF] [5346D7BE]  
 01  100.0 [F1C395A7] [053B0676]  CRC32 
 02  100.0 [18A1624B] [F9E47B2A]  CRC32 
 03  100.0 [BE3E579E] [6661AAD9]  CRC32 
 04  100.0 [E705F545] [15507A04]  CRC32 
 05  100.0 [4130FC27] [40612787] [BEFF88CF]
 06  100.0 [E4F4D2D1] [DF9C9537]  CRC32 
 07  100.0 [357369A5] [B1315784]  CRC32 
 08  100.0 [75CEA681] [5CAA4E7A]  CRC32 
 09  100.0 [A7D8A385] [B8627BA2]  CRC32 
 10  100.0 [0E96301A] [4D096B38]  CRC32 
 11  100.0 [BC1E6CE6] [A9F82FC9]  CRC32 
 12  100.0 [D793872B] [86856D94]  CRC32 
 13  100.0 [EE79EFA0] [3E62AB17]  CRC32
Coldplay's - X&Y album... Is that possible? Only 2 found rips for this album in the whole AR database?
  • Last Edit: 27 April, 2013, 08:16:02 AM by db1989

  • korth
  • [*][*][*][*][*]
CUETools versions 1.9.5 through 2.1.5 (current)
Reply #2213
Database records are stored based on TOC (disc structure) not title. It looks like there are more than 25 freeDB IDs* for this CD with 13 tracks but none match the ID of your rip. So yes it is possible you have a less popular version of the CD title.

* I didn't verify all 25+ were unique.
  • Last Edit: 26 April, 2013, 08:34:41 AM by korth
korth

CUETools versions 1.9.5 through 2.1.5 (current)
Reply #2214
Database records are stored based on TOC (disc structure) not title. It looks like there are more than 25 freeDB IDs* for this CD with 13 tracks but none match the ID of your rip. So yes it is possible you have a less popular version of the CD title.

* I didn't verify all 25+ were unique.



So someone can actually have  "(*/1000+) Accurately ripped" of this album?

  • korth
  • [*][*][*][*][*]
CUETools versions 1.9.5 through 2.1.5 (current)
Reply #2215
With a different version of the disc that may be possible.
I didn't mention that a low AR confidence can also be from an incorrect AccurateRip ID calculation because I didn't see any evidence of that here.
Incorrect AccurateRip ID calculation in CUETools could be caused by
  • A missing cue or a cue missing disc pregap (HTOA) info or missing EAC log for a rip of a disc that has pregap (HTOA).
  • Missing cue or missing or incorrect DISCID tag in the cue or missing TOC in the EAC log and missing EAC log for a rip of a disc that has a data track.
I did find 2 data track versions of this title but neither matched the 13 track structure of your disc.

Note: CUETools Database CTDB TOCID calculation doesn't rely on pregap (HTOA) or data track presence.
  • Last Edit: 26 April, 2013, 10:33:40 AM by korth
korth

CUETools versions 1.9.5 through 2.1.5 (current)
Reply #2216
With a different version of the disc that may be possible.
I didn't mention that a low AR confidence can also be from an incorrect AccurateRip ID calculation because I didn't see any evidence of that here.
Incorrect AccurateRip ID calculation in CUETools could be caused by
  • A missing cue or a cue missing disc pregap (HTOA) info for a rip of a disc that has pregap (HTOA).
  • Missing cue or missing DISCID tag in the cue or missing TOC in the EAC log or missing EAC log for a rip of a disc that has a data track.
I did find 2 data track versions of this title but neither matched the 13 track structure of your disc.

Note: CUETools Database CTDB TOCID calculation doesn't rely on pregap (HTOA) or data track presence.



I wish I had the CD and rip it myself.. Now I'm just wondering how perfect the rip I have is.

And all the info you have been giving me for the last days is getting me confused big time.. Lol.


  • mjb2006
  • [*][*][*][*][*]
CUETools versions 1.9.5 through 2.1.5 (current)
Reply #2217
I wish I had the CD and rip it myself.. Now I'm just wondering how perfect the rip I have is.

Why? If there are bad samples, either they're creating audible problems, or they aren't. If they aren't, then it's just like we say to people who are trying to figure out ideal settings for lossy codecs like MP3: once you can't tell the difference between your copy and the original, it is, in effect, perfection, and you can't improve on it. Not having the original to compare to makes it even easier; do you hear anything weird in it, that sounds like it shouldn't be there, or not? If not, there's no problem.

(Also, if you really wish you had the CD, you could just buy a used one for the cost of a latte, shipping included. I mean we are talking about a Coldplay album, probably the most easy-to-obtain CD in the universe. Someone you know probably wants to get rid of their copy. You could probably even stand on the street and hold out your hand, and someone would give you one.  )

CUETools versions 1.9.5 through 2.1.5 (current)
Reply #2218
Do I lose any quality if I split a single-flac album into multiple tracks(files)? I have John Lennon's "Imagine" in a single FLAC file and someone told me to use CUETools->Encode->Tracks->FLAC->libFLAC->8->Go.. in order to do that. So, do I lose quality? It's still lossless after that right?

  • mjb2006
  • [*][*][*][*][*]
CUETools versions 1.9.5 through 2.1.5 (current)
Reply #2219
Yes, it's still lossless. By definition, no, you don't lose quality.

  • greynol
  • [*][*][*][*][*]
  • Global Moderator
CUETools versions 1.9.5 through 2.1.5 (current)
Reply #2220
If it were really that simple you could tell that to people using medieval cue splitter.
  • Last Edit: 27 April, 2013, 08:02:21 AM by greynol
13 February 2016: The world was blessed with the passing of a truly vile and wretched person.

Your eyes cannot hear.

  • db1989
  • [*][*][*][*][*]
  • Global Moderator
CUETools versions 1.9.5 through 2.1.5 (current)
Reply #2221
ITT: ‘Help me with my torrents.’

  • mjb2006
  • [*][*][*][*][*]
CUETools versions 1.9.5 through 2.1.5 (current)
Reply #2222
Dang it, I had blocked Medieval out of my mind.

I shouldn't have said "by definition" splitting a lossless image to lossless tracks is a lossless operation. That one particular splitter is notorious for screwing up track boundaries. CUETools splits properly, and is the only one I know of which respects HTOA (if so configured).

  • db1989
  • [*][*][*][*][*]
  • Global Moderator
CUETools versions 1.9.5 through 2.1.5 (current)
Reply #2223
I shouldn't have said "by definition" splitting a lossless image to lossless tracks is a lossless operation.

It is if the lossless formats are properly decoded and re-encoded. And those are fair assumptions to make. It is indeed the case that, by definition, lossless is lossless… unless someone has done something wrong.

So, the exception to that rule is supplied by one programmer who thought they were being clever by trying to split directly in the compressed file, despite that not being supported by the format. And it is, it seems, an error for which other people will be paying for the rest of time, in the form of having to suffix common-sense rules about lossless with a disclaimer about MCS!

  • NetRanger
  • [*][*]
CUETools versions 1.9.5 through 2.1.5 (current)
Reply #2224
Been testing out the new v2.1.5 Dev rls and i must say it works really nice. Haven't stumbled over any issues so far when it comes to CUETools. Will get on testing CUERipper next.