Skip to main content

Topic: CUETools versions 1.9.5 through 2.1.5 (current) (Read 1325148 times) previous topic - next topic

0 Members and 2 Guests are viewing this topic.
CUETools versions 1.9.5 through 2.1.5 (current)
Reply #1425
the way the offset finding CRC is calculated is closer to the algorythm used in AR V1, right ? Saying that AR V1 is used to find offset is a kind of word abuse, cauz there is two AR V1 CRC  in fact (offset finding+verification).

Exactly. To be even more precise, CUETools is also able to detect offsets using the ARv1 verification CRCs, but only in case of match (so that's not the way those 'no match but offset' messages appear), and that's not the way AccurateRip was originally designed to work.

Concerning your displaying proposal, well I like it as long as all is accurate on both AR V1 & V2 as it would be shorter, but it doesn't seems suited to display when all is not perfect, cauz in these cases, I think you'll need additional text to explain clashes.

What additional text? In a certain sense, there can be no clashes. When you see something like this:
Code: [Select]
07 [b4f969a5] (4/10) Accurately ripped
ARv2:
07 [86ceab88] (0/10) No match but offset

, you have no way of knowing whether those remaining 6 CRCs in database are ARv1 or ARv2 CRCs.

So this would probably still be more readable:
Code: [Select]
07 [b4f969a5,86ceab88] (4,0/10) Accurately ripped

  • Last Edit: 19 June, 2011, 11:07:17 PM by Gregory S. Chudov
CUETools 2.1.4

  • sauvage78
  • [*][*][*][*][*]
CUETools versions 1.9.5 through 2.1.5 (current)
Reply #1426
I was more thinking of something like this:

Quote
07 [b4f969a5] (4/5) Accurately ripped
ARv2:
07 [86ceab88] (1/5) No match

Quote
07 [b4f969a5,86ceab88] (4,1/5) Accurately ripped

or worst:

Quote
07 [b4f969a5] (4/5) No match
ARv2:
07 [86ceab88] (1/5) Accurately ripped

Quote
07 [b4f969a5,86ceab88] (4,1/5) Houstoon, we've got a problem (Spoon lives in Houstoon)

I admit I never meet such clashes, but I don't want them to go un-noticed if ever it would happen. (I hope not...)

Edit: well this time I used /quote as colors didn't work with /code.
  • Last Edit: 19 June, 2011, 11:49:34 PM by sauvage78
Rip & Check: EAC Secure [Low/C2]+CUETools [AR Confidence 2+]
NAS (Backup): Flac -4 (for Speed) | CDImage+CUE with F2K
DAP (Playback): Opus 128Kbps | Tracks with F2KM on Android (LG G5)
Video: VP10 (2160p30@24Mbps/2160p60@48Mbps) Asap !!!

CUETools versions 1.9.5 through 2.1.5 (current)
Reply #1427
There's no such thing as (4/5) No match. No match means (0/5).
CUETools 2.1.4

  • sauvage78
  • [*][*][*][*][*]
CUETools versions 1.9.5 through 2.1.5 (current)
Reply #1428
Good point  still a single explanation would have to choice between accurate or not. So keeping both vertically is usefull IMHO. (unless you waste time coding which answer to say for each case). I think you get the idea even if I made misstake in my log. I'm trying to understand what an AR V1 vs AR V2 CRC clash would look like no matter who disagree with the other. As far as I understund using 0/x + No match when there is a clash you do as if all was ok, when the machine is maybe really broken. The clashes go almost invisible, buried in the total sum, no ?
  • Last Edit: 19 June, 2011, 11:47:28 PM by sauvage78
Rip & Check: EAC Secure [Low/C2]+CUETools [AR Confidence 2+]
NAS (Backup): Flac -4 (for Speed) | CDImage+CUE with F2K
DAP (Playback): Opus 128Kbps | Tracks with F2KM on Android (LG G5)
Video: VP10 (2160p30@24Mbps/2160p60@48Mbps) Asap !!!

CUETools versions 1.9.5 through 2.1.5 (current)
Reply #1429
I still don't understand what do you mean by clashes. The obvious definition would be that according to ARv1 rip is accurate, and according to ARv2 it is not (or vice versa). But the problem is, it cannot say with any confidence that rip is NOT accurate. This situation normally only means that this track was only ripped with ARv1 software (or vice versa), and that rip is really accurate.
CUETools 2.1.4

  • sauvage78
  • [*][*][*][*][*]
CUETools versions 1.9.5 through 2.1.5 (current)
Reply #1430
Warning: Anything below is maybe a complete pack of FUD bullshits.    sorry ...

Well my problem is not really to determine if wether this rip would be accurate or not, & who would be wrong or right between AR V1 & AR V2, but rather to know if AR V2 is broken or not. Cauz if an AR V1 "rip accurate" conclusion would disagree with an AR V2 "rip not accurate" conclusion, then we can always conclude that it is because AR V2 is stronger than AR V1 & that it does its job by catching errors that slip through AR V1. But if an AR V2 "rip accurate" conclusion would disagree with with an AR V1 "rip not accurate" conclusion, then AR V2 would maybe be broken. I am trying to understand how such a clash would appear in a CT log, if it would appear at all.

Sorry to be paranoid but if I trust AR V1 to be rock solid, AR V2 is still very new to me.

Quote
This situation normally only means that this track was only ripped with ARv1 software (or vice versa), and that rip is really accurate.


I am not sure that I understand this sentence because you seem to say that it is impossible that a pack of users could have reported a rip as accurate using AR V1 & at the same time another pack of users could have reported the same rip as not accurate using AR V2. Well maybe it is not possible if both AR V1 & AR V2 works as they should, but if AR V2 is broken maybe this is possible. So if ever this would happen (I hope not), I wish it could be displayed obviously. Using 0/x no match it seems it would never be displayed anyway even if AR V2 would be broken. Using a single conclusion for both AR V1 & V2 (like you suggested with the new display) would be saying amen to this fact.

Not that this really matter, maybe this is a non-issue... I just ask to try to clarify my self-made FUD.
  • Last Edit: 20 June, 2011, 01:02:11 AM by sauvage78
Rip & Check: EAC Secure [Low/C2]+CUETools [AR Confidence 2+]
NAS (Backup): Flac -4 (for Speed) | CDImage+CUE with F2K
DAP (Playback): Opus 128Kbps | Tracks with F2KM on Android (LG G5)
Video: VP10 (2160p30@24Mbps/2160p60@48Mbps) Asap !!!

  • greynol
  • [*][*][*][*][*]
  • Global Moderator
CUETools versions 1.9.5 through 2.1.5 (current)
Reply #1431
Not that this really matter, maybe this is a non-issue... I just ask to try to clarify my self-made FUD.

AR1 match but no AR2 match probably means that there is no AR2 submission for your pressing.
13 February 2016: The world was blessed with the passing of a truly vile and wretched person.

Your eyes cannot hear.

  • sauvage78
  • [*][*][*][*][*]
CUETools versions 1.9.5 through 2.1.5 (current)
Reply #1432
Just tried the CUETools V2.1.2a on rips with silent tracks, the bachtlog seems to report them correctly now, but it seems you still cannot fix offset automatically. I use fix to highest offset only if 100% tracks are AR(2). It would be nice if silents track would pass trougth this filter even if not AR(2).

Looking at my rips with silent tracks I found several [00000000] entries in AR that seems bad (orpheline noise entry for obviously silent tracks) & maybe need to be purged, it's likely a job for Spoon.

Tracks 20, 36 & 96 (Marilyn Manson - 1996 - Antichrist Superstar)

[code][CUETools log; Date: 20/06/2011 21:02:09; Version: 2.1.2a]
[CTDB TOCID: l17oSe_XYF25XW2hxythVk2ZNdk-] found.
       [ CTDBID ] Status
       [1fe01a4b] (1/1) Accurately ripped
[AccurateRip ID: 01c6a4f5-62ab4f93-2c122463] found.
Track  [ CRC    ] Status
 01    [4b23ce19] (096/405) Accurately ripped
 02    [fa92fa55] (094/406) Accurately ripped
 03    [bc5d380d] (096/413) Accurately ripped
 04    [f9998e90] (094/407) Accurately ripped
 05    [3374440d] (094/409) Accurately ripped
 06    [3d968825] (092/406) Accurately ripped
 07    [9ef2184d] (093/403) Accurately ripped
 08    [0da904b2] (093/404) Accurately ripped
 09    [4c72ce63] (091/402) Accurately ripped
 10    [31355e3d] (091/398) Accurately ripped
 11    [affd1d20] (094/402) Accurately ripped
 12    [8b14ba33] (092/400) Accurately ripped
 13    [5a296fb3] (091/396) Accurately ripped
 14    [94e8fc9e] (091/396) Accurately ripped
 15    [037d4910] (087/390) Accurately ripped
 16    [b00f0484] (091/385) Accurately ripped
 17    [409e21ca] (008/030) Accurately ripped
 18    [00000000] (000/000) Silent track
 19    [00000000] (000/000) Silent track
 20    [00000000] (000/001) No match
 21    [00000000] (000/000) Silent track
 22    [00000000] (000/000) Silent track
 23    [00000000] (000/000) Silent track
 24    [00000000] (000/000) Silent track
 25    [00000000] (000/000) Silent track
 26    [00000000] (000/000) Silent track
 27    [00000000] (000/000) Silent track
 28    [00000000] (000/000) Silent track
 29    [00000000] (000/000) Silent track
 30    [00000000] (000/000) Silent track
 31    [00000000] (000/000) Silent track
 32    [00000000] (000/000) Silent track
 33    [00000000] (000/000) Silent track
 34    [00000000] (000/000) Silent track
 35    [00000000] (000/000) Silent track
 36    [00000000] (000/001) No match
 37    [00000000] (000/000) Silent track
 38    [00000000] (000/000) Silent track
 39    [00000000] (000/000) Silent track
 40    [00000000] (000/000) Silent track
 41    [00000000] (000/000) Silent track
 42    [00000000] (000/000) Silent track
 43    [00000000] (000/000) Silent track
 44    [00000000] (000/000) Silent track
 45    [00000000] (000/000) Silent track
 46    [00000000] (000/000) Silent track
 47    [00000000] (000/000) Silent track
 48    [00000000] (000/000) Silent track
 49    [00000000] (000/000) Silent track
 50    [00000000] (000/000) Silent track
 51    [00000000] (000/000) Silent track
 52    [00000000] (000/000) Silent track
 53    [00000000] (000/000) Silent track
 54    [00000000] (000/000) Silent track
 55    [00000000] (000/000) Silent track
 56    [00000000] (000/000) Silent track
 57    [00000000] (000/000) Silent track
 58    [00000000] (000/000) Silent track
 59    [00000000] (000/000) Silent track
 60    [00000000] (000/000) Silent track
 61    [00000000] (000/000) Silent track
 62    [00000000] (000/000) Silent track
 63    [00000000] (000/000) Silent track
 64    [00000000] (000/000) Silent track
 65    [00000000] (000/000) Silent track
 66    [00000000] (000/000) Silent track
 67    [00000000] (000/000) Silent track
 68    [00000000] (000/000) Silent track
 69    [00000000] (000/000) Silent track
 70    [00000000] (000/000) Silent track
 71    [00000000] (000/000) Silent track
 72    [00000000] (000/000) Silent track
 73    [00000000] (000/000) Silent track
 74    [00000000] (000/000) Silent track
 75    [00000000] (000/000) Silent track
 76    [00000000] (000/000) Silent track
 77    [00000000] (000/000) Silent track
 78    [00000000] (000/000) Silent track
 79    [00000000] (000/000) Silent track
 80    [00000000] (000/000) Silent track
 81    [00000000] (000/000) Silent track
 82    [00000000] (000/000) Silent track
 83    [00000000] (000/000) Silent track
 84    [00000000] (000/000) Silent track
 85    [00000000] (000/000) Silent track
 86    [00000000] (000/000) Silent track
 87    [00000000] (000/000) Silent track
 88    [00000000] (000/000) Silent track
 89    [00000000] (000/000) Silent track
 90    [00000000] (000/000) Silent track
 91    [00000000] (000/000) Silent track
 92    [00000000] (000/000) Silent track
 93    [00000000] (000/000) Silent track
 94    [00000000] (000/000) Silent track
 95    [00000000] (000/000) Silent track
 96    [00000000] (000/001) No match
 97    [00000000] (000/000) Silent track
 98    [00000000] (000/000) Silent track
 99    [39bceae7] (086/349) Accurately ripped
AccurateRip v2:
 01    [035322b9] (013/405) Accurately ripped
 02    [0783effa] (012/406) Accurately ripped
 03    [f93c30e6] (013/413) Accurately ripped
 04    [b35dead3] (013/407) Accurately ripped
 05    [41ac57f1] (013/409) Accurately ripped
 06    [7a329800] (013/406) Accurately ripped
 07    [9bc8e5c1] (013/403) Accurately ripped
 08    [0e32b06d] (013/404) Accurately ripped
 09    [26100459] (013/402) Accurately ripped
 10    [7274c591] (013/398) Accurately ripped
 11    [92c4bfd9] (013/402) Accurately ripped
 12    [4abe424e] (013/400) Accurately ripped
 13    [3a3fd387] (013/396) Accurately ripped
 14    [e1d9b50c] (013/396) Accurately ripped
 15    [c400acc5] (013/390) Accurately ripped
 16    [c7779653] (013/385) Accurately ripped
 17    [4301fb7b] (002/030) Accurately ripped
 18    [00000000] (000/000) Silent track
 19    [00000000] (000/000) Silent track
 20    [00000000] (000/001) No match
 21    [00000000] (000/000) Silent track
 22    [00000000] (000/000) Silent track
 23    [00000000] (000/000) Silent track
 24    [00000000] (000/000) Silent track
 25    [00000000] (000/000) Silent track
 26    [00000000] (000/000) Silent track
 27    [00000000] (000/000) Silent track
 28    [00000000] (000/000) Silent track
 29    [00000000] (000/000) Silent track
 30    [00000000] (000/000) Silent track
 31    [00000000] (000/000) Silent track
 32    [00000000] (000/000) Silent track
 33    [00000000] (000/000) Silent track
 34    [00000000] (000/000) Silent track
 35    [00000000] (000/000) Silent track
 36    [00000000] (000/001) No match
 37    [00000000] (000/000) Silent track
 38    [00000000] (000/000) Silent track
 39    [00000000] (000/000) Silent track
 40    [00000000] (000/000) Silent track
 41    [00000000] (000/000) Silent track
 42    [00000000] (000/000) Silent track
 43    [00000000] (000/000) Silent track
 44    [00000000] (000/000) Silent track
 45    [00000000] (000/000) Silent track
 46    [00000000] (000/000) Silent track
 47    [00000000] (000/000) Silent track
 48    [00000000] (000/000) Silent track
 49    [00000000] (000/000) Silent track
 50    [00000000] (000/000) Silent track
 51    [00000000] (000/000) Silent track
 52    [00000000] (000/000) Silent track
 53    [00000000] (000/000) Silent track
 54    [00000000] (000/000) Silent track
 55    [00000000] (000/000) Silent track
 56    [00000000] (000/000) Silent track
 57    [00000000] (000/000) Silent track
 58    [00000000] (000/000) Silent track
 59    [00000000] (000/000) Silent track
 60    [00000000] (000/000) Silent track
 61    [00000000] (000/000) Silent track
 62    [00000000] (000/000) Silent track
 63    [00000000] (000/000) Silent track
 64    [00000000] (000/000) Silent track
 65    [00000000] (000/000) Silent track
 66    [00000000] (000/000) Silent track
 67    [00000000] (000/000) Silent track
 68    [00000000] (000/000) Silent track
 69    [00000000] (000/000) Silent track
 70    [00000000] (000/000) Silent track
 71    [00000000] (000/000) Silent track
 72    [00000000] (000/000) Silent track
 73    [00000000] (000/000) Silent track
 74    [00000000] (000/000) Silent track
 75    [00000000] (000/000) Silent track
 76    [00000000] (000/000) Silent track
 77    [00000000] (000/000) Silent track
 78    [00000000] (000/000) Silent track
 79    [00000000] (000/000) Silent track
 80    [00000000] (000/000) Silent track
 81    [00000000] (000/000) Silent track
 82    [00000000] (000/000) Silent track
 83    [00000000] (000/000) Silent track
 84    [00000000] (000/000) Silent track
 85    [00000000] (000/000) Silent track
 86    [00000000] (000/000) Silent track
 87    [00000000] (000/000) Silent track
 88    [00000000] (000/000) Silent track
 89    [00000000] (000/000) Silent track
 90    [00000000] (000/000) Silent track
 91    [00000000] (000/000) Silent track
 92    [00000000] (000/000) Silent track
 93    [00000000] (000/000) Silent track
 94    [00000000] (000/000) Silent track
 95    [00000000] (000/000) Silent track
 96    [00000000] (000/001) No match
 97    [00000000] (000/000) Silent track
 98    [00000000] (000/000) Silent track
 99    [73c31145] (012/349) Accurately ripped
Offsetted by -1992:
 01    [93bee790] (009/405) Accurately ripped
 02    [382a6ade] (010/406) Accurately ripped
 03    [db79d6cf] (010/413) Accurately ripped
 04    [fba7b773] (010/407) Accurately ripped
 05    [8764309a] (010/409) Accurately ripped
 06    [21f865f6] (010/406) Accurately ripped
 07    [ded2e896] (010/403) Accurately ripped
 08    [3e9837fa] (010/404) Accurately ripped
 09    [8c226b77] (010/402) Accurately ripped
 10    [c0e75c5a] (010/398) Accurately ripped
 11    [180c855b] (010/402) Accurately ripped
 12    [5eb53dab] (010/400) Accurately ripped
 13    [5a51ab4c] (010/396) Accurately ripped
 14    [22707ff5] (010/396) Accurately ripped
 15    [730531e6] (010/390) Accurately ripped
 16    [d6b61fad] (010/385) Accurately ripped
 17    [06583633] (000/030) No match
 18    [00000000] (000/000) Silent track
 19    [00000000] (000/000) Silent track
 20    [00000000] (000/001) No match
 21    [00000000] (000/000) Silent track
 22    [00000000] (000/000) Silent track
 23    [00000000] (000/000) Silent track
 24    [00000000] (000/000) Silent track
 25    [00000000] (000/000) Silent track
 26    [00000000] (000/000) Silent track
 27    [00000000] (000/000) Silent track
 28    [00000000] (000/000) Silent track
 29    [00000000] (000/000) Silent track
 30    [00000000] (000/000) Silent track
 31    [00000000] (000/000) Silent track
 32    [00000000] (000/000) Silent track
 33    [00000000] (000/000) Silent track
 34    [00000000] (000/000) Silent track
 35    [00000000] (000/000) Silent track
 36    [00000000] (000/001) No match
 37    [00000000] (000/000) Silent track
 38    [00000000] (000/000) Silent track
 39    [00000000] (000/000) Silent track
 40    [00000000] (000/000) Silent track
 41    [00000000] (000/000) Silent track
 42    [00000000] (000/000) Silent track
 43    [00000000] (000/000) Silent track
 44    [00000000] (000/000) Silent track
 45    [00000000] (000/000) Silent track
 46    [00000000] (000/000) Silent track
 47    [00000000] (000/000) Silent track
 48    [00000000] (000/000) Silent track
 49    [00000000] (000/000) Silent track
 50    [00000000] (000/000) Silent track
 51    [00000000] (000/000) Silent track
 52    [00000000] (000/000) Silent track
 53    [00000000] (000/000) Silent track
 54    [00000000] (000/000) Silent track
 55    [00000000] (000/000) Silent track
 56    [00000000] (000/000) Silent track
 57    [00000000] (000/000) Silent track
 58    [00000000] (000/000) Silent track
 59    [00000000] (000/000) Silent track
 60    [00000000] (000/000) Silent track
 61    [00000000] (000/000) Silent track
 62    [00000000] (000/000) Silent track
 63    [00000000] (000/000) Silent track
 64    [00000000] (000/000) Silent track
 65    [00000000] (000/000) Silent track
 66    [00000000] (000/000) Silent track
 67    [00000000] (000/000) Silent track
 68    [00000000] (000/000) Silent track
 69    [00000000] (000/000) Silent track
 70    [00000000] (000/000) Silent track
 71    [00000000] (000/000) Silent track
 72    [00000000] (000/000) Silent track
 73    [00000000] (000/000) Silent track
 74    [00000000] (000/000) Silent track
 75    [00000000] (000/000) Silent track
 76    [00000000] (000/000) Silent track
 77    [00000000] (000/000) Silent track
 78    [00000000] (000/000) Silent track
 79    [00000000] (000/000) Silent track
 80    [00000000] (000/000) Silent track
 81    [00000000] (000/000) Silent track
 82    [00000000] (000/000) Silent track
 83    [00000000] (000/000) Silent track
 84    [00000000] (000/000) Silent track
 85    [00000000] (000/000) Silent track
 86    [00000000] (000/000) Silent track
 87    [00000000] (000/000) Silent track
 88    [00000000] (000/000) Silent track
 89    [00000000] (000/000) Silent track
 90    [00000000] (000/000) Silent track
 91    [00000000] (000/000) Silent track
 92    [00000000] (000/000) Silent track
 93    [00000000] (000/000) Silent track
 94    [00000000] (000/000) Silent track
 95    [00000000] (000/000) Silent track
 96    [00000000] (000/001) No match
 97    [00000000] (000/000) Silent track
 98    [00000000] (000/000) Silent track
 99    [775ef473] (010/349) Accurately ripped
Offsetted by -1345:
 01    [32c0890a] (012/405) Accurately ripped
 02    [255c6072] (012/406) Accurately ripped
 03    [765b3aa2] (012/413) Accurately ripped
 04    [d8e622f2] (012/407) Accurately ripped
 05    [96f1a995] (012/409) Accurately ripped
 06    [f43a2bcf] (012/406) Accurately ripped
 07    [58ba3a5a] (012/403) Accurately ripped
 08    [a530d2e3] (012/404) Accurately ripped
 09    [f4d4c81b] (012/402) Accurately ripped
 10    [04cae13e] (012/398) Accurately ripped
 11    [b92d4c37] (012/402) Accurately ripped
 12    [ad1b2e23] (012/400) Accurately ripped
 13    [c8a4ab62] (012/396) Accurately ripped
 14    [f5e4633b] (012/396) Accurately ripped
 15    [4fc7c95b] (012/390) Accurately ripped
 16    [6885b061] (012/385) Accurately ripped
 17    [2186eff8] (000/030) No match
 18    [00000000] (000/000) Silent track
 19    [00000000] (000/000) Silent track
 20    [00000000] (000/001) No match
 21    [00000000] (000/000) Silent track
 22    [00000000] (000/000) Silent track
 23    [00000000] (000/000) Silent track
 24    [00000000] (000/000) Silent track
 25    [00000000] (000/000) Silent track
 26    [00000000] (000/000) Silent track
 27    [00000000] (000/000) Silent track
 28    [00000000] (000/000) Silent track
 29    [00000000] (000/000) Silent track
 30    [00000000] (000/000) Silent track
 31    [00000000] (000/000) Silent track
 32    [00000000] (000/000) Silent track
 33    [00000000] (000/000) Silent track
 34    [00000000] (000/000) Silent track
 35    [00000000] (000/000) Silent track
 36    [00000000] (000/001) No match
 37    [00000000] (000/000) Silent track
 38    [00000000] (000/000) Silent track
 39    [00000000] (000/000) Silent track
 40    [00000000] (000/000) Silent track
 41    [00000000] (000/000) Silent track
 42    [00000000] (000/000) Silent track
 43    [00000000] (000/000) Silent track
 44    [00000000] (000/000) Silent track
 45    [00000000] (000/000) Silent track
 46    [00000000] (000/000) Silent track
 47    [00000000] (000/000) Silent track
 48    [00000000] (000/000) Silent track
 49    [00000000] (000/000) Silent track
 50    [00000000] (000/000) Silent track
 51    [00000000] (000/000) Silent track
 52    [00000000] (000/000) Silent track
 53    [00000000] (000/000) Silent track
 54    [00000000] (000/000) Silent track
 55    [00000000] (000/000) Silent track
 56    [00000000] (000/000) Silent track
 57    [00000000] (000/000) Silent track
 58    [00000000] (000/000) Silent track
 59    [00000000] (000/000) Silent track
 60    [00000000] (000/000) Silent track
 61    [00000000] (000/000) Silent track
 62    [00000000] (000/000) Silent track
 63    [00000000] (000/000) Silent track
 64    [00000000] (000/000) Silent track
 65    [00000000] (000/000) Silent track
 66    [00000000] (000/000) Silent track
 67    [00000000] (000/000) Silent track
 68    [00000000] (000/000) Silent track
 69    [00000000] (000/000) Silent track
 70    [00000000] (000/000) Silent track
 71    [00000000] (000/000) Silent track
 72    [00000000] (000/000) Silent track
 73    [00000000] (000/000) Silent track
 74    [00000000] (000/000) Silent track
 75    [00000000] (000/000) Silent track
 76    [00000000] (000/000) Silent track
 77    [00000000] (000/000) Silent track
 78    [00000000] (000/000) Silent track
 79    [00000000] (000/000) Silent track
 80    [00000000] (000/000) Silent track
 81    [00000000] (000/000) Silent track
 82    [00000000] (000/000) Silent track
 83    [00000000] (000/000) Silent track
 84    [00000000] (000/000) Silent track
 85    [00000000] (000/000) Silent track
 86    [00000000] (000/000) Silent track
 87    [00000000] (000/000) Silent track
 88    [00000000] (000/000) Silent track
 89    [00000000] (000/000) Silent track
 90    [00000000] (000/000) Silent track
 91    [00000000] (000/000) Silent track
 92    [00000000] (000/000) Silent track
 93    [00000000] (000/000) Silent track
 94    [00000000] (000/000) Silent track
 95    [00000000] (000/000) Silent track
 96    [00000000] (000/001) No match
 97    [00000000] (000/000) Silent track
 98    [00000000] (000/000) Silent track
 99    [208c3fe9] (011/349) Accurately ripped
Offsetted by -1328:
 01    [f55ee0a9] (035/405) Accurately ripped
 02    [822374e5] (035/406) Accurately ripped
 03    [7eb5536f] (035/413) Accurately ripped
 04    [b0aff29f] (035/407) Accurately ripped
 05    [c391e6f8] (036/409) Accurately ripped
 06    [48162003] (035/406) Accurately ripped
 07    [940f5e9f] (035/403) Accurately ripped
 08    [d8f326e2] (035/404) Accurately ripped
 09    [27284532] (035/402) Accurately ripped
 10    [1e059214] (035/398) Accurately ripped
 11    [2ab9565f] (035/402) Accurately ripped
 12    [dea566c2] (035/400) Accurately ripped
 13    [19f804af] (035/396) Accurately ripped
 14    [bd9364c2] (035/396) Accurately ripped
 15    [fd699f25] (035/390) Accurately ripped
 16    [cdab79bf] (035/385) Accurately ripped
 17    [9adb8056] (002/030) Accurately ripped
 18    [00000000] (000/000) Silent track
 19    [00000000] (000/000) Silent track
 20    [00000000] (000/001) No match
 21    [00000000] (000/000) Silent track
 22    [00000000] (000/000) Silent track
 23    [00000000] (000/000) Silent track
 24    [00000000] (000/000) Silent track
 25    [00000000] (000/000) Silent track
 26    [00000000] (000/000) Silent track
 27    [00000000] (000/000) Silent track
 28    [00000000] (000/000) Silent track
 29    [00000000] (000/000) Silent track
 30    [00000000] (000/000) Silent track
 31    [00000000] (000/000) Silent track
 32    [00000000] (000/000) Silent track
 33    [00000000] (000/000) Silent track
 34    [00000000] (000/000) Silent track
 35    [00000000] (000/000) Silent track
 36    [00000000] (000/001) No match
 37    [00000000] (000/000) Silent track
 38    [00000000] (000/000) Silent track
 39    [00000000] (000/000) Silent track
 40    [00000000] (000/000) Silent track
 41    [00000000] (000/000) Silent track
 42    [00000000] (000/000) Silent track
 43    [00000000] (000/000) Silent track
 44    [00000000] (000/000) Silent track
 45    [00000000] (000/000) Silent track
 46    [00000000] (000/000) Silent track
 47    [00000000] (000/000) Silent track
 48    [00000000] (000/000) Silent track
 49    [00000000] (000/000) Silent track
 50    [00000000] (000/000) Silent track
 51    [00000000] (000/000) Silent track
 52    [00000000] (000/000) Silent track
 53    [00000000] (000/000) Silent track
 54    [00000000] (000/000) Silent track
 55    [00000000] (000/000) Silent track
 56    [00000000] (000/000) Silent track
 57    [00000000] (000/000) Silent track
 58    [00000000] (000/000) Silent track
 59    [00000000] (000/000) Silent track
 60    [00000000] (000/000) Silent track
 61    [00000000] (000/000) Silent track
 62    [00000000] (000/000) Silent track
 63    [00000000] (000/000) Silent track
 64    [00000000] (000/000) Silent track
 65    [00000000] (000/000) Silent track
 66    [00000000] (000/000) Silent track
 67    [00000000] (000/000) Silent track
 68    [00000000] (000/000) Silent track
 69    [00000000] (000/000) Silent track
 70    [00000000] (000/000) Silent track
 71    [00000000] (000/000) Silent track
 72    [00000000] (000/000) Silent track
 73    [00000000] (000/000) Silent track
 74    [00000000] (000/000) Silent track
 75    [00000000] (000/000) Silent track
 76    [00000000] (000/000) Silent track
 77    [00000000] (000/000) Silent track
 78    [00000000] (000/000) Silent track
 79    [00000000] (000/000) Silent track
 80    [00000000] (000/000) Silent track
 81    [00000000] (000/000) Silent track
 82    [00000000] (000/000) Silent track
 83    [00000000] (000/000) Silent track
 84    [00000000] (000/000) Silent track
 85    [00000000] (000/000) Silent track
 86    [00000000] (000/000) Silent track
 87    [00000000] (000/000) Silent track
 88    [00000000] (000/000) Silent track
 89    [00000000] (000/000) Silent track
 90    [00000000] (000/000) Silent track
 91    [00000000] (000/000) Silent track
 92    [00000000] (000/000) Silent track
 93    [00000000] (000/000) Silent track
 94    [00000000] (000/000) Silent track
 95    [00000000] (000/000) Silent track
 96    [00000000] (000/001) No match
 97    [00000000] (000/000) Silent track
 98    [00000000] (000/000) Silent track
 99    [2327326f] (030/349) Accurately ripped
Offsetted by -747:
 01    [692f161f] (003/405) Accurately ripped
 02    [4218ab29] (000/406) No match
 03    [c0035400] (000/413) No match
 04    [747baa57] (000/407) No match
 05    [3900408b] (000/409) No match
 06    [d088dc97] (000/406) No match
 07    [4dc24a0d] (000/403) No match
 08    [e002b7ed] (000/404) No match
 09    [2eed2694] (000/402) No match
 10    [88c14c8f] (000/398) No match
 11    [f98cdac7] (000/402) No match
 12    [ba577135] (000/400) No match
 13    [b280f684] (000/396) No match
 14    [b9f028f1] (000/396) No match
 15    [63334577] (000/390) No match
 16    [4d14febd] (000/385) No match
 17    [cf8429c8] (000/030) No match
 18    [00000000] (000/000) Silent track
 19    [00000000] (000/000) Silent track
 20    [00000000] (000/001) No match
 21    [00000000] (000/000) Silent track
 22    [00000000] (000/000) Silent track
 23    [00000000] (000/000) Silent track
 24    [00000000] (000/000) Silent track
 25    [00000000] (000/000) Silent track
 26    [00000000] (000/000) Silent track
 27    [00000000] (000/000) Silent track
 28    [00000000] (000/000) Silent track
 29    [00000000] (000/000) Silent track
 30    [00000000] (000/000) Silent track
 31    [00000000] (000/000) Silent track
 32    [00000000] (000/000) Silent track
 33    [00000000] (000/000) Silent track
 34    [00000000] (000/000) Silent track
 35    [00000000] (000/000) Silent track
 36    [00000000] (000/001) No match
 37    [00000000] (000/000) Silent track
 38    [00000000] (000/000) Silent track
 39    [00000000] (000/000) Silent track
 40    [00000000] (000/000) Silent track
 41    [00000000] (000/000) Silent track
 42    [00000000] (000/000) Silent track
 43    [00000000] (000/000) Silent track
 44    [00000000] (000/000) Silent track
 45    [00000000] (000/000) Silent track
 46    [00000000] (000/000) Silent track
 47    [00000000] (000/000) Silent track
 48    [00000000] (000/000) Silent track
 49    [00000000] (000/000) Silent track
 50    [00000000] (000/000) Silent track
 51    [00000000] (000/000) Silent track
 52    [00000000] (000/000) Silent track
 53    [00000000] (000/000) Silent track
 54    [00000000] (000/000) Silent track
 55    [00000000] (000/000) Silent track
 56    [00000000] (000/000) Silent track
 57    [00000000] (000/000) Silent track
 58    [00000000] (000/000) Silent track
 59    [00000000] (000/000) Silent track
 60    [00000000] (000/000) Silent track
 61    [00000000] (000/000) Silent track
 62    [00000000] (000/000) Silent track
 63    [00000000] (000/000) Silent track
 64    [00000000] (000/000) Silent track
 65    [00000000] (000/000) Silent track
 66    [00000000] (000/000) Silent track
 67    [00000000] (000/000) Silent track
 68    [00000000] (000/000) Silent track
 69    [00000000] (000/000) Silent track
 70    [00000000] (000/000) Silent track
 71    [00000000] (000/000) Silent track
 72    [00000000] (000/000) Silent track
 73    [00000000] (000/000) Silent track
 74    [00000000] (000/000) Silent track
 75    [00000000] (000/000) Silent track
 76    [00000000] (000/000) Silent track
 77    [00000000] (000/000) Silent track
 78    [00000000] (000/000) Silent track
 79    [00000000] (000/000) Silent track
 80    [00000000] (000/000) Silent track
 81    [00000000] (000/000) Silent track
 82    [00000000] (000/000) Silent track
 83    [00000000] (000/000) Silent track
 84    [00000000] (000/000) Silent track
 85    [00000000] (000/000) Silent track
 86    [00000000] (000/000) Silent track
 87    [00000000] (000/000) Silent track
 88    [00000000] (000/000) Silent track
 89    [00000000] (000/000) Silent track
 90    [00000000] (000/000) Silent track
 91    [00000000] (000/000) Silent track
 92    [00000000] (000/000) Silent track
 93    [00000000] (000/000) Silent track
 94    [00000000] (000/000) Silent track
 95    [00000000] (000/000) Silent track
 96    [00000000] (000/001) No match
 97    [00000000] (000/000) Silent track
 98    [00000000] (000/000) Silent track
 99    [513a0573] (000/349) No match
Offsetted by -681:
 01    [819f8dfa] (042/405) Accurately ripped
 02    [6df41e52] (044/406) Accurately ripped
 03    [17f41ef9] (044/413) Accurately ripped
 04    [5302b1f5] (043/407) Accurately ripped
 05    [03f671ec] (044/409) Accurately ripped
 06    [d02ae344] (044/406) Accurately ripped
 07    [2797ed48] (044/403) Accurately ripped
 08    [3f8bc1cb] (043/404) Accurately ripped
 09    [c286a974] (043/402) Accurately ripped
 10    [9f1a4382] (043/398) Accurately ripped
 11    [77c36958] (042/402) Accurately ripped
 12    [d802ded1] (043/400) Accurately ripped
 13    [bb808006] (041/396) Accurately ripped
 14    [fe53b4a7] (043/396) Accurately ripped
 15    [b79e2f61] (043/390) Accurately ripped
 16    [23b8519f] (043/385) Accurately ripped
 17    [8b268f50] (003/030) Accurately ripped
 18    [00000000] (000/000) Silent track
 19    [00000000] (000/000) Silent track
 20    [00000000] (000/001) No match
 21    [00000000] (000/000) Silent track
 22    [00000000] (000/000) Silent track
 23    [00000000] (000/000) Silent track
 24    [00000000] (000/000) Silent track
 25    [00000000] (000/000) Silent track
 26    [00000000] (000/000) Silent track
 27    [00000000] (000/000) Silent track
 28    [00000000] (000/000) Silent track
 29    [00000000] (000/000) Silent track
 30    [00000000] (000/000) Silent track
 31    [00000000] (000/000) Silent track
 32    [00000000] (000/000) Silent track
 33    [00000000] (000/000) Silent track
 34    [00000000] (000/000) Silent track
 35    [00000000] (000/000) Silent track
 36    [00000000] (000/001) No match
 37    [00000000] (000/000) Silent track
 38    [00000000] (000/000) Silent track
 39    [00000000] (000/000) Silent track
 40    [00000000] (000/000) Silent track
 41    [00000000] (000/000) Silent track
 42    [00000000] (000/000) Silent track
 43    [00000000] (000/000) Silent track
 44    [00000000] (000/000) Silent track
 45    [00000000] (000/000) Silent track
 46    [00000000] (000/000) Silent track
 47    [00000000] (000/000) Silent track
 48    [00000000] (000/000) Silent track
 49    [00000000] (000/000) Silent track
 50    [00000000] (000/000) Silent track
 51    [00000000] (000/000) Silent track
 52    [00000000] (000/000) Silent track
 53    [00000000] (000/000) Silent track
 54    [00000000] (000/000) Silent track
 55    [00000000] (000/000) Silent track
 56    [00000000] (000/000) Silent track
 57    [00000000] (000/000) Silent track
 58    [00000000] (000/000) Silent track
 59    [00000000] (000/000) Silent track
 60    [00000000] (000/000) Silent track
 61    [00000000] (000/000) Silent track
 62    [00000000] (000/000) Silent track
 63    [00000000] (000/000) Silent track
 64    [00000000] (000/000) Silent track
 65    [00000000] (000/000) Silent track
 66    [00000000] (000/000) Silent track
 67    [00000000] (000/000) Silent track
 68    [00000000] (000/000) Silent track
 69    [00000000] (000/000) Silent track
 70    [00000000] (000/000) Silent track
 71    [00000000] (000/000) Silent track
 72    [00000000] (000/000) Silent track
 73    [00000000] (000/000) Silent track
 74    [00000000] (000/000) Silent track
 75    [00000000] (000/000) Silent track
 76    [00000000] (000/000) Silent track
 77    [00000000] (000/000) Silent track
 78    [00000000] (000/000) Silent track
 79    [00000000] (000/000) Silent track
 80    [00000000] (000/000) Silent track
 81    [00000000] (000/000) Silent track
 82    [00000000] (000/000) Silent track
 83    [00000000] (000/000) Silent track
 84    [00000000] (000/000) Silent track
 85    [00000000] (000/000) Silent track
 86    [00000000] (000/000) Silent track
 87    [00000000] (000/000) Silent track
 88    [00000000] (000/000) Silent track
 89    [00000000] (000/000) Silent track
 90    [00000000] (000/000) Silent track
 91    [00000000] (000/000) Silent track
 92    [00000000] (000/000) Silent track
 93    [00000000] (000/000) Silent track
 94    [00000000] (000/000) Silent track
 95    [00000000] (000/000) Silent track
 96    [00000000] (000/001) No match
 97    [00000000] (000/000) Silent track
 98    [00000000] (000/000) Silent track
 99    [9deef9a5] (036/349) Accurately ripped
Offsetted by -664:
 01    [9a0bf154] (021/405) Accurately ripped
 02    [6b04050a] (021/406) Accurately ripped
 03    [36388002] (021/413) Accurately ripped
 04    [38f786c4] (021/407) Accurately ripped
 05    [19001e28] (021/409) Accurately ripped
 06    [21cd9f2d] (021/406) Accurately ripped
 07    [ababe751] (021/403) Accurately ripped
 08    [734e15ca] (021/404) Accurately ripped
 09    [733e868d] (021/402) Accurately ripped
 10    [5f487a6d] (021/398) Accurately ripped
 11    [9f1bbb02] (021/402) Accurately ripped
 12    [e0c94f5b] (021/400) Accurately ripped
 13    [e3e4b951] (021/396) Accurately ripped
 14    [68a6faf0] (021/396) Accurately ripped
 15    [f63bfc7b] (021/390) Accurately ripped
 16    [58f546c0] (020/385) Accurately ripped
 17    [9c7b209f] (000/030) No match
 18    [00000000] (000/000) Silent track
 19    [00000000] (000/000) Silent track
 20    [00000000] (000/001) No match
 21    [00000000] (000/000) Silent track
 22    [00000000] (000/000) Silent track
 23    [00000000] (000/000) Silent track
 24    [00000000] (000/000) Silent track
 25    [00000000] (000/000) Silent track
 26    [00000000] (000/000) Silent track
 27    [00000000] (000/000) Silent track
 28    [00000000] (000/000) Silent track
 29    [00000000] (000/000) Silent track
 30    [00000000] (000/000) Silent track
 31    [00000000] (000/000) Silent track
 32    [00000000] (000/000) Silent track
 33    [00000000] (000/000) Silent track
 34    [00000000] (000/000) Silent track
 35    [00000000] (000/000) Silent track
 36    [00000000] (000/001) No match
 37    [00000000] (000/000) Silent track
 38    [00000000] (000/000) Silent track
 39    [00000000] (000/000) Silent track
 40    [00000000] (000/000) Silent track
 41    [00000000] (000/000) Silent track
 42    [00000000] (000/000) Silent track
 43    [00000000] (000/000) Silent track
 44    [00000000] (000/000) Silent track
 45    [00000000] (000/000) Silent track
 46    [00000000] (000/000) Silent track
 47    [00000000] (000/000) Silent track
 48    [00000000] (000/000) Silent track
 49    [00000000] (000/000) Silent track
 50    [00000000] (000/000) Silent track
 51    [00000000] (000/000) Silent track
 52    [00000000] (000/000) Silent track
 53    [00000000] (000/000) Silent track
 54    [00000000] (000/000) Silent track
 55    [00000000] (000/000) Silent track
 56    [00000000] (000/000) Silent track
 57    [00000000] (000/000) Silent track
 58    [00000000] (000/000) Silent track
 59    [00000000] (000/000) Silent track
 60    [00000000] (000/000) Silent track
 61    [00000000] (000/000) Silent track
 62    [00000000] (000/000) Silent track
 63    [00000000] (000/000) Silent track
 64    [00000000] (000/000) Silent track
 65    [00000000] (000/000) Silent track
 66    [00000000] (000/000) Silent track
 67    [00000000] (000/000) Silent track
 68    [00000000] (000/000) Silent track
 69    [00000000] (000/000) Silent track
 70    [00000000] (000/000) Silent track
 71    [00000000] (000/000) Silent track
 72    [00000000] (000/000) Silent track
 73    [00000000] (000/000) Silent track
 74    [00000000] (000/000) Silent track
 75    [00000000] (000/000) Silent track
 76    [00000000] (000/000) Silent track
 77    [00000000] (000/000) Silent track
 78    [00000000] (000/000) Silent track
 79    [00000000] (000/000) Silent track
 80    [00000000] (000/000) Silent track
 81    [00000000] (000/000) Silent track
 82    [00000000] (000/000) Silent track
 83    [00000000] (000/000) Silent track
 84    [00000000] (000/000) Silent track
 85    [00000000] (000/000) Silent track
 86    [00000000] (000/000) Silent track
 87    [00000000] (000/000) Silent track
 88    [00000000] (000/000) Silent track
 89    [00000000] (000/000) Silent track
 90    [00000000] (000/000) Silent track
 91    [00000000] (000/000) Silent track
 92    [00000000] (000/000) Silent track
 93    [00000000] (000/000) Silent track
 94    [00000000] (000/000) Silent track
 95    [00000000] (000/000) Silent track
 96    [00000000] (000/001) No match
 97    [00000000] (000/000) Silent track
 98    [00000000] (000/000) Silent track
 99    [f122cac5] (016/349) Accurately ripped
Offsetted by -550:
 01    [17e1180f] (000/405) No match but offset
 02    [e3817643] (002/406) Accurately ripped
 03    [8eb54225] (002/413) Accurately ripped
 04    [ce907a5a] (002/407) Accurately ripped
 05    [f5745ae5] (002/409) Accurately ripped
 06    [591ac776] (002/406) Accurately ripped
 07    [5485942e] (002/403) Accurately ripped
 08    [46ddb278] (002/404) Accurately ripped
 09    [3f01f0ad] (002/402) Accurately ripped
 10    [7cf7992f] (000/398) No match but offset
 11    [b7ab0e17] (002/402) Accurately ripped
 12    [bb19cbb8] (002/400) Accurately ripped
 13    [f088df35] (002/396) Accurately ripped
 14    [f7852014] (002/396) Accurately ripped
 15    [40e59ca5] (002/390) Accurately ripped
 16    [46422b63] (000/385) No match but offset
 17    [ea1a3742] (000/030) No match
 18    [00000000] (000/000) Silent track
 19    [00000000] (000/000) Silent track
 20    [00000000] (000/001) No match
 21    [00000000] (000/000) Silent track
 22    [00000000] (000/000) Silent track
 23    [00000000] (000/000) Silent track
 24    [00000000] (000/000) Silent track
 25    [00000000] (000/000) Silent track
 26    [00000000] (000/000) Silent track
 27    [00000000] (000/000) Silent track
 28    [00000000] (000/000) Silent track
 29    [00000000] (000/000) Silent track
 30    [00000000] (000/000) Silent track
 31    [00000000] (000/000) Silent track
 32    [00000000] (000/000) Silent track
 33    [00000000] (000/000) Silent track
 34    [00000000] (000/000) Silent track
 35    [00000000] (000/000) Silent track
 36    [00000000] (000/001) No match
 37    [00000000] (000/000) Silent track
 38    [00000000] (000/000) Silent track
 39    [00000000] (000/000) Silent track
 40    [00000000] (000/000) Silent track
 41    [00000000] (000/000) Silent track
 42    [00000000] (000/000) Silent track
 43    [00000000] (000/000) Silent track
 44    [00000000] (000/000) Silent track
 45    [00000000] (000/000) Silent track
 46    [00000000] (000/000) Silent track
 47    [00000000] (000/000) Silent track
 48    [00000000] (000/000) Silent track
 49    [00000000] (000/000) Silent track
 50    [00000000] (000/000) Silent track
 51    [00000000] (000/000) Silent track
 52    [00000000] (000/000) Silent track
 53    [00000000] (000/000) Silent track
 54    [00000000] (000/000) Silent track
 55    [00000000] (000/000) Silent track
 56    [00000000] (000/000) Silent track
 57    [00000000] (000/000) Silent track
 58    [00000000] (000/000) Silent track
 59    [00000000] (000/000) Silent track
 60    [00000000] (000/000) Silent track
 61    [00000000] (000/000) Silent track
 62    [00000000] (000/000) Silent track
 63    [00000000] (000/000) Silent track
 64    [00000000] (000/000) Silent track
 65    [00000000] (000/000) Silent track
 66    [00000000] (000/000) Silent track
 67    [00000000] (000/000) Silent track
 68    [00000000] (000/000) Silent track
 69    [00000000] (000/000) Silent track
 70    [00000000] (000/000) Silent track
 71    [00000000] (000/000) Silent track
 72    [00000000] (000/000) Silent track
 73    [00000000] (000/000) Silent track
 74    [00000000] (000/000) Silent track
 75    [00000000] (000/000) Silent track
 76    [00000000] (000/000) Silent track
 77    [00000000] (000/000) Silent track
 78    [00000000] (000/000) Silent track
 79    [00000000] (000/000) Silent track
 80    [00000000] (000/000) Silent track
 81    [00000000] (000/000) Silent track
 82    [00000000] (000/000) Silent track
 83    [00000000] (000/000) Silent track
 84    [00000000] (000/000) Silent track
 85    [00000000] (000/000) Silent track
 86    [00000000] (000/000) Silent track
 87    [00000000] (000/000) Silent track
 88    [00000000] (000/000) Silent track
 89    [00000000] (000/000) Silent track
 90    [00000000] (000/000) Silent track
 91    [00000000] (000/000) Silent track
 92    [00000000] (000/000) Silent track
 93    [00000000] (000/000) Silent track
 94    [00000000] (000/000) Silent track
 95    [00000000] (000/000) Silent track
 96    [00000000] (000/001) No match
 97    [00000000] (000/000) Silent track
 98    [00000000] (000/000) Silent track
 99    [f134d2b4] (000/349) No match but offset
Offsetted by 6:
 01    [c495b36a] (000/405) No match
 02    [1edc0270] (000/406) No match
 03    [32cb1d3b] (000/413) No match
 04    [b56d056f] (000/407) No match
 05    [f48c59d3] (000/409) No match
 06    [b99080d4] (000/406) No match
 07    [29c04d7f] (000/403) No match
 08    [5c29d70c] (000/404) No match
 09    [428ff790] (000/402) No match
 10    [c4ff2a83] (000/398) No match
 11    [de41076a] (000/402) No match
 12    [c295310e] (000/400) No match
 13    [d758a425] (000/396) No match
 14    [32c7c114] (000/396) No match
 15    [01577c27] (000/390) No match
 16    [d9e8237d] (002/385) Accurately ripped
 17    [3ec14ac2] (000/030) No match
 18    [00000000] (000/000) Silent track
 19    [00000000] (000/000) Silent track
 20    [00000000] (000/001) No match
 21    [00000000] (000/000) Silent track
 22    [00000000] (000/000) Silent track
 23    [00000000] (000/000) Silent track
 24    [00000000] (000/000) Silent track
 25    [00000000] (000/000) Silent track
 26    [00000000] (000/000) Silent track
 27    [00000000] (000/000) Silent track
 28    [00000000] (000/000) Silent track
 29    [00000000] (000/000) Silent track
 30    [00000000] (000/000) Silent track
 31    [00000000] (000/000) Silent track
 32    [00000000] (000/000) Silent track
 33    [00000000] (000/000) Silent track
 34    [00000000] (000/000) Silent track
 35    [00000000] (000/000) Silent track
 36    [00000000] (000/001) No match
 37    [00000000] (000/000) Silent track
 38    [00000000] (000/000) Silent track
 39    [00000000] (000/000) Silent track
 40    [00000000] (000/000) Silent track
 41    [00000000] (000/000) Silent track
 42    [00000000] (000/000) Silent track
 43    [00000000] (000/000) Silent track
 44    [00000000] (000/000) Silent track
 45    [00000000] (000/000) Silent track
 46    [00000000] (000/000) Silent track
 47    [00000000] (000/000) Silent track
 48    [00000000] (000/000) Silent track
 49    [00000000] (000/000) Silent track
 50    [00000000] (000/000) Silent track
 51    [00000000] (000/000) Silent track
 52    [00000000] (000/000) Silent track
 53    [00000000] (000/000) Silent track
 54    [00000000] (000/000) Silent track
 55    [00000000] (000/000) Silent track
 56    [00000000] (000/000) Silent track
 57    [00000000] (000/000) Silent track
 58    [00000000] (000/000) Silent track
 59    [00000000] (000/000) Silent track
 60    [00000000] (000/000) Silent track
 61    [00000000] (000/000) Silent track
 62    [00000000] (000/000) Silent track
 63    [00000000] (000/000) Silent track
 64    [00000000] (000/000) Silent track
 65    [00000000] (000/000) Silent track
 66    [00000000] (000/000) Silent track
 67    [00000000] (000/000) Silent track
 68    [00000000] (000/000) Silent track
 69    [00000000] (000/000) Silent track
 70    [00000000] (000/000) Silent track
 71    [00000000] (000/000) Silent track
 72    [00000000] (000/000) Silent track
 73    [00000000] (000/000) Silent track
 74    [00000000] (000/000) Silent track
 75    [00000000] (000/000) Silent track
 76    [00000000] (000/000) Silent track
 77    [00000000] (000/000) Silent track
 78    [00000000] (000/000) Silent track
 79    [00000000] (000/000) Silent track
 80    [00000000] (000/000) Silent track
 81    [00000000] (000/000) Silent track
 82    [00000000] (000/000) Silent track
 83    [00000000] (000/000) Silent track
 84    [00000000] (000/000) Silent track
 85    [00000000] (000/000) Silent track
 86    [00000000] (000/000) Silent track
 87    [00000000] (000/000) Silent track
 88    [00000000] (000/000) Silent track
 89    [00000000] (000/000) Silent track
 90    [00000000] (000/000) Silent track
 91    [00000000] (000/000) Silent track
 92    [00000000] (000/000) Silent track
 93    [00000000] (000/000) Silent track
 94    [00000000] (000/000) Silent track
 95    [00000000] (000/000) Silent track
 96    [00000000] (000/001) No match
 97    [00000000] (000/000) Silent track
 98    [00000000] (000/000) Silent track
 99    [994dd02f] (000/349) No match
Offsetted by 760:
 01    [8beb03eb] (000/405) No match but offset
 02    [ed446133] (008/406) Accurately ripped
 03    [3260126e] (008/413) Accurately ripped
 04    [c40ec9a6] (008/407) Accurately ripped
 05    [451739ed] (008/409) Accurately ripped
 06    [2bdea9dc] (008/406) Accurately ripped
 07    [fb2801c3] (008/403) Accurately ripped
 08    [9011193a] (008/404) Accurately ripped
 09    [439a7be3] (008/402) Accurately ripped
 10    [39daa826] (008/398) Accurately ripped
 11    [490d6594] (008/402) Accurately ripped
 12    [7978cdc2] (007/400) Accurately ripped
 13    [26c39089] (008/396) Accurately ripped
 14    [f548e9f8] (008/396) Accurately ripped
 15    [4a96d80f] (007/390) Accurately ripped
 16    [4e09c7bd] (000/385) No match but offset
 17    [fbcaa9b6] (000/030) No match
 18    [00000000] (000/000) Silent track
 19    [00000000] (000/000) Silent track
 20    [00000000] (000/001) No match
 21    [00000000] (000/000) Silent track
 22    [00000000] (000/000) Silent track
 23    [00000000] (000/000) Silent track
 24    [00000000] (000/000) Silent track
 25    [00000000] (000/000) Silent track
 26    [00000000] (000/000) Silent track
 27    [00000000] (000/000) Silent track
 28    [00000000] (000/000) Silent track
 29    [00000000] (000/000) Silent track
 30    [00000000] (000/000) Silent track
 31    [00000000] (000/000) Silent track
 32    [00000000] (000/000) Silent track
 33    [00000000] (000/000) Silent track
 34    [00000000] (000/000) Silent track
 35    [00000000] (000/000) Silent track
 36    [00000000] (000/001) No match
 37    [00000000] (000/000) Silent track
 38    [00000000] (000/000) Silent track
 39    [00000000] (000/000) Silent track
 40    [00000000] (000/000) Silent track
 41    [00000000] (000/000) Silent track
 42    [00000000] (000/000) Silent track
 43    [00000000] (000/000) Silent track
 44    [00000000] (000/000) Silent track
 45    [00000000] (000/000) Silent track
 46    [00000000] (000/000) Silent track
 47    [00000000] (000/000) Silent track
 48    [00000000] (000/000) Silent track
 49    [00000000] (000/000) Silent track
 50    [00000000] (000/000) Silent track
 51    [00000000] (000/000) Silent track
 52    [00000000] (000/000) Silent track
 53    [00000000] (000/000) Silent track
 54    [00000000] (000/000) Silent track
 55    [00000000] (000/000) Silent track
 56    [00000000] (000/000) Silent track
 57    [00000000] (000/000) Silent track
 58    [00000000] (000/000) Silent track
 59    [00000000] (000/000) Silent track
 60    [00000000] (000/000) Silent track
 61    [00000000] (000/000) Silent track
 62    [00000000] (000/000) Silent track
 63    [00000000] (000/000) Silent track
 64    [00000000] (000/000) Silent track
 65    [00000000] (000/000) Silent track
 66    [00000000] (000/000) Silent track
 67    [00000000] (000/000) Silent track
 68    [00000000] (000/000) Silent track
 69    [00000000] (000/000) Silent track
 70    [00000000] (000/000) Silent track
 71    [00000000] (000/000) Silent track
 72    [00000000] (000/000) Silent track
 73    [00000000] (000/000) Silent track
 74    [00000000] (000/000) Silent track
 75    [00000000] (000/000) Silent track
 76    [00000000] (000/000) Silent track
 77    [00000000] (000/000) Silent track
 78    [00000000] (000/000) Silent track
 79    [00000000] (000/000) Silent track
 80    [00000000] (000/000) Silent track
 81    [00000000] (000/000) Silent track
 82    [00000000] (000/000) Silent track
 83    [00000000] (000/000) Silent track
 84    [00000000] (000/000) Silent track
 85    [00000000] (000/000) Silent track
 86    [00000000] (000/000) Silent track
 87    [00000000] (000/000) Silent track
 88    [00000000] (000/000) Silent track
 89    [00000000] (000/000) Silent track
 90    [00000000] (000/000) Silent track
 91    [00000000] (000/000) Silent track
 92    [00000000] (000/000) Silent track
 93    [00000000] (000/000) Silent track
 94    [00000000] (000/000) Silent track
 95    [00000000] (000/000) Silent track
 96    [00000000] (000/001) No match
 97    [00000000] (000/000) Silent track
 98    [00000000] (000/000) Silent track
 99    [625e921e] (000/349) No match but offset
Offsetted by 872:
 01    [dd639869] (021/405) Accurately ripped
 02    [3f31f6d5] (022/406) Accurately ripped
 03    [b3d7b32b] (021/413) Accurately ripped
 04    [dd915cfe] (021/407) Accurately ripped
 05    [990b68d3] (021/409) Accurately ripped
 06    [a02d3c56] (021/406) Accurately ripped
 07    [cfd60456] (022/403) Accurately ripped
 08    [f4206fca] (021/404) Accurately ripped
 09    [da84947b] (022/402) Accurately ripped
 10    [c3348744] (021/398) Accurately ripped
 11    [011f075e] (020/402) Accurately ripped
 12    [8db0c3ae] (021/400) Accurately ripped
 13    [41a9f043] (021/396) Accurately ripped
 14    [f47f871e] (021/396) Accurately ripped
 15    [6ebdf21a] (021/390) Accurately ripped
 16    [3ddb6353] (019/385) Accurately ripped
 17    [2e0ec70d] (002/030) Accurately ripped
 18    [00000000] (000/000) Silent track
 19    [00000000] (000/000) Silent track
 20    [00000000] (000/001) No match
 21    [00000000] (000/000) Silent track
 22    [00000000] (000/000) Silent track
 23    [00000000] (000/000) Silent track
 24    [00000000] (000/000) Silent track
 25    [00000000] (000/000) Silent track
 26    [00000000] (000/000) Silent track
 27    [00000000] (000/000) Silent track
 28    [00000000] (000/000) Silent track
 29    [00000000] (000/000) Silent track
 30    [00000000] (000/000) Silent track
 31    [00000000] (000/000) Silent track
 32    [00000000] (000/000) Silent track
 33    [00000000] (000/000) Silent track
 34    [00000000] (000/000) Silent track
 35    [00000000] (000/000) Silent track
 36    [00000000] (000/001) No match
 37    [00000000] (000/000) Silent track
 38    [00000000] (000/000) Silent track
 39    [00000000] (000/000) Silent track
 40    [00000000] (000/000) Silent track
 41    [00000000] (000/000) Silent track
 42    [00000000] (000/000) Silent track
 43    [00000000] (000/000) Silent track
 44    [00000000] (000/000) Silent track
 45    [00000000] (000/000) Silent track
 46    [00000000] (000/000) Silent track
 47    [00000000] (000/000) Silent track
 48    [00000000] (000/000) Silent track
 49    [00000000] (000/000) Silent track
 50    [00000000] (000/000) Silent track
 51    [00000000] (000/000) Silent track
 52    [00000000] (000/000) Silent track
 53    [00000000] (000/000) Silent track
 54    [00000000] (000/000) Silent track
 55    [00000000] (000/000) Silent track
 56    [00000000] (000/000) Silent track
 57    [00000000] (000/000) Silent track
 58    [00000000] (000/000) Silent track
 59    [00000000] (000/000) Silent track
 60    [00000000] (000/000) Silent track
 61    [00000000] (000/000) Silent track
 62    [00000000] (000/000) Silent track
 63    [00000000] (000/000) Silent track
 64    [00000000] (000/000) Silent track
 65    [00000000] (000/000) Silent track
 66    [00000000] (000/000) Silent track
 67    [00000000] (000/000) Silent track
 68    [00000000] (000/000) Silent track
 69    [00000000] (000/000) Silent track
 70    [00000000] (000/000) Silent track
 71    [00000000] (000/000) Silent track
 72    [00000000] (000/000) Silent track
 73    [00000000] (000/000) Silent track
 74    [00000000] (000/000) Silent track
 75    [00000000] (000/000) Silent track
 76    [00000000] (000/000) Silent track
 77    [00000000] (000/000) Silent track
 78    [00000000] (000/000) Silent track
 79    [00000000] (000/000) Silent track
 80    [00000000] (000/000) Silent track
 81    [00000000] (000/000) Silent track
 82    [00000000] (000/000) Silent track
 83    [00000000] (000/000) Silent track
 84    [00000000] (000/000) Silent track
 85    [00000000] (000/000) Silent track
 86    [00000000] (000/000) Silent track
 87    [00000000] (000/000) Silent track
 88    [00000000] (000/000) Silent track
 89    [00000000] (000/000) Silent track
 90    [00000000] (000/000) Silent track
 91    [00000000] (000/000) Silent track
 92    [00000000] (000/000) Silent track
 93    [00000000] (000/000) Silent track
 94    [00000000] (000/000) Silent track
 95    [00000000] (000/000) Silent track
 96    [00000000] (000/001) No match
 97    [00000000] (000/000) Silent track
 98    [00000000] (000/000) Silent track
 99    [7bf9ddc2] (017/349) Accurately ripped
Offsetted by 1427:
 01    [1fbb47f9] (000/405) No match but offset
 02    [0b6f9d2b] (008/406) Accurately ripped
 03    [eb8c0bba] (008/413) Accurately ripped
 04    [353f656f] (008/407) Accurately ripped
 05    [f251f9b0] (008/409) Accurately ripped
 06    [6f73d04e] (007/406) Accurately ripped
 07    [a5c9d2b7] (008/403) Accurately ripped
 08    [51ac714f] (008/404) Accurately ripped
 09    [2531f314] (008/402) Accurately ripped
 10    [951e7c9e] (008/398) Accurately ripped
 11    [5822f128] (008/402) Accurately ripped
 12    [5c492651] (008/400) Accurately ripped
 13    [7771265a] (008/396) Accurately ripped
 14    [48394fe3] (008/396) Accurately ripped
 15    [46828872] (007/390) Accurately ripped
 16    [71345b93] (000/385) No match but offset
 17    [fced92bf] (000/030) No match
 18    [00000000] (000/000) Silent track
 19    [00000000] (000/000) Silent track
 20    [00000000] (000/001) No match
 21    [00000000] (000/000) Silent track
 22    [00000000] (000/000) Silent track
 23    [00000000] (000/000) Silent track
 24    [00000000] (000/000) Silent track
 25    [00000000] (000/000) Silent track
 26    [00000000] (000/000) Silent track
 27    [00000000] (000/000) Silent track
 28    [00000000] (000/000) Silent track
 29    [00000000] (000/000) Silent track
 30    [00000000] (000/000) Silent track
 31    [00000000] (000/000) Silent track
 32    [00000000] (000/000) Silent track
 33    [00000000] (000/000) Silent track
 34    [00000000] (000/000) Silent track
 35    [00000000] (000/000) Silent track
 36    [00000000] (000/001) No match
 37    [00000000] (000/000) Silent track
 38    [00000000] (000/000) Silent track
 39    [00000000] (000/000) Silent track
 40    [00000000] (000/000) Silent track
 41    [00000000] (000/000) Silent track
 42    [00000000] (000/000) Silent track
 43    [00000000] (000/000) Silent track
 44    [00000000] (000/000) Silent track
 45    [00000000] (000/000) Silent track
 46    [00000000] (000/000) Silent track
 47    [00000000] (000/000) Silent track
 48    [00000000] (000/000) Silent track
 49    [00000000] (000/000) Silent track
 50    [00000000] (000/000) Silent track
 51    [00000000] (000/000) Silent track
 52    [00000000] (000/000) Silent track
 53    [00000000] (000/000) Silent track
 54    [00000000] (000/000) Silent track
 55    [00000000] (000/000) Silent track
 56    [00000000] (000/000) Silent track
 57    [00000000] (000/000) Silent track
 58    [00000000] (000/000) Silent track
 59    [00000000] (000/000) Silent track
 60    [00000000] (000/000) Silent track
 61    [00000000] (000/000) Silent track
 62    [00000000] (000/000) Silent track
 63    [00000000] (000/000) Silent track
 64    [00000000] (000/000) Silent track
 65    [00000000] (000/000) Silent track
 66    [00000000] (000/000) Silent track
 67    [00000000] (000/000) Silent track
 68    [00000000] (000/000) Silent track
 69    [00000000] (000/000) Silent track
 70    [00000000] (000/000) Silent track
 71    [00000000] (000/000) Silent track
 72    [00000000] (000/000) Silent track
 73    [00000000] (000/000) Silent track
 74    [00000000] (000/000) Silent track
 75    [00000000] (000/000) Silent track
 76    [00000000] (000/000) Silent track
 77    [00000000] (000/000) Silent track
 78    [00000000] (000/000) Silent track
 79    [00000000] (000/000) Silent track
 80    [00000000] (000/000) Silent track
 81    [00000000] (000/000) Silent track
 82    [00000000] (000/000) Silent track
 83    [00000000] (000/000) Silent track
 84    [00000000] (000/000) Silent track
 85    [00000000] (000/000) Silent track
 86    [00000000] (000/000) Silent track
 87    [00000000] (000/000) Silent track
 88    [00000000] (000/000) Silent track
 89    [00000000] (000/000) Silent track
 90    [00000000] (000/000) Silent track
 91    [00000000] (000/000) Silent track
 92    [00000000] (000/000) Silent track
 93    [00000000] (000/000) Silent track
 94    [00000000] (000/000) Silent track
 95    [00000000] (000/000) Silent track
 96    [00000000] (000/001) No match
 97    [00000000] (000/000) Silent track
 98    [00000000] (000/000) Silent track
 99    [bac2a86f] (000/349) No match but offset
Offsetted by 2015:
 01    [f3492269] (000/405) No match but offset
 02    [80c531d3] (002/406) Accurately ripped
 03    [54f027e8] (002/413) Accurately ripped
 04    [edc695ec] (002/407) Accurately ripped
 05    [bb2ee106] (002/409) Accurately ripped
 06    [5930e438] (002/406) Accurately ripped
 07    [828d0f5c] (002/403) Accurately ripped
 08    [5efcf7c3] (002/404) Accurately ripped
 09    [1406df21] (002/402) Accurately ripped
 10    [aa50cc96] (002/398) Accurately ripped
 11    [6e95529e] (002/402) Accurately ripped
 12    [f6bf153e] (002/400) Accurately ripped
 13    [8482d80b] (002/396) Accurately ripped
 14    [fd9126a2] (002/396) Accurately ripped
 15    [5fb4d835] (002/390) Accurately ripped
 16    [6a386099] (000/385) No match but offset
 17    [7ae3f8d2] (000/030) No match
 18    [00000000] (000/000) Silent track
 19    [00000000] (000/000) Silent track
 20    [00000000] (000/001) No match
 21    [00000000] (000/000) Silent track
 22    [00000000] (000/000) Silent track
 23    [00000000] (000/000) Silent track
 24    [00000000] (000/000) Silent track
 25    [00000000] (000/000) Silent track
 26    [00000000] (000/000) Silent track
 27    [00000000] (000/000) Silent track
 28    [00000000] (000/000) Silent track
 29    [00000000] (000/000) Silent track
 30    [00000000] (000/000) Silent track
 31    [00000000] (000/000) Silent track
 32    [00000000] (000/000) Silent track
 33    [00000000] (000/000) Silent track
 34    [00000000] (000/000) Silent track
 35    [00000000] (000/000) Silent track
 36    [00000000] (000/001) No match
 37    [00000000] (000/000) Silent track
 38    [00000000] (000/000) Silent track
 39    [00000000] (000/000) Silent track
 40    [00000000] (000/000) Silent track
 41    [00000000] (000/000) Silent track
 42    [00000000] (000/000) Silent track
 43    [00000000] (000/000) Silent track
 44    [00000000] (000/000) Silent track
 45    [00000000] (000/000) Silent track
 46    [00000000] (000/000) Silent track
 47    [00000000] (000/000) Silent track
 48    [00000000] (000/000) Silent track
 49    [00000000] (000/000) Silent track
 50    [00000000] (000/000) Silent track
 51    [00000000] (000/000) Silent track
 52    [00000000] (000/000) Silent track
 53    [00000000] (000/000) Silent track
 54    [00000000] (000/000) Silent track
 55    [00000000] (000/000) Silent track
 56    [00000000] (000/000) Silent track
 57    [00000000] (000/000) Silent track
 58    [00000000] (000/000) Silent track
 59    [00000000] (000/000) Silent track
 60    [00000000] (000/000) Silent track
 61    [00000000] (000/000) Silent track
 62    [00000000] (000/000) Silent track
 63    [00000000] (000/000) Silent track
 64    [00000000] (000/000) Silent track
 65    [00000000] (000/000) Silent track
 66    [00000000] (000/
Rip & Check: EAC Secure [Low/C2]+CUETools [AR Confidence 2+]
NAS (Backup): Flac -4 (for Speed) | CDImage+CUE with F2K
DAP (Playback): Opus 128Kbps | Tracks with F2KM on Android (LG G5)
Video: VP10 (2160p30@24Mbps/2160p60@48Mbps) Asap !!!

  • greynol
  • [*][*][*][*][*]
  • Global Moderator
CUETools versions 1.9.5 through 2.1.5 (current)
Reply #1433
If you multiply anything by zero you get zero, so those hash values shouldn't come as a surprise.  I don't think anyone needs to bend over backwards to accommodate a small handful of titles, some of which might not even be red book compliant because they contain tracks that are too short in duration.
13 February 2016: The world was blessed with the passing of a truly vile and wretched person.

Your eyes cannot hear.

CUETools versions 1.9.5 through 2.1.5 (current)
Reply #1434
Thanks for the hotfix that now passes most of the tag edits from the 'Select the best match' window...

A couple of feature requests for the next version:

(1) Would it be possile to add formatting options for the track number tag? Cue tools defaults to TRACKNUMBER/TOTALTRACKS, but I prefer just to have TRACKNUMBER. At the moment I have to use a foobar plugin to automate deletion of TOTALTRACKS, but it would be nice to be able to just tell cuetools how I want the track number tag to be formatted.

(2) Something that has never worked - if I change the genre tag in the 'Select the best match' window, the output path is not updated accordingly. Any chance of addressing this? Artist and album edits work ok....

Anyway, thanks for an amazing tool - keep up the great work!
  • Last Edit: 22 June, 2011, 12:57:03 PM by james76smith

  • Anakunda
  • [*][*][*][*][*]
CUETools versions 1.9.5 through 2.1.5 (current)
Reply #1435
HI

I trying to rebuild a flac encoded album from Vinyl Rip. It has 24bit depth and 192kHz sampling rate.
This is the exact error I get:

Exception: Audio format is invalid.

I get the error even with Accuraterip OFF. Is this error because of the vinyl?
I think for just rebuilding is it ok as decoder and encoder can handle this audio format.

  • korth
  • [*][*][*][*][*]
CUETools versions 1.9.5 through 2.1.5 (current)
Reply #1436
CUERipper 2.1.2
Is it supposed to submit rips with errors to CTDB? I am trying to rip a scratched disc. There are read errors. (0/x) AccurateRip matches. Yet it submits to CTDB. I then tried it on another drive. Still have errors. It submitted again. Tried on a different system. Still errors. It submitted again. Compared to previous two submissions and said I might repair with CUETools.
  • Last Edit: 23 June, 2011, 03:33:39 PM by korth
korth

  • korth
  • [*][*][*][*][*]
CUETools versions 1.9.5 through 2.1.5 (current)
Reply #1437
Forgot to mention the errors.

Secure Mode. Suspicious positions. 30+ Retries.

According to http://www.hydrogenaudio.org/forums/index....st&p=704446
I thought it shouldn't submit.
korth

  • X0R
  • [*]
CUETools versions 1.9.5 through 2.1.5 (current)
Reply #1438
HI

I trying to rebuild a flac encoded album from Vinyl Rip. It has 24bit depth and 192kHz sampling rate.
This is the exact error I get:

Exception: Audio format is invalid.

I get the error even with Accuraterip OFF. Is this error because of the vinyl?
I think for just rebuilding is it ok as decoder and encoder can handle this audio format.


I assume the error is because CueTools is not aware of any Audio CDs in 24bit/192khz

CUETools versions 1.9.5 through 2.1.5 (current)
Reply #1439
I trying to rebuild a flac encoded album from Vinyl Rip. It has 24bit depth and 192kHz sampling rate.

CUETools only supports CD audio. Too many of it's features wouldn't work for non-CD audio, even cue sheet format itself is supposed to measure track length in minutes:seconds:frames, which are 1/75th of a second = 44100/75 = 588 samples. In theory, CUE sheet format can be extended to support 48/96/192Khz - luckily, 48000 is divisible by 75, so such CUE sheets will probably have frame sizes of 640/1280/2560 samples. Or it can use 100 frames per second for such audio. I know that fb2k supports such non-standard cue sheets, but i don't think that's very useful in CUE Tools.

Secure Mode. Suspicious positions. 30+ Retries.
I thought it shouldn't submit.

Starting with 2.1.2, CUERipper (or EAC) just sends the number of suspicious positions to the server, and server decides whether it will accept such entry and whether it will accept just a set of CRCs or also a parity file.
So CUERipper should submit, but database should refuse such submissions, at least the parity file. If it doesn't refuse, that means i've set error limit too high, but that can easily be fixed.
Was that a Tommy Shaw album?
  • Last Edit: 24 June, 2011, 04:19:17 AM by Gregory S. Chudov
CUETools 2.1.4

  • Anakunda
  • [*][*][*][*][*]
CUETools versions 1.9.5 through 2.1.5 (current)
Reply #1440
I trying to rebuild a flac encoded album from Vinyl Rip. It has 24bit depth and 192kHz sampling rate.

CUETools only supports CD audio. Too many of it's features wouldn't work for non-CD audio, even cue sheet format itself is supposed to measure audio in minutes/seconds/frames, which are 1/75th of a second == 44100/75=588 samples. In theory, CUE sheet format can be extended to support 48/96/192Khz - luckily, 48000 is divisible by 75, so such CUE sheets will probably have frame sizes of 640/1280/2560 samples. Or it can use 100 frames per second for such audio. I know that fb2k supports such non-standard cue sheets, but i don't think that's very useful in CUE Tools.


I think it's not impossible, just avoid any AccurateRip interaction. I had quick look at the CUEsheet from the vinyl image, and found nothing nonstandard on it, like it looks HERE:

Code: [Select]
REM GENRE "Psychedelic Rock"
REM DATE 1972
PERFORMER "Pink Floyd"
TITLE "Obscured By Clouds"
FILE "Pink Floyd (1972) – Obscured By Clouds_Side 1.flac" FLAC
  TRACK 01 AUDIO
    TITLE "Obscured By Clouds"
    PERFORMER "Pink Floyd"
    INDEX 01 00:00:00
  TRACK 02 AUDIO
    TITLE "When You're In"
    PERFORMER "Pink Floyd"
    INDEX 01 03:04:00
  TRACK 03 AUDIO
    TITLE "Burning Bridges"
    PERFORMER "Pink Floyd"
    INDEX 01 05:35:00
  TRACK 04 AUDIO
    TITLE "The Gold It's In The..."
    PERFORMER "Pink Floyd"
    INDEX 01 09:04:00
  TRACK 05 AUDIO
    TITLE "Wots... Uh The Deal"
    PERFORMER "Pink Floyd"
    INDEX 01 12:11:00
  TRACK 06 AUDIO
    TITLE "Mudmen"
    PERFORMER "Pink Floyd"
    INDEX 01 17:19:00
FILE "Pink Floyd (1972) – Obscured By Clouds_Side 2.flac" FLAC
  TRACK 07 AUDIO
    TITLE "Childhood's End"
    PERFORMER "Pink Floyd"
    INDEX 01 00:00:00
  TRACK 08 AUDIO
    TITLE "Free Four"
    PERFORMER "Pink Floyd"
    INDEX 01 04:31:00
  TRACK 09 AUDIO
    TITLE "Stay"
    PERFORMER "Pink Floyd"
    INDEX 01 08:47:00
  TRACK 10 AUDIO
    TITLE "Absolutely Curtains"
    PERFORMER "Pink Floyd"
    INDEX 01 12:57:00


I suppose nothing inhibits encoding of such CUEsheet to 1audiofile with transformed CUEsheet as I can see only times in standard time format. Have the encoder references it supports up to 192kHz, 32bit and 5.1 channels

CUETools versions 1.9.5 through 2.1.5 (current)
Reply #1441
As you can see, in this cue sheet track lengths are measured in seconds. I have no idea is it supposed to just ignore frames, or use 1/75th of a second or 1/100th of a second as a frame. There's no standard for this. By the way, having two files and 10 tracks in a cue sheet is nonstandard too. Which software did you use to produce such weird cue sheet?
  • Last Edit: 24 June, 2011, 04:46:52 AM by Gregory S. Chudov
CUETools 2.1.4

  • korth
  • [*][*][*][*][*]
CUETools versions 1.9.5 through 2.1.5 (current)
Reply #1442
Was that a Tommy Shaw album?


Yes. So I'll guess you don't need the CTDB TOCID.
korth

CUETools versions 1.9.5 through 2.1.5 (current)
Reply #1443
I found than 'Array index is out of range..' error (which occurs with mono) doesn't occur when checkbox 'use Accurate Rip' is unchecked.

Oops, forgot to test this version with mono. Does this happen on every CD or only on a particular one?

It happened on every CD I tested (5-6 CDs).
Thanks a lot, there is no this problem in 2.1.2a. Rebooting to windows for converting doesn't longer needed.

  • Marc27
  • [*]
CUETools versions 1.9.5 through 2.1.5 (current)
Reply #1444
In an attempt to put some ideas together...

Code: [Select]
Track [ CRC ] Status
01 [0e2ddf38] (3/5) Accurately ripped
02 [14edaa99] (4/4) Accurately ripped
03 [8655448d] (4/10) Accurately ripped

AccurateRip v2:
01 [ebf2a53a] (2/5) Accurately ripped
02 [4bf8a27a] (0/4) No match but offset
03 [58b70fae] (0/10) No match but offset

Some interpretation...
1- For each confidence level in ARv1 there will be an equal number of "no match but offset" submissions in ARv2, and vice verse.
Case:
Track 01 is 100% accurate with 3 ARv1 accurate matches and 2 ARv2 accurate matches, making a total of 5 of 5 accurate matches.

2- No match but offset from more than one CRC/submissions means that at least one of them matches the offset.
Case:
Track 03 has 6 remaining CRCs that are reported as "No match but offset", though that may not mean that 6 match the offset. Odds are that only one CRC matches the offset while the remaining 5 don't match at all. IIRC a "no match but offset" is more likely to indicate a bad rip/CRC than a "no match". The point is that maybe this leads to a not so accurate impression of the results, since at a first glance I'm inclined to interpret it as "the 6 CRCs match the offset".

I noticed another difference while comparing old and new logs. Before "partial matches" which I guess are the same as "no match but offset", were displayed as follows
Code: [Select]
04 [34c2703a] (01/01) Partial match
In contrast to new logs:
Code: [Select]
04 [34c2703a] (00/01) Partial match
What was the reason behind the change? somehow the older display seemed easier for comparing the number of accurate matches vs partial matches.

Ideas:

Based on interpretation 1, maybe it's more intuitive to subtract the number of accurate matches to the other total counterpart (ARv1-ARv2).
Instead of:
Code: [Select]
Track [ CRC ] Status
01 [0e2ddf38] (3/5) Accurately ripped
02 [14edaa99] (4/4) Accurately ripped
03 [8655448d] (4/10) Accurately ripped
AccurateRip v2:
01 [ebf2a53a] (2/5) Accurately ripped
02 [4bf8a27a] (0/4) No match but offset
03 [58b70fae] (0/10) No match but offset
...
Code: [Select]
Track [ CRC ] Status
01 [0e2ddf38] (3/3) Accurately ripped
02 [14edaa99] (4/4) Accurately ripped
03 [8655448d] (4/10) Accurately ripped
AccurateRip v2:
01 [ebf2a53a] (2/2) Accurately ripped
02 [4bf8a27a] (0/0) No Matches (or maybe not found*?)
03 [58b70fae] (0/6) No matches or no matches but offset

CUETools versions 1.9.5 through 2.1.5 (current)
Reply #1445
As a sidenote to previous posts, for a few discs verification results in the following weird report:
Code: [Select]
[AccurateRip ID: 0058ceb7-098243ce-500e3728] found.
Track   [ CRC    ] Status
01     [dd4625bb] (0/0) No match but offset
02     [99ae1c11] (0/0) No match but offset
03     [752ce267] (0/0) No match but offset
... (the same, ad nauseam)
40     [6cd87975] (0/0) No match but offset


So basically the whole disc is in the AR DB but the whole rip has a 0/0 confidence (a mathematician's nightmare).

This seems a bit misleading, at least in its formulation, because:
1. the disc is reported found in the AR DB but
2. it has obviously no tracks recorded ('/0') and yet
3. the software attempts to match a rip with 'nothing' (hence the 'no match'); still
4. it detects (how?) an offset.
First reaction: "Jeez, what is that, is my disc faked, my rip erroneous, should I trash my drive, is AR offline or what?"

In most cases (see above) the user would readily interpret "No match but offset" as meaning "probable bit errors but still able to detect offsets".
I suppose a better formulation could be found for such cases where AR has "0" results (how come, by the way? still haven't found the definitive answer...)

--

A small bug (?) report: the option "Verify if found" does not submit results to the CTDB as the "Default" verify.
  • Last Edit: 25 June, 2011, 08:45:59 PM by HotShotFR

  • greynol
  • [*][*][*][*][*]
  • Global Moderator
CUETools versions 1.9.5 through 2.1.5 (current)
Reply #1446
I'm pretty certain ARv1 and ARv2 use the same offset hashes.  At least this is what I recall reading from Spoon.

How CT handles all the reporting is another matter.  I have not used it since well before ARv2 support was supported, but in the past the reporting around different pressings wasn't exactly clear, in fact it was sometimes outright misleading.  I have no idea what changes have been made and have not looked at any logs that show ARv2 information until now.  With this in mind, let me take my best shot at what is going on based on the rest of the information given by Marc27.

02 [14edaa99] (4/4) Accurately ripped
AccurateRip v2:
02 [4bf8a27a] (0/4) No match but offset

All submissions for this track were accounted for and done as ARv1 and for only one pressing.  No submissions were made as ARv2.

---------------

01 [0e2ddf38] (3/5) Accurately ripped
AccurateRip v2:
01 [ebf2a53a] (2/5) Accurately ripped

All submissions for this track were accounted for and were split between ARv1 and ARv2 as indicated.

---------------

03 [8655448d] (4/10) Accurately ripped
AccurateRip v2:
03 [58b70fae] (0/10) No match but offset

Only four submissions were accounted for, all were ARv1.  Not enough information was given to determine what constitutes the remaining six submissions.  Marc27, did you provide the entire log are there other submissions given for alternate offsets?
  • Last Edit: 25 June, 2011, 09:14:44 PM by greynol
13 February 2016: The world was blessed with the passing of a truly vile and wretched person.

Your eyes cannot hear.

CUETools versions 1.9.5 through 2.1.5 (current)
Reply #1447
When I try to split a flac image and encode the tracks to mp3 using external encoder(lame.exe) I get the following error:

"....\lame.exe returned error code 1"

does anyone know what error 1 means? and how to fix it. If any other details are needed please let me know.


Thanks in advance

CUETools versions 1.9.5 through 2.1.5 (current)
Reply #1448
When I try to split a flac image and encode the tracks to mp3 using external encoder(lame.exe) I get the following error:

"....\lame.exe returned error code 1"

does anyone know what error 1 means? and how to fix it. If any other details are needed please let me know.


Thanks in advance


In case it matters I found out that encoding in a CBR mode (using the same external lame.exe) does not cause the error, so obviously the problem is not in the executable.
  • Last Edit: 26 June, 2011, 06:45:00 PM by KingUnique

  • deskmate
  • [*]
CUETools versions 1.9.5 through 2.1.5 (current)
Reply #1449
Thanks for this wonderful tool, Gregory, I use it often.

But I have a small feature request. Would it be possible that the feature "input can be a directory with audio files and no cue sheet" also work in batch mode?

with this batch mode, one can convert file format (e.g. from APE to FLAC), joining individual files (if needed), check accurerip and create the cue file in one single button press, recursively!  wow .. we are getting more "APPLE" like ...

Possible?  Please ...