Skip to main content

Topic: CUETools versions 1.9.5 through 2.1.5 (current) (Read 1324762 times) previous topic - next topic

0 Members and 2 Guests are viewing this topic.
  • NightOwl
  • [*][*]
CUETools versions 1.9.5 through 2.1.5 (current)
Reply #125
* fixed PartialContent error when reading huge AccurateRip entries


Gregory, thanks for fixing this problem in version 1.9.3.

CUETools versions 1.9.5 through 2.1.5 (current)
Reply #126
Hi Gregory,

while testing enhanced data track rips I found the following minor issue.

With 1.9.3u1, if you specify a data track length it doesn't add the REM DATATRACKLENGTH tag to the cue file. I know that it uses the log file as default to get the data track length, and even if you had to input manually, the discID gets cached so further AR queries resolve correctly, BUT, I think that the DATATRACKLENGTH should be added anyway, for the following reasons:

1) correct me if i'm wrong, but CUETools can't pick up the data length from previous versions of EAC.

2) A user may change it's computer, thus loosing all the cached info. Then the rip won't verify unless the data track length is manually inputed. Please correct me on this, since I haven't spent much time figuring out how it works.

3) I believe that the CUE sheet is the logical place for all file related info to be. IMHO, if it's a disc attribute, it should live on the cue sheet.


Thanks for all the hard work !

N.

PS: please reconsider adding a file overwrite switch for batch jobs. It can even show a warning when the job starts, so that everybody knows its enabled.


ACCURATERIPDISCID is stored in file tags AND in the cue sheet. There's no cache on your computer other than that. I doesn't make much sense to store both DATATRACKLENGTH and ACCURATERIPDISCID, because only one of them would be used.

I think i'll add two options for batch jobs, 'overwrite existing files' and a more safe 'skip on errors' option.

I use this tool since Moitah released it and I would like to thank Gregory for his great approvements.

At now one thing to mention: I use custom format %0\cdimage.cue as naming scheme. If nesessary (by double CDs) I change it to cdimage1.cue or cdimage2.cue.

In CUE Tools 1.9.1 I could also change the name of the resulting WAV file, in recent version its name remains always cdimage.wav.

I think it would be better to have the resulting file (in case of single file+cue) named equal to cue file.

Another question is CUE Sheet Creator: when I click the button and select the folder with audio files nothing happens.

Options, controling the name of the resulting WAV file are now in 'advanced options'.
You can turn off the 'keep original filenames' option, and set 'single format' to %F,
and your wav files will have the same name as a CUE sheet.

CUE Sheet Creator only works if you have a directory with file-per-track image and no CUE sheet.
It doesn't work if you already have a CUE sheet there, or if you have a single file image.
Can you show me a contents of the directory where it doesn't work?
CUETools 2.1.4

  • Miguk
  • [*]
CUETools versions 1.9.5 through 2.1.5 (current)
Reply #127
It doesn't work if you already have a CUE sheet there


Thanks, I think that was the reason.

The naming scheme works perfect, too. Spasibo 

  • marconelli
  • [*]
CUETools versions 1.9.5 through 2.1.5 (current)
Reply #128
Thanks for this wonderful tool, Gregory, I use it very often

But I have a small (?) feature request. Would it be possible that the feature "input can be a directory with audio files and no cue sheet" also work in batch mode? I know that I can use the cuesheet creator, and it's ok when I check my files on hard drive... But when I want to check files previously written on dvd (and there's no cue sheet inside the directory) - that feature would be very usefull. For now it doesn't work in batch mode (or at least I don't know how to use it), when I select a directory in which there are audio files only, it says: "Exception: Input CUE Sheet not found"

  • foorious
  • [*][*][*]
  • Banned
CUETools versions 1.9.5 through 2.1.5 (current)
Reply #129
I too would appreciate a batch mode where you could simply input a root directory, then CUEtools would scan recursively all the subdirectories for (example) separate FLAC files without any cuesheets, and do all the AR verification and tag-writing on all the files in one single batch operation. Could this be possible ? Thanks. 

  • yury_usa
  • [*]
CUETools versions 1.9.5 through 2.1.5 (current)
Reply #130
Hi everyone. I receive an "Index was outside the bounds of bound of the array" exception when I try to convert tracks to CD Image.


Cue Sheet
Code: [Select]
REM GENRE country
REM DISCID 1B0E6C14
REM COMMENT "ExactAudioCopy v0.99pb4"
PERFORMER "Ray Charles"
TITLE "Greatest Country and Western Hits"
FILE "01 - Your Cheating Heart.flac" WAVE
  TRACK 01 AUDIO
TITLE "Your Cheating Heart"
PERFORMER "Ray Charles"
INDEX 01 00:00:00
  TRACK 02 AUDIO
TITLE "Hey Good Lookin'"
PERFORMER "Ray Charles"
INDEX 00 03:32:70
FILE "02 - Hey Good Lookin'.flac" WAVE
INDEX 01 00:00:00
  TRACK 03 AUDIO
TITLE "Take These Chains From My Heart"
PERFORMER "Ray Charles"
INDEX 00 02:10:58
FILE "03 - Take These Chains From My Heart.flac" WAVE
INDEX 01 00:00:00
  TRACK 04 AUDIO
TITLE "Don't Tell Me Your Troubles"
PERFORMER "Ray Charles"
INDEX 00 02:54:60
FILE "04 - Don't Tell Me Your Troubles.flac" WAVE
INDEX 01 00:00:00
  TRACK 05 AUDIO
TITLE "I Can't Stop Loving You"
PERFORMER "Ray Charles"
INDEX 00 02:05:03
FILE "05 - I Can't Stop Loving You.flac" WAVE
INDEX 01 00:00:00
  TRACK 06 AUDIO
TITLE "Just A Little Lovin' (Will Go A Long Way)"
PERFORMER "Ray Charles"
INDEX 00 04:11:56
FILE "06 - Just A Little Lovin' (Will Go A Long Way).flac" WAVE
INDEX 01 00:00:00
  TRACK 07 AUDIO
TITLE "It Makes No Difference Now"
PERFORMER "Ray Charles"
INDEX 00 03:27:32
FILE "07 - It Makes No Difference Now.flac" WAVE
INDEX 01 00:00:00
  TRACK 08 AUDIO
TITLE "You Don't Know Me"
PERFORMER "Ray Charles"
INDEX 00 03:31:45
FILE "08 - You Don't Know Me.flac" WAVE
INDEX 01 00:00:00
  TRACK 09 AUDIO
TITLE "You Are My Sunshine"
PERFORMER "Ray Charles"
INDEX 00 03:13:51
FILE "09 - You Are My Sunshine.flac" WAVE
INDEX 01 00:00:00
  TRACK 10 AUDIO
TITLE "I'll Never Stand In Your Way"
PERFORMER "Ray Charles"
INDEX 00 02:57:73
FILE "10 - I'll Never Stand In Your Way.flac" WAVE
INDEX 01 00:00:00
  TRACK 11 AUDIO
TITLE "Someday (You'll Want Me To Want You)"
PERFORMER "Ray Charles"
INDEX 00 02:16:52
FILE "11 - Someday (You'll Want Me To Want You).flac" WAVE
INDEX 01 00:00:00
  TRACK 12 AUDIO
TITLE "I Love You So Much It Hurts"
PERFORMER "Ray Charles"
INDEX 00 02:37:70
FILE "12 - I Love You So Much It Hurts.flac" WAVE
INDEX 01 00:00:00
  TRACK 13 AUDIO
TITLE "Careless Love"
PERFORMER "Ray Charles"
INDEX 00 03:32:20
FILE "13 - Careless Love.flac" WAVE
INDEX 01 00:00:00
  TRACK 14 AUDIO
TITLE "Oh, Lonesome Me"
PERFORMER "Ray Charles"
INDEX 00 03:41:58
FILE "14 - Oh, Lonesome Me.flac" WAVE
INDEX 01 00:00:00
  TRACK 15 AUDIO
TITLE "Hang Your Head In Shame"
PERFORMER "Ray Charles"
INDEX 00 02:09:47
FILE "15 - Hang Your Head In Shame.flac" WAVE
INDEX 01 00:00:00
  TRACK 16 AUDIO
TITLE "Midnight"
PERFORMER "Ray Charles"
INDEX 00 03:14:05
FILE "16 - Midnight.flac" WAVE
INDEX 01 00:00:00
  TRACK 17 AUDIO
TITLE "No Letter Today"
PERFORMER "Ray Charles"
INDEX 00 03:14:42
FILE "17 - No Letter Today.flac" WAVE
INDEX 01 00:00:00
  TRACK 18 AUDIO
TITLE "Crying Time"
PERFORMER "Ray Charles"
INDEX 00 02:58:42
FILE "18 - Crying Time.flac" WAVE
INDEX 01 00:00:00
  TRACK 19 AUDIO
TITLE "Together Agian"
PERFORMER "Ray Charles"
INDEX 00 03:00:37
FILE "19 - Together Agian.flac" WAVE
INDEX 01 00:00:00
  TRACK 20 AUDIO
TITLE "Don't Let Her Know"
PERFORMER "Ray Charles"
INDEX 00 02:37:50
FILE "20 - Don't Let Her Know.flac" WAVE
INDEX 01 00:00:00

Log
Code: [Select]
Exact Audio Copy V0.99 prebeta 4 from 23. January 2008

EAC extraction logfile from 27. March 2008, 6:36

Ray Charles / Greatest Country and Western Hits

Used drive  : _NEC DVD+-RW ND-6650A  Adapter: 1  ID: 0

Read mode   : Secure
Utilize accurate stream : Yes
Defeat audio cache   : Yes
Make use of C2 pointers : No

Read offset correction   : 48
Overread into Lead-In and Lead-Out   : No
Fill up missing offset samples with silence : Yes
Delete leading and trailing silent blocks  : No
Null samples used in CRC calculations   : Yes
Used interface   : Installed external ASPI interface
Gap handling : Appended to previous track

Used output format   : User Defined Encoder
Selected bitrate : 256 kBit/s
Quality : High
Add ID3 tag : No
Command line compressor : C:\Program Files\Exact Audio Copy\bin\flac.exe
Additional command line options : -V -8 -T "artist=%a" -T "title=%t" -T "album=%g" -T "date=%y" -T "tracknumber=%n" -T "genre=%m" %s


TOC of the extracted CD

Track |  Start  |  Length  | Start sector | End sector
---------------------------------------------------------
1  |  0:00.00 |  3:37.48 | 0 | 16322 
2  |  3:37.48 |  2:14.67 | 16323 | 26439 
3  |  5:52.40 |  2:58.63 | 26440 | 39852 
4  |  8:51.28 |  2:08.60 | 39853 | 49512 
5  | 11:00.13 |  4:16.10 | 49513 | 68722 
6  | 15:16.23 |  3:31.15 | 68723 | 84562 
7  | 18:47.38 |  3:35.32 | 84563 |  100719 
8  | 22:22.70 |  3:17.33 | 100720 |  115527 
9  | 25:40.28 |  3:01.50 | 115528 |  129152 
  10  | 28:42.03 |  2:20.40 | 129153 |  139692 
  11  | 31:02.43 |  2:42.45 | 139693 |  151887 
  12  | 33:45.13 |  3:36.37 | 151888 |  168124 
  13  | 37:21.50 |  3:46.10 | 168125 |  185084 
  14  | 41:07.60 |  2:13.30 | 185085 |  195089 
  15  | 43:21.15 |  3:17.30 | 195090 |  209894 
  16  | 46:38.45 |  3:17.68 | 209895 |  224737 
  17  | 49:56.38 |  3:01.30 | 224738 |  238342 
  18  | 52:57.68 |  3:04.12 | 238343 |  252154 
  19  | 56:02.05 |  2:41.03 | 252155 |  264232 
  20  | 58:43.08 |  2:49.57 | 264233 |  276964 


Track  1

Filename C:\Ray Charles - Greatest Country and Western Hits (1988) [FLAC] {DCC, Hoffman}\01 - Your Cheating Heart.wav

Pre-gap length  0:00:02.00

Peak level 56.7 %
Track quality 100.0 %
Test CRC 81A37049
Copy CRC 81A37049
Accurately ripped (confidence 1)  [5B76EC4C]
Copy OK

Track  2

Filename C:\Ray Charles - Greatest Country and Western Hits (1988) [FLAC] {DCC, Hoffman}\02 - Hey Good Lookin'.wav

Pre-gap length  0:00:04.70

Peak level 76.4 %
Track quality 100.0 %
Test CRC 0AA6B233
Copy CRC 0AA6B233
Accurately ripped (confidence 1)  [88F2C028]
Copy OK

Track  3

Filename C:\Ray Charles - Greatest Country and Western Hits (1988) [FLAC] {DCC, Hoffman}\03 - Take These Chains From My Heart.wav

Pre-gap length  0:00:04.12

Peak level 60.6 %
Track quality 100.0 %
Test CRC 12DACC1C
Copy CRC 12DACC1C
Accurately ripped (confidence 1)  [0DD654F0]
Copy OK

Track  4

Filename C:\Ray Charles - Greatest Country and Western Hits (1988) [FLAC] {DCC, Hoffman}\04 - Don't Tell Me Your Troubles.wav

Pre-gap length  0:00:04.04

Peak level 84.3 %
Track quality 100.0 %
Test CRC D7AE57CA
Copy CRC D7AE57CA
Accurately ripped (confidence 1)  [EBD12955]
Copy OK

Track  5

Filename C:\Ray Charles - Greatest Country and Western Hits (1988) [FLAC] {DCC, Hoffman}\05 - I Can't Stop Loving You.wav

Pre-gap length  0:00:03.76

Peak level 58.9 %
Track quality 100.0 %
Test CRC B3FAA16E
Copy CRC B3FAA16E
Accurately ripped (confidence 1)  [49C222D0]
Copy OK

Track  6

Filename C:\Ray Charles - Greatest Country and Western Hits (1988) [FLAC] {DCC, Hoffman}\06 - Just A Little Lovin' (Will Go A Long Way).wav

Pre-gap length  0:00:04.38

Peak level 89.7 %
Track quality 99.9 %
Test CRC 7C83CCCD
Copy CRC 7C83CCCD
Accurately ripped (confidence 1)  [4A29BD3E]
Copy OK

Track  7

Filename C:\Ray Charles - Greatest Country and Western Hits (1988) [FLAC] {DCC, Hoffman}\07 - It Makes No Difference Now.wav

Pre-gap length  0:00:03.77

Peak level 67.4 %
Track quality 100.0 %
Test CRC B2E95B00
Copy CRC B2E95B00
Accurately ripped (confidence 1)  [CACD2A28]
Copy OK

Track  8

Filename C:\Ray Charles - Greatest Country and Western Hits (1988) [FLAC] {DCC, Hoffman}\08 - You Don't Know Me.wav

Pre-gap length  0:00:03.82

Peak level 54.4 %
Track quality 100.0 %
Test CRC ADDBED1C
Copy CRC ADDBED1C
Accurately ripped (confidence 1)  [E151B000]
Copy OK

Track  9

Filename C:\Ray Charles - Greatest Country and Western Hits (1988) [FLAC] {DCC, Hoffman}\09 - You Are My Sunshine.wav

Pre-gap length  0:00:03.76

Peak level 92.4 %
Track quality 99.9 %
Test CRC 531CC218
Copy CRC 531CC218
Accurately ripped (confidence 1)  [AD773E65]
Copy OK

Track 10

Filename C:\Ray Charles - Greatest Country and Western Hits (1988) [FLAC] {DCC, Hoffman}\10 - I'll Never Stand In Your Way.wav

Pre-gap length  0:00:03.69

Peak level 63.6 %
Track quality 100.0 %
Test CRC 8EA14C29
Copy CRC 8EA14C29
Accurately ripped (confidence 1)  [73D3F01E]
Copy OK

Track 11

Filename C:\Ray Charles - Greatest Country and Western Hits (1988) [FLAC] {DCC, Hoffman}\11 - Someday (You'll Want Me To Want You).wav

Pre-gap length  0:00:03.84

Peak level 73.2 %
Track quality 100.0 %
Test CRC 21855819
Copy CRC 21855819
Accurately ripped (confidence 1)  [A3D78AF1]
Copy OK

Track 12

Filename C:\Ray Charles - Greatest Country and Western Hits (1988) [FLAC] {DCC, Hoffman}\12 - I Love You So Much It Hurts.wav

Pre-gap length  0:00:04.66

Peak level 58.7 %
Track quality 99.9 %
Test CRC 654749B3
Copy CRC 654749B3
Accurately ripped (confidence 1)  [B0BD7F53]
Copy OK

Track 13

Filename C:\Ray Charles - Greatest Country and Western Hits (1988) [FLAC] {DCC, Hoffman}\13 - Careless Love.wav

Pre-gap length  0:00:04.22

Peak level 65.5 %
Track quality 99.9 %
Test CRC 3E55865E
Copy CRC 3E55865E
Accurately ripped (confidence 1)  [83A796C7]
Copy OK

Track 14

Filename C:\Ray Charles - Greatest Country and Western Hits (1988) [FLAC] {DCC, Hoffman}\14 - Oh, Lonesome Me.wav

Pre-gap length  0:00:04.36

Peak level 97.7 %
Track quality 100.0 %
Test CRC FCC362B3
Copy CRC FCC362B3
Accurately ripped (confidence 1)  [F0BB7F6B]
Copy OK

Track 15

Filename C:\Ray Charles - Greatest Country and Western Hits (1988) [FLAC] {DCC, Hoffman}\15 - Hang Your Head In Shame.wav

Pre-gap length  0:00:03.77

Peak level 57.7 %
Track quality 100.0 %
Test CRC 616D0C9C
Copy CRC 616D0C9C
Accurately ripped (confidence 1)  [D4565799]
Copy OK

Track 16

Filename C:\Ray Charles - Greatest Country and Western Hits (1988) [FLAC] {DCC, Hoffman}\16 - Midnight.wav

Pre-gap length  0:00:03.33

Peak level 71.5 %
Track quality 99.9 %
Test CRC 0A63CD1E
Copy CRC 0A63CD1E
Accurately ripped (confidence 1)  [D52FA3A2]
Copy OK

Track 17

Filename C:\Ray Charles - Greatest Country and Western Hits (1988) [FLAC] {DCC, Hoffman}\17 - No Letter Today.wav

Pre-gap length  0:00:03.34

Peak level 74.8 %
Track quality 100.0 %
Test CRC 383B89A8
Copy CRC 383B89A8
Accurately ripped (confidence 1)  [0E63EA3F]
Copy OK

Track 18

Filename C:\Ray Charles - Greatest Country and Western Hits (1988) [FLAC] {DCC, Hoffman}\18 - Crying Time.wav

Pre-gap length  0:00:02.84

Peak level 64.8 %
Track quality 100.0 %
Test CRC 29BE6CBA
Copy CRC 29BE6CBA
Accurately ripped (confidence 1)  [F2C20ABA]
Copy OK

Track 19

Filename C:\Ray Charles - Greatest Country and Western Hits (1988) [FLAC] {DCC, Hoffman}\19 - Together Agian.wav

Pre-gap length  0:00:03.66

Peak level 78.6 %
Track quality 99.9 %
Test CRC AB617EA4
Copy CRC AB617EA4
Accurately ripped (confidence 1)  [6E837438]
Copy OK

Track 20

Filename C:\Ray Charles - Greatest Country and Western Hits (1988) [FLAC] {DCC, Hoffman}\20 - Don't Let Her Know.wav

Pre-gap length  0:00:03.37

Peak level 68.5 %
Track quality 100.0 %
Test CRC D2371685
Copy CRC D2371685
Accurately ripped (confidence 1)  [6EE7FBA8]
Copy OK


All tracks accurately ripped

No errors occurred

End of status report

What could be wrong? When it reaches "writing track20", an error pops-up:

  • Last Edit: 14 December, 2008, 11:55:49 PM by yury_usa

  • tuxman
  • [*][*][*]
CUETools versions 1.9.5 through 2.1.5 (current)
Reply #131
Great; now I finally found a GUI to split CUE files under Vista (the Medieval thing doesn't work well here).

But:
Only a ru-RU language thing?

I could do the de-DE translation... if needed.
(And if I get to know which files are affected.)

audiophile // FLAC and Vorbis user // Winamp addict

  • Tigerman
  • [*]
CUETools versions 1.9.5 through 2.1.5 (current)
Reply #132
I've used Cuesplit for a while now and came across a, imho, weird thing.
I encountered several albums in which the log says that all tracks were accurately ripped, but cuesplit says that disk is not in database.
The latest find is Van Morrison - Too Long In Exile where the XLD-log says it's accurately ripped ( confidence 10 on most files), but when I try Cuesplit it says Disk not present in database.
I also tried tripleflac with the same result (cd not found)
I found more albums but didn't notate which ones.

Another thing that I encountered is with p.e. Van Morrison - No Guru, No Method, No Teacher.
The EAC-log says accurately ripped (mostly confidence 6 (track 10 confidence 4)), but Cuetools says:

Code: [Select]
[Disc ID: 00139ba0-009e5bc7-7f0bff0a]
Track    [ CRC    ] Status
01    [34274a0d] (00/01) No matches
02    [4a1178d2] (00/01) No matches
03    [ff5e4602] (00/01) No matches
04    [0efd6970] (00/01) No matches
05    [958eaa2c] (00/01) No matches
06    [09e2d517] (00/01) No matches
07    [023f270b] (00/01) No matches
08    [e52341c8] (00/01) No matches
09    [7506f2d6] (00/01) No matches
10    [c6b07ac3] (00/01) No matches
Offsetted by 466:
01    [12916dbf] (01/01) Accurately ripped as in pressing(s) #1
02    [e93fd83e] (01/01) Accurately ripped as in pressing(s) #1
03    [418976c2] (01/01) Accurately ripped as in pressing(s) #1
04    [d1122276] (01/01) Accurately ripped as in pressing(s) #1
05    [74410c46] (01/01) Accurately ripped as in pressing(s) #1
06    [6db689e5] (01/01) Accurately ripped as in pressing(s) #1
07    [08eb0829] (01/01) Accurately ripped as in pressing(s) #1
08    [ad7cbf10] (01/01) Accurately ripped as in pressing(s) #1
09    [eeaa33c0] (01/01) Accurately ripped as in pressing(s) #1
10    [17fc11b1] (01/01) Partial match to pressing(s) #1


So only one set available.
Is it possible cuetools doesn't find all submitted sets?
  • Last Edit: 28 December, 2008, 07:39:58 AM by Tigerman

CUETools versions 1.9.5 through 2.1.5 (current)
Reply #133
I've used Cuesplit for a while now and came across a, imho, weird thing.
I encountered several albums in which the log says that all tracks were accurately ripped, but cuesplit says that disk is not in database.
...
Is it possible cuetools doesn't find all submitted sets?

CDs are identified by the track lengths. Pregap and data track included. If you rip to separate tracks without a .cue sheet, this information is lost. If the CD had a pregap and/or data track, you won't find it in the database without a .cue sheet (or using dimmy .cue sheet, or using foobar2k-generated .cue sheet). Sometimes you will find a wrong set, e.g. if the disc was released in two versions - with and without data track. You rip a version with data track, and verify it without a .cue sheet, and your files look like the version without a data track. Or you rip a CD which has a pregap, and try verify it without a .cue sheet, your files look like a CD-R which someone made from such a rip, and then ripped it.
  • Last Edit: 28 December, 2008, 02:41:26 PM by Gregory S. Chudov
CUETools 2.1.4

CUETools versions 1.9.5 through 2.1.5 (current)
Reply #134
Great; now I finally found a GUI to split CUE files under Vista (the Medieval thing doesn't work well here).

But:
Only a ru-RU language thing?

I could do the de-DE translation... if needed.
(And if I get to know which files are affected.)


Would be great. If you have MS Visual studio, than you just download the source code from SVN, open the solution (CUETools\CUETools.sln), look for CUETools project in solution browser, there doubleclick on frmCUETools.cs, select the appropriate 'Language' in the Properties window, and start editing the dialog by selecting the dialog elements one by one with a mouse, and changing 'Text' in the Properties window, and immediately see how it will look like. Then send me a frmCUETools.de-DE.resx file.

If you don't have MS Visual studio, you can still do this even with notepad, but that would be more painstalking process.
1) Download http://cuetoolsnet.svn.sourceforge.net/vie...rmCUETools.resx
2) Open it with notepad (or OpenOffice or some other editor that understands UTF8 encoding).
3) For each <data name="*.Text"> and <data name="*.ToolTip"> section translate the text between <value> and </value>.
4) Send me the result.

If this doesn't kill you, you can also do the same with http://cuetoolsnet.svn.sourceforge.net/vie...rmSettings.resx
  • Last Edit: 28 December, 2008, 02:59:32 PM by Gregory S. Chudov
CUETools 2.1.4

  • tuxman
  • [*][*][*]
CUETools versions 1.9.5 through 2.1.5 (current)
Reply #135
If this doesn't kill you, you can also do the same with http://cuetoolsnet.svn.sourceforge.net/vie...rmSettings.resx

OK I tried; I hope I didn't break anything, lol.
audiophile // FLAC and Vorbis user // Winamp addict

  • Tigerman
  • [*]
CUETools versions 1.9.5 through 2.1.5 (current)
Reply #136
Quote
CDs are identified by the track lengths. Pregap and data track included. If you rip to separate tracks without a .cue sheet, this information is lost. If the CD had a pregap and/or data track, you won't find it in the database without a .cue sheet (or using dimmy .cue sheet, or using foobar2k-generated .cue sheet). Sometimes you will find a wrong set, e.g. if the disc was released in two versions - with and without data track. You rip a version with data track, and verify it without a .cue sheet, and your files look like the version without a data track. Or you rip a CD which has a pregap, and try verify it without a .cue sheet, your files look like a CD-R which someone made from such a rip, and then ripped it.


Thanks! That makes it clear, I thought I was going slightly mad 

CUETools versions 1.9.5 through 2.1.5 (current)
Reply #137
OK I tried; I hope I didn't break anything, lol.

Thanks. Hopefully i will include it in the next version.
CUETools 2.1.4

  • frozenspeed
  • [*][*][*]
CUETools versions 1.9.5 through 2.1.5 (current)
Reply #138
I keep getting the following error:

"Exception: Indexes must be in chronological order."

When I try to convert a wav/cuesheet I created from EAC. All the indexes look to be in order to me (I never touched the sheet), any idea what's going on? I've attached the cuesheet for this particular cd.

[ Specified attachment is not available ]

  • Surfi
  • [*][*][*]
CUETools versions 1.9.5 through 2.1.5 (current)
Reply #139
::

Look here:
  TRACK 10 AUDIO
   TITLE "Left Hand Shake (missing)"
   PERFORMER "Skinny Puppy"
   INDEX 00 41:56:42
   INDEX 01 41:56:45
  TRACK 11 AUDIO
   TITLE "Download"
   PERFORMER "Skinny Puppy"
   INDEX 00 41:56:41
   INDEX 01 41:56:50

Track 10 and 11 ... it's impossible! Try to change the Gap/Index retrieval method.

::
  • Last Edit: 01 January, 2009, 08:44:12 AM by Surfi

  • frozenspeed
  • [*][*][*]
CUETools versions 1.9.5 through 2.1.5 (current)
Reply #140
::

Look here:
  TRACK 10 AUDIO
   TITLE "Left Hand Shake (missing)"
   PERFORMER "Skinny Puppy"
   INDEX 00 41:56:42
   INDEX 01 41:56:45
  TRACK 11 AUDIO
   TITLE "Download"
   PERFORMER "Skinny Puppy"
   INDEX 00 41:56:41
   INDEX 01 41:56:50

Track 10 and 11 ... it's impossible! Try to change the Gap/Index retrieval method.

::



Crazy!! That's a strange one, will do.

  • greynol
  • [*][*][*][*][*]
  • Global Moderator
CUETools versions 1.9.5 through 2.1.5 (current)
Reply #141
With a track of only 5 frames, it's not surprising that detecting gaps would yield a problem.

If changing the method and/or accuracy doesn't help, just remove the 00 index from track 11.
13 February 2016: The world was blessed with the passing of a truly vile and wretched person.

Your eyes cannot hear.

  • zer
  • [*]
CUETools versions 1.9.5 through 2.1.5 (current)
Reply #142
What would it take to make the flac plugin work under mono? I have attempted to familiarize myself with the issues, but I just do not have sufficient knowledge of .NET programming. I really want this to be fully functional on linux, and am inspired to help figure out how to make it happen, but am not sure where to start...

I have perused:
http://www.mono-project.com/Guide:_Porting...ms_Applications
but the anylizer claims that only UnRarDotNet.dll HDCDDotNet.dll are problematic, but I dont need those.

actually, I just tried a trial run, and the errors are about HDCD, not flac.
maybe just necessary to not load HDCD support if it is not needed? I only have 1 hdcd...

Think I got 1.9.1 to compile in  monodevelop a few weeks ago,
but it does not have the features I want, and the svn version has too much new stuff I cant figure out how to disable... cant find src for current ver.

CUETools versions 1.9.5 through 2.1.5 (current)
Reply #143
maybe just necessary to not load HDCD support if it is not needed? I only have 1 hdcd...

Flac support doesn't work on MONO, this has been tested on a version that didn't have hdcd or unrar support. The problem is, flac module is not a pure .NET module, it contains pure C libFLAC library, and MONO doesn't like these. So what we need is a C# libFLAC port.
CUETools 2.1.4

  • Fandango
  • [*][*][*][*][*]
CUETools versions 1.9.5 through 2.1.5 (current)
Reply #144
Gregory, would it be hard to squeeze in a EAC-compatible CRC (with use of null samples) check into the AR check process chain, so that the CUE Tools log would show the plus-null-sample CRCs for all found offsets? That would make it easy comparing the audio data to an old EAC log that only has the CRC and no AR results possible instead of running a check on that old rip's audio.

CUETools versions 1.9.5 through 2.1.5 (current)
Reply #145
Gregory, would it be hard to squeeze in a EAC-compatible CRC (with use of null samples) check into the AR check process chain, so that the CUE Tools log would show the plus-null-sample CRCs for all found offsets? That would make it easy comparing the audio data to an old EAC log that only has the CRC and no AR results possible instead of running a check on that old rip's audio.

I'll try. If somebody knows which algorithm is used for EAC CRCs, that would help a lot.
CUETools 2.1.4

  • greynol
  • [*][*][*][*][*]
  • Global Moderator
CUETools versions 1.9.5 through 2.1.5 (current)
Reply #146
Standard CRC32, but for the PCM data only.
13 February 2016: The world was blessed with the passing of a truly vile and wretched person.

Your eyes cannot hear.

CUETools versions 1.9.5 through 2.1.5 (current)
Reply #147
Standard CRC32, but for the PCM data only.

Thank you.
CUETools 2.1.4

  • Fandango
  • [*][*][*][*][*]
CUETools versions 1.9.5 through 2.1.5 (current)
Reply #148
If you're looking for an example implementation, there's an open source tool around... wavcrc32

http://www.hydrogenaudio.org/forums/index....st&p=514929

It should also be useful when testing and debugging the CRC32 check in CUE Tools.
  • Last Edit: 09 January, 2009, 01:19:26 PM by Fandango

CUETools versions 1.9.5 through 2.1.5 (current)
Reply #149
I do like Cue Tools a lot and I've got a small feature request:
I was wondering if it would be possible to add a CD-Text Corrector to the program - something similar to the Filename Corrector, that does correct the entries for CD TITLE, CD PERFORMER, Track TITLE and Track PERFORMER.
The FreeDB data can be used to fill this info in EAC and there can be errors / typos in that.
I do correct these errors and have the correct information in my APE tags and also in file and folder names.

Would it be possible to add a function that uses the Tags to correct (or fill if missing) these entries in the cue sheet?