Skip to main content

Topic: CUETools versions 1.9.5 through 2.1.5 (current) (Read 1325089 times) previous topic - next topic

0 Members and 3 Guests are viewing this topic.
  • tuxman
  • [*][*][*]
CUETools versions 1.9.5 through 2.1.5 (current)
Reply #925
Testing. 
audiophile // FLAC and Vorbis user // Winamp addict

  • SamS
  • [*]
CUETools versions 1.9.5 through 2.1.5 (current)
Reply #926
Hello Gregory,

Your tips about removing the Dummy CUE file have worked, and CUETools successfully zapped all those nasty 4608 samples of silence where applicable.

The only problem that has resulted, is that all my track number tags have disappeared!  All of the rest of the tag info remained.  Could this be related to the dummy CUE files I deleted?

Losing 2000 albums worth of track tag info is very frustrating.  I do have a back-up from last month, but of course it would have to be run through CUETools as the back up still has the 4608 samples problem.

I use MP3tag for tagging.  I think there is some kind of script that will allow for taking the first two characters of my track names and convert them into tagged track numbers.
  • Last Edit: 24 April, 2010, 02:21:00 PM by SamS

CUETools versions 1.9.5 through 2.1.5 (current)
Reply #927
The only problem that has resulted, is that all my track number tags have disappeared!

Wierd. They shouldn't have. Just tested it, and foobar2000 sees the track numbers in converted files normally, using TRACKNUMBER tag. Maybe you use a different tag?
CUETools 2.1.4

  • SamS
  • [*]
CUETools versions 1.9.5 through 2.1.5 (current)
Reply #928
The only problem that has resulted, is that all my track number tags have disappeared!

Wierd. They shouldn't have. Just tested it, and foobar2000 sees the track numbers in converted files normally, using TRACKNUMBER tag. Maybe you use a different tag?


Yeah, I'm not sure what happened.  I use the "Track" tag in MP3tag, I don't see any other fields to store a tag in.  The stuff that CUETools could not process, like my MP3s with ID3V2.3 tags and 24/96 FLACs kept their tags intact.

All other tag info is fine.  I wonder if I selected something incorrectly in CUETools?

CUETools versions 1.9.5 through 2.1.5 (current)
Reply #929
Well, you could have accidentally unchecked 'Write basic tags from CUE data' in Advanced Settings->Tagging...
CUETools 2.1.4

  • glebe
  • [*]
CUETools versions 1.9.5 through 2.1.5 (current)
Reply #930
Bug-fix release 2.0.8 changelog

Hi, Gregory.

Can't make this version work. Every time I try to verify (in normal mode) CUEtools 2.0.8 gives me a message
"Exception: Unable to find an entry point named 'hdcd_decoder_process_buffer_interleaved' in DLL 'hdcd.dll'."
I have this message on general ape and flac files (they are images of general CDs, not HDCD).

Version 2.0.4a works as expected.
  • Last Edit: 25 April, 2010, 09:59:09 AM by glebe

  • SamS
  • [*]
CUETools versions 1.9.5 through 2.1.5 (current)
Reply #931
Well, you could have accidentally unchecked 'Write basic tags from CUE data' in Advanced Settings->Tagging...


Yes, that was my problem/error.

CUETools versions 1.9.5 through 2.1.5 (current)
Reply #932
Can't make this version work. Every time I try to verify (in normal mode) CUEtools 2.0.8 gives me a message
"Exception: Unable to find an entry point named 'hdcd_decoder_process_buffer_interleaved' in DLL 'hdcd.dll'."

Oops. Try removing plugins\CUETools.Codecs.HDCD.dll. I think i put it there by mistake.
  • Last Edit: 25 April, 2010, 11:32:12 AM by Gregory S. Chudov
CUETools 2.1.4

  • shanahan
  • [*]
CUETools versions 1.9.5 through 2.1.5 (current)
Reply #933
CUERipper 2.0.8
it is possible?
output-> filename: "track number" - "track title"

at present -> "track number". "track title"

THX 

CUETools versions 1.9.5 through 2.1.5 (current)
Reply #934
Possible, but difficult.

Open <user folder>\AppData\Roaming\CUERipper\settings.txt

Find the following line:

TrackFilenameFormat=%tracknumber%. %title%

and change it to

TrackFilenameFormat=%tracknumber% - %title%
CUETools 2.1.4

  • shanahan
  • [*]
CUETools versions 1.9.5 through 2.1.5 (current)
Reply #935
THX 

  • fadsplat
  • [*]
CUETools versions 1.9.5 through 2.1.5 (current)
Reply #936
Oops. Try removing plugins\CUETools.Codecs.HDCD.dll. I think i put it there by mistake.

Should we move that file to some other directory, or just delete it? Or, will you soon issue a revised version without the error?
  • Last Edit: 25 April, 2010, 12:36:12 PM by fadsplat

CUETools versions 1.9.5 through 2.1.5 (current)
Reply #937
I already updated the archive, but there's no need to download it again. Just delete this file.
CUETools 2.1.4

  • fadsplat
  • [*]
CUETools versions 1.9.5 through 2.1.5 (current)
Reply #938
I already updated the archive, but there's no need to download it again. Just delete this file.

I had not yet downloaded your latest, so I will do that now.
Is http://www.cuetools.net/doku.php/cuetools:download now the place wheere all updates will appear?

Thanks for all you do!

CUETools versions 1.9.5 through 2.1.5 (current)
Reply #939
I upload updates here and there simultaneously.
  • Last Edit: 25 April, 2010, 02:11:39 PM by Gregory S. Chudov
CUETools 2.1.4

  • fadsplat
  • [*]
CUETools versions 1.9.5 through 2.1.5 (current)
Reply #940
Hello:

I downloaded 2.0.8.  For an album that was converted to Apple Lossless m4a files, I put the .cue sheet into CueTools and ran verify. I received that error again: Decoding failed.

It's the same as with 2.0.4. Verify works when used on some Apple Lossless m4a files, but reports that error on others. All were converted, from FLAC or WAV or APE, to Apple Lossless using either CueTools or dBpoweramp.
  • Last Edit: 25 April, 2010, 03:21:10 PM by fadsplat

CUETools versions 1.9.5 through 2.1.5 (current)
Reply #941
Then it's a different bug. I need an example of such file. Do such files play correctly in foobar2000?
CUETools 2.1.4

  • fadsplat
  • [*]
CUETools versions 1.9.5 through 2.1.5 (current)
Reply #942
Then it's a different bug. I need an example of such file. Do such files play correctly in foobar2000?

I don't know. I do not have foobar2000 installed. I play Apple Lossless files in iTunes 9.1.0.79.

What do I need to do to help you identify this bug? Some Apple Lossless files verify no problem in CueTools, but some deliver that error. All the files play no problem in iTunes, and all were converted to Apple Lossless using either either CueTools or dBpoweramp.

CUETools versions 1.9.5 through 2.1.5 (current)
Reply #943
It would be great if you could upload one of such files somewhere and email me a link (gchudov at gmail dot com). If one of those tracks which produce an error is less than 15mb, you could just send it to me.
  • Last Edit: 25 April, 2010, 04:11:19 PM by Gregory S. Chudov
CUETools 2.1.4

  • glebe
  • [*]
CUETools versions 1.9.5 through 2.1.5 (current)
Reply #944
Oops. Try removing plugins\CUETools.Codecs.HDCD.dll. I think i put it there by mistake.

Thanks, now it works

  • fadsplat
  • [*]
CUETools versions 1.9.5 through 2.1.5 (current)
Reply #945
It would be great if you could upload one of such files somewhere and email me a link (gchudov at gmail dot com). If one of those tracks which produce an error is less than 15mb, you could just send it to me.

I found one less than 15 MB. Where do I send it to you?

CUETools versions 1.9.5 through 2.1.5 (current)
Reply #946
gchudov at gmail dot com  Thanks
  • Last Edit: 25 April, 2010, 04:36:27 PM by Gregory S. Chudov
CUETools 2.1.4

  • Alex B
  • [*][*][*][*][*]
CUETools versions 1.9.5 through 2.1.5 (current)
Reply #947
I just tried CUERipper v2.0.8.

It still does not have an option for naming the individual track artists if the CD happens to be a various artists CD.

Here's a cue sheet by CUERipper:
Code: [Select]
REM ACCURATERIPID 0027e7e0-01c523c1-db11e10f
REM DISCID DB11E10F
REM COMMENT "CUERipper v2.0.8 Copyright © 2008-10 Gregory S. Chudov"
REM DATE 2003
REM GENRE "Newage"
PERFORMER "Mixed by Lucien Foort"
TITLE "Slice! Cd01"
FILE "01. Spincycle _ Drug Games.flac" WAVE
  TRACK 01 AUDIO
   TITLE "Spincycle / Drug Games"
   PERFORMER "Mixed by Lucien Foort"
   INDEX 01 00:00:00
FILE "02. Dj On _ Super Sexy Girl.flac" WAVE
  TRACK 02 AUDIO
   TITLE "Dj On / Super Sexy Girl"
   PERFORMER "Mixed by Lucien Foort"
   INDEX 01 00:00:00
FILE "03. Mazi _ Interplay.flac" WAVE
  TRACK 03 AUDIO
   TITLE "Mazi / Interplay"
   PERFORMER "Mixed by Lucien Foort"
   INDEX 01 00:00:00
FILE "04. Timo Mass feat. Kelis _ Help Me (Locodice Dub).flac" WAVE
  TRACK 04 AUDIO
   TITLE "Timo Mass feat. Kelis / Help Me (Locodice Dub)"
   PERFORMER "Mixed by Lucien Foort"
   INDEX 01 00:00:00
FILE "05. Mickey Blue Eyes _ Keep Me Safe.flac" WAVE
  TRACK 05 AUDIO
   TITLE "Mickey Blue Eyes / Keep Me Safe"
   PERFORMER "Mixed by Lucien Foort"
   INDEX 01 00:00:00
FILE "06. Jef Dam _ Soundtrack (Apollo Kids remix).flac" WAVE
  TRACK 06 AUDIO
   TITLE "Jef Dam / Soundtrack (Apollo Kids remix)"
   PERFORMER "Mixed by Lucien Foort"
   INDEX 01 00:00:00
FILE "07. Elijah _ Deep Soul Music.flac" WAVE
  TRACK 07 AUDIO
   TITLE "Elijah / Deep Soul Music"
   PERFORMER "Mixed by Lucien Foort"
   INDEX 01 00:00:00
FILE "08. Funk Function _ Old Skool House Musik.flac" WAVE
  TRACK 08 AUDIO
   TITLE "Funk Function / Old Skool House Musik"
   PERFORMER "Mixed by Lucien Foort"
   INDEX 01 00:00:00
FILE "09. Silver City _ 1969.flac" WAVE
  TRACK 09 AUDIO
   TITLE "Silver City / 1969"
   PERFORMER "Mixed by Lucien Foort"
   INDEX 01 00:00:00
FILE "10. O. C. B. _ Synchronicity.flac" WAVE
  TRACK 10 AUDIO
   TITLE "O. C. B. / Synchronicity"
   PERFORMER "Mixed by Lucien Foort"
   INDEX 01 00:00:00
FILE "11. Briggs & Lievense _ Breakdown.flac" WAVE
  TRACK 11 AUDIO
   TITLE "Briggs & Lievense / Breakdown"
   PERFORMER "Mixed by Lucien Foort"
   INDEX 01 00:00:00
FILE "12. Neruda _ Alliance (Club mix).flac" WAVE
  TRACK 12 AUDIO
   TITLE "Neruda / Alliance (Club mix)"
   PERFORMER "Mixed by Lucien Foort"
   INDEX 01 00:00:00
FILE "13. Moguai _ U Know Y (Starecase remix).flac" WAVE
  TRACK 13 AUDIO
   TITLE "Moguai / U Know Y (Starecase remix)"
   PERFORMER "Mixed by Lucien Foort"
   INDEX 01 00:00:00
FILE "14. Ian Ossia & Marc Mitchell _ 4 Day Haze (We Like The Music).flac" WAVE
  TRACK 14 AUDIO
   TITLE "Ian Ossia & Marc Mitchell / 4 Day Haze (We Like The Music)"
   PERFORMER "Mixed by Lucien Foort"
   INDEX 01 00:00:00
FILE "15. Silk _ U Spin Me.flac" WAVE
  TRACK 15 AUDIO
   TITLE "Silk / U Spin Me"
   PERFORMER "Mixed by Lucien Foort"
   INDEX 01 00:00:00
And here by EAC:
Code: [Select]
REM GENRE Newage
REM DATE 2003
REM DISCID DB11E10F
REM COMMENT "ExactAudioCopy v0.99pb5"
PERFORMER "Various"
TITLE "Slice! Cd01"
FILE "Various - Slice! Cd01\Spincycle - 01 - Drug Games.wav" WAVE
  TRACK 01 AUDIO
   TITLE "Drug Games"
   PERFORMER "Spincycle"
   INDEX 01 00:00:00
FILE "Various - Slice! Cd01\Dj On - 02 - Super Sexy Girl.wav" WAVE
  TRACK 02 AUDIO
   TITLE "Super Sexy Girl"
   PERFORMER "Dj On"
   INDEX 01 00:00:00
FILE "Various - Slice! Cd01\Mazi - 03 - Interplay.wav" WAVE
  TRACK 03 AUDIO
   TITLE "Interplay"
   PERFORMER "Mazi"
   INDEX 01 00:00:00
FILE "Various - Slice! Cd01\Timo Mass feat. Kelis - 04 - Help Me (Locodice Dub).wav" WAVE
  TRACK 04 AUDIO
   TITLE "Help Me (Locodice Dub)"
   PERFORMER "Timo Mass feat. Kelis"
   INDEX 01 00:00:00
FILE "Various - Slice! Cd01\Mickey Blue Eyes - 05 - Keep Me Safe.wav" WAVE
  TRACK 05 AUDIO
   TITLE "Keep Me Safe"
   PERFORMER "Mickey Blue Eyes"
   INDEX 01 00:00:00
FILE "Various - Slice! Cd01\Jef Dam - 06 - Soundtrack (Apollo Kids remix).wav" WAVE
  TRACK 06 AUDIO
   TITLE "Soundtrack (Apollo Kids remix)"
   PERFORMER "Jef Dam"
   INDEX 01 00:00:00
FILE "Various - Slice! Cd01\Elijah - 07 - Deep Soul Music.wav" WAVE
  TRACK 07 AUDIO
   TITLE "Deep Soul Music"
   PERFORMER "Elijah"
   INDEX 01 00:00:00
FILE "Various - Slice! Cd01\Funk Function - 08 - Old Skool House Musik.wav" WAVE
  TRACK 08 AUDIO
   TITLE "Old Skool House Musik"
   PERFORMER "Funk Function"
   INDEX 01 00:00:00
FILE "Various - Slice! Cd01\Silver City - 09 - 1969.wav" WAVE
  TRACK 09 AUDIO
   TITLE "1969"
   PERFORMER "Silver City"
   INDEX 01 00:00:00
FILE "Various - Slice! Cd01\O. C. B. - 10 - Synchronicity.wav" WAVE
  TRACK 10 AUDIO
   TITLE "Synchronicity"
   PERFORMER "O. C. B."
   INDEX 01 00:00:00
FILE "Various - Slice! Cd01\Briggs & Lievense - 11 - Breakdown.wav" WAVE
  TRACK 11 AUDIO
   TITLE "Breakdown"
   PERFORMER "Briggs & Lievense"
   INDEX 01 00:00:00
FILE "Various - Slice! Cd01\Neruda - 12 - Alliance (Club mix).wav" WAVE
  TRACK 12 AUDIO
   TITLE "Alliance (Club mix)"
   PERFORMER "Neruda"
   INDEX 01 00:00:00
FILE "Various - Slice! Cd01\Moguai - 13 - U Know Y (Starecase remix).wav" WAVE
  TRACK 13 AUDIO
   TITLE "U Know Y (Starecase remix)"
   PERFORMER "Moguai"
   INDEX 01 00:00:00
FILE "Various - Slice! Cd01\Ian Ossia & Marc Mitchell - 14 - 4 Day Haze (We Like The Music).wav" WAVE
  TRACK 14 AUDIO
   TITLE "4 Day Haze (We Like The Music)"
   PERFORMER "Ian Ossia & Marc Mitchell"
   INDEX 01 00:00:00
FILE "Various - Slice! Cd01\Silk - 15 - U Spin Me.wav" WAVE
  TRACK 15 AUDIO
   TITLE "U Spin Me"
   PERFORMER "Silk"
   INDEX 01 00:00:00
In both cases all metadata is directly from freedb (I didn't edit it).

Here are a couple of screenshots:

CUERipper's UI - no option for parsing the individual track artists:


EAC's UI - a tickbox for various artists albums:



CUETools versions 1.9.5 through 2.1.5 (current)
Reply #948
I see.
CUETools 2.1.4

  • fadsplat
  • [*]
CUETools versions 1.9.5 through 2.1.5 (current)
Reply #949
I e-mailed the file.