Skip to main content

Topic: Exact Audio Copy V0.99 prebeta 3 (Read 95451 times) previous topic - next topic

0 Members and 1 Guest are viewing this topic.
  • magic75
  • [*][*][*][*][*]
Exact Audio Copy V0.99 prebeta 3
Change Log
- Better AccurateRip support (reading ranges and CD images)
- Improved log file output
- Flac encoder now comes with EAC
- Much improved configuration wizard
- Writing CD-Text using CDRDAO
- Copy and test range
- Added writing new tags for ID3V2 like duration, encoder settings and the CD TOC
- Correction of Xing header after writing ID3V2
- Drive options are now stored by the drive name and not by adapter and LUN
- Fixed many issues and bugs

Homepage & Download: http://www.exactaudiocopy.de/

Alternative: http://www.exactaudiocopy.de/en/index.php/...tive-servers-2/
  • Last Edit: 30 June, 2007, 05:04:32 AM by magic75

  • Synthetic Soul
  • [*][*][*][*][*]
  • Global Moderator
Exact Audio Copy V0.99 prebeta 3
Reply #1
Test & Copy for images.

I guess I'm going to have to give that a try.

Thanks for the info.
I'm on a horse.

  • Fandango
  • [*][*][*][*][*]
Exact Audio Copy V0.99 prebeta 3
Reply #2
<fanboymode>  Eat that dMC!  </fanboymode>

AR and T&C for images! 
FLAC and AR come with the Installer now! 

Great work, Andre!

  • gib
  • [*][*][*]
Exact Audio Copy V0.99 prebeta 3
Reply #3
- Better AccurateRip support (reading ranges and CD images)

So AccurateRip is usable even when ripping to images?  Woo hoo!

  • greynol
  • [*][*][*][*][*]
  • Global Moderator
Exact Audio Copy V0.99 prebeta 3
Reply #4
...and ranges as well.
Your eyes cannot hear.

  • Fandango
  • [*][*][*][*][*]
Exact Audio Copy V0.99 prebeta 3
Reply #5
Yep, since image rips are actually a range copy.

  • greynol
  • [*][*][*][*][*]
  • Global Moderator
Exact Audio Copy V0.99 prebeta 3
Reply #6
Yep, since image rips are actually a range copy.

Nope, there is a distinct difference:  ripping an image is a specific case of copying ranges.
  • Last Edit: 30 June, 2007, 12:54:35 PM by greynol
Your eyes cannot hear.

  • Keykey
  • [*][*]
Exact Audio Copy V0.99 prebeta 3
Reply #7
Installed the new EAC and I am testing the T&C for images.

Ripping now a cd and it will take well over 40 minutes!!!      Read speed is just (while re-reading) 1.2X 

I use Secure Mode and a cd is ripped normally in 7 - 8 minutes. Why does it take so long to "check" the Image?? Am I losing something in the way?

EDIT

LOG:
Quote
Exact Audio Copy V0.99 prebeta 1 from 25. May 2007

EAC extraction logfile from 30. June 2007, 19:04

Aces High / Pull No Punches

Used drive  : PLEXTOR CD-R  PREMIUM  Adapter: 1  ID: 0

Read mode              : Secure
Utilize accurate stream : Yes
Defeat audio cache      : Yes
Make use of C2 pointers : No

Read offset correction                      : 30
Overread into Lead-In and Lead-Out          : Yes
Fill up missing offset samples with silence : Yes
Delete leading and trailing silent blocks  : No
Used interface                              : Installed external ASPI interface

Used output format              : User Defined Encoder
Selected bitrate                : 32 kBit/s
Quality                        : High
Add ID3 tag                    : No
Command line compressor        : C:\Archivos de programa\Exact Audio Copy\wapet.exe
Additional command line options : %d -t "Artist=%a" -t "Title=%t" -t "Album=%g" -t "Year=%y" -t "Track=%n" -t "Genre=%m" mac.exe %s %d -c3000 -v


TOC of the extracted CD

    Track |  Start  |  Length  | Start sector | End sector
    ---------------------------------------------------------
        1  |  0:00.32 |  4:50.65 |        32    |    21846 
        2  |  4:51.22 |  4:23.30 |    21847    |    41601 
        3  |  9:14.52 |  4:02.73 |    41602    |    59824 
        4  | 13:17.50 |  5:33.57 |    59825    |    84856 
        5  | 18:51.32 |  4:20.08 |    84857    |  104364 
        6  | 23:11.40 |  6:30.17 |    104365    |  133631 
        7  | 29:41.57 |  4:21.18 |    133632    |  153224 
        8  | 34:03.00 |  5:04.35 |    153225    |  176059 
        9  | 39:07.35 |  4:29.65 |    176060    |  196299 
      10  | 43:37.25 |  5:14.45 |    196300    |  219894 


Range status and errors

Selected range

    Filename C:\RIPEOS EAC\Aces High - Pull No Punches.wav

    Peak level 0.0 %
    Range quality 97.0 %
    Test CRC 28697CAA
    Copy OK


AccurateRip summary

Track  1  accurately ripped (confidence 1)  [945F87DF]
Track  2  accurately ripped (confidence 1)  [381493BD]
Track  3  accurately ripped (confidence 1)  [A8E4D508]
Track  4  accurately ripped (confidence 1)  [E1B66268]
Track  5  accurately ripped (confidence 1)  [1A80E060]
Track  6  accurately ripped (confidence 1)  [57F8461C]
Track  7  accurately ripped (confidence 1)  [5A7AEA3A]
Track  8  accurately ripped (confidence 1)  [6F112F39]
Track  9  accurately ripped (confidence 1)  [5BC45176]
Track 10  accurately ripped (confidence 1)  [E4A14345]

No errors occurred

End of status report


After over 40 minutes I get a 0.08 MB *.ape file!!!  or    --> don't know what to do! 
  • Last Edit: 30 June, 2007, 01:09:14 PM by Keykey

  • eofor
  • [*][*][*]
Exact Audio Copy V0.99 prebeta 3
Reply #8
10 years in beta - this must be the longest development-stage ever? Google must be jealous

  • Elbart
  • [*][*]
Exact Audio Copy V0.99 prebeta 3
Reply #9
10 years in beta - this must be the longest development-stage ever? Google must be jealous


Another one who fell into the version-number-trap...

  • Fandango
  • [*][*][*][*][*]
Exact Audio Copy V0.99 prebeta 3
Reply #10
After over 40 minutes I get a 0.08 MB *.ape file!!!  or    --> don't know what to do! 

You know what really irritates me here? This:

Code: [Select]
Track 1 accurately ripped (confidence 1) [945F87DF]


While the rip obviously went wrong, correct data was actually extracted at some point... wasn't it? Or did you manage to change your computer ID for AR somehow?
  • Last Edit: 30 June, 2007, 01:32:54 PM by Fandango

  • greynol
  • [*][*][*][*][*]
  • Global Moderator
Exact Audio Copy V0.99 prebeta 3
Reply #11
How do you know that the actual rip went wrong?

Seems like there was a problem with the encoding, not the rip.
  • Last Edit: 30 June, 2007, 01:40:47 PM by greynol
Your eyes cannot hear.

  • Fandango
  • [*][*][*][*][*]
Exact Audio Copy V0.99 prebeta 3
Reply #12
How do you know that the actual rip went wrong?


Quote
Code: [Select]
Peak level 0.0 %


A CD filled with silence?

  • greynol
  • [*][*][*][*][*]
  • Global Moderator
Exact Audio Copy V0.99 prebeta 3
Reply #13
Good point. 
Your eyes cannot hear.

  • Keykey
  • [*][*]
Exact Audio Copy V0.99 prebeta 3
Reply #14
Peak level 0.0 %

I have just noticed this 

I am doing additional rips to see if I find what went wrong 

  • greynol
  • [*][*][*][*][*]
  • Global Moderator
Exact Audio Copy V0.99 prebeta 3
Reply #15
...though it looks like there was only a test CRC that was generated.  Was that the enitre log?

btw, the "-v" in your command line does absolutely nothing(!) (unless it's causing an error).

Why not test one thing at a time instead of blowing your wad all at once?  Try T&C of the image as a wave file.
  • Last Edit: 30 June, 2007, 01:46:49 PM by greynol
Your eyes cannot hear.

  • Fandango
  • [*][*][*][*][*]
Exact Audio Copy V0.99 prebeta 3
Reply #16
...though it looks like there was only a test CRC that was generated.  Was that the enitre log?

Yes! That's odd.  The Copy CRC is missing.

It is possible to save and see the log of a test without actually doing a rip to the disk, but only for Track based tests ("Test Selected Tracks" F8). How did you manage to do "Test Image"? Maybe there is something wrong with the encoder settings and it will make EAC skip the copy part?
  • Last Edit: 30 June, 2007, 01:53:26 PM by Fandango

  • Keykey
  • [*][*]
Exact Audio Copy V0.99 prebeta 3
Reply #17
...though it looks like there was only a test CRC that was generated.  Was that the enitre log?

btw, the "-v" in your command line does absolutely nothing(!) (unless it's causing an error).

Why not test one thing at a time instead of blowing your wad all at once?  Try T&C of the image as a wave file.


1.- Yes, it was the entire log.

2.- Thanks for the tip about the -v commnad. I had never been sure it should be there or not 

This time I did not use the "Test and copy" but just "Copy the Image":

Quote
Exact Audio Copy V0.99 prebeta 1 from 25. May 2007

EAC extraction logfile from 30. June 2007, 19:43

Deep Purple / Machine Head

Used drive  : PLEXTOR CD-R  PREMIUM  Adapter: 1  ID: 0

Read mode              : Secure
Utilize accurate stream : Yes
Defeat audio cache      : Yes
Make use of C2 pointers : No

Read offset correction                      : 30
Overread into Lead-In and Lead-Out          : Yes
Fill up missing offset samples with silence : Yes
Delete leading and trailing silent blocks  : No
Used interface                              : Installed external ASPI interface

Used output format              : User Defined Encoder
Selected bitrate                : 32 kBit/s
Quality                        : High
Add ID3 tag                    : No
Command line compressor        : C:\Archivos de programa\Exact Audio Copy\wapet.exe
Additional command line options : %d -t "Artist=%a" -t "Title=%t" -t "Album=%g" -t "Year=%y" -t "Track=%n" -t "Genre=%m" mac.exe %s %d -c3000


TOC of the extracted CD

    Track |  Start  |  Length  | Start sector | End sector
    ---------------------------------------------------------
        1  |  0:00.33 |  6:08.57 |        33    |    27689 
        2  |  6:09.15 |  4:50.33 |    27690    |    49472 
        3  | 10:59.48 |  5:03.50 |    49473    |    72247 
        4  | 16:03.23 |  3:59.55 |    72248    |    90227 
        5  | 20:03.03 |  5:40.55 |    90228    |  115782 
        6  | 25:43.58 |  7:22.00 |    115783    |  148932 
        7  | 33:05.58 |  4:32.57 |    148933    |  169389 


Range status and errors

Selected range

    Filename C:\RIPEOS EAC\Deep Purple - Machine Head.wav

    Peak level 100.0 %
    Range quality 100.0 %
    Copy CRC 6FBD68AD
    Copy OK


AccurateRip summary

Track  1  accurately ripped (confidence 7)  [648E1CE7]
Track  2  accurately ripped (confidence 7)  [022C25E2]
Track  3  accurately ripped (confidence 7)  [BD1E3539]
Track  4  accurately ripped (confidence 7)  [E1697794]
Track  5  accurately ripped (confidence 8)  [4DF6E910]
Track  6  accurately ripped (confidence 7)  [69A5A7BE]
Track  7  accurately ripped (confidence 7)  [662A3CE0]

No errors occurred

End of status report


Doing now another rip with T&C

  • Fandango
  • [*][*][*][*][*]
Exact Audio Copy V0.99 prebeta 3
Reply #18
But that's a different CD.

  • Keykey
  • [*][*]
Exact Audio Copy V0.99 prebeta 3
Reply #19
But that's a different CD.


Yes.

I am going to try again with the previous one. Results in an hour or so.

  • Synthetic Soul
  • [*][*][*][*][*]
  • Global Moderator
Exact Audio Copy V0.99 prebeta 3
Reply #20
NB: Here's the log from my first image T&C.

Code: [Select]
Exact Audio Copy V0.99 prebeta 1 from 25. May 2007

EAC extraction logfile from 30. June 2007, 14:35

Kings of Leon / Aha Shake Heartbreak

Used drive  : PLEXTOR CD-R  PX-W5224A  Adapter: 1  ID: 0

Read mode              : Secure
Utilize accurate stream : Yes
Defeat audio cache      : Yes
Make use of C2 pointers : Yes

Read offset correction                      : 30
Overread into Lead-In and Lead-Out          : No
Fill up missing offset samples with silence : Yes
Delete leading and trailing silent blocks  : No
Used interface                              : Installed external ASPI interface

Used output format : Internal WAV Routines
Sample format      : 44.100 Hz; 16 Bit; Stereo


TOC of the extracted CD

     Track |  Start  |  Length  | Start sector | End sector
   ---------------------------------------------------------
       1  |  0:00.00 |  3:54.09 |        0    |    17558 
       2  |  3:54.09 |  2:25.36 |    17559    |    28469 
       3  |  6:19.45 |  3:05.43 |    28470    |    42387 
       4  |  9:25.13 |  2:20.52 |    42388    |    52939 
       5  | 11:45.65 |  4:00.20 |    52940    |    70959 
       6  | 15:46.10 |  2:55.44 |    70960    |    84128 
       7  | 18:41.54 |  2:59.24 |    84129    |    97577 
       8  | 21:41.03 |  2:15.63 |    97578    |  107765 
       9  | 23:56.66 |  3:33.01 |    107766    |  123741 
       10  | 27:29.67 |  2:09.33 |    123742    |  133449 
       11  | 29:39.25 |  2:11.00 |    133450    |  143274 
       12  | 31:50.25 |  3:22.39 |    143275    |  158463 
       13  | 35:12.64 |  2:23.61 |    158464    |  169249 


Range status and errors

Selected range

     Filename E:\CDBackup\Kings of Leon - Aha Shake Heartbreak.wav

     Peak level 100.0 %
     Range quality 100.0 %
     Test CRC 95EB659B
     Copy CRC 95EB659B
     Copy OK

 
AccurateRip summary
 
Track  1  accurately ripped (confidence 7)  [26C3C3B3]
Track  2  accurately ripped (confidence 7)  [021E9A14]
Track  3  accurately ripped (confidence 7)  [4C3E3743]
Track  4  accurately ripped (confidence 7)  [4E7A5ED3]
Track  5  accurately ripped (confidence 7)  [4969222B]
Track  6  accurately ripped (confidence 7)  [12513A61]
Track  7  accurately ripped (confidence 7)  [FC28C812]
Track  8  accurately ripped (confidence 7)  [8BA6ECBC]
Track  9  accurately ripped (confidence 7)  [81053A0E]
Track 10  accurately ripped (confidence 7)  [EB37A4B2]
Track 11  accurately ripped (confidence 7)  [99260264]
Track 12  accurately ripped (confidence 7)  [CD02F674]
Track 13  accurately ripped (confidence 7)  [7E6B6A3B]
 
No errors occurred

End of status report
I'm on a horse.

Exact Audio Copy V0.99 prebeta 3
Reply #21
Only the alternate download links go to 0.99 PB1 for me... the main links still point to 0.95 B4.
"Have you ever been with a woman? It's like death. You moan, you scream and then you start to beg for mercy, for salvation"

  • Keykey
  • [*][*]
Exact Audio Copy V0.99 prebeta 3
Reply #22
Same result, again 

Code: [Select]
Exact Audio Copy V0.99 prebeta 1 from 25. May 2007

EAC extraction logfile from 30. June 2007, 21:10

Aces High / Pull No Punches

Used drive  : PLEXTOR CD-R   PREMIUM   Adapter: 1  ID: 0

Read mode               : Secure
Utilize accurate stream : Yes
Defeat audio cache      : Yes
Make use of C2 pointers : No

Read offset correction                      : 30
Overread into Lead-In and Lead-Out          : Yes
Fill up missing offset samples with silence : Yes
Delete leading and trailing silent blocks   : No
Used interface                              : Installed external ASPI interface

Used output format              : User Defined Encoder
Selected bitrate                : 32 kBit/s
Quality                         : High
Add ID3 tag                     : No
Command line compressor         : C:\Archivos de programa\Exact Audio Copy\wapet.exe
Additional command line options : %d -t "Artist=%a" -t "Title=%t" -t "Album=%g" -t "Year=%y" -t "Track=%n" -t "Genre=%m" mac.exe %s %d -c3000


TOC of the extracted CD

     Track |   Start  |  Length  | Start sector | End sector
    ---------------------------------------------------------
        1  |  0:00.32 |  4:50.65 |        32    |    21846  
        2  |  4:51.22 |  4:23.30 |     21847    |    41601  
        3  |  9:14.52 |  4:02.73 |     41602    |    59824  
        4  | 13:17.50 |  5:33.57 |     59825    |    84856  
        5  | 18:51.32 |  4:20.08 |     84857    |   104364  
        6  | 23:11.40 |  6:30.17 |    104365    |   133631  
        7  | 29:41.57 |  4:21.18 |    133632    |   153224  
        8  | 34:03.00 |  5:04.35 |    153225    |   176059  
        9  | 39:07.35 |  4:29.65 |    176060    |   196299  
       10  | 43:37.25 |  5:14.45 |    196300    |   219894  


Range status and errors

Selected range

     Filename C:\RIPEOS EAC\Aces High - Pull No Punches.wav

     Peak level 0.0 %
     Range quality 97.0 %
     Test CRC 28697CAA
     Copy OK


AccurateRip summary

Track  1  accurately ripped (confidence 1)  [945F87DF]
Track  2  accurately ripped (confidence 1)  [381493BD]
Track  3  accurately ripped (confidence 1)  [A8E4D508]
Track  4  accurately ripped (confidence 1)  [E1B66268]
Track  5  accurately ripped (confidence 1)  [1A80E060]
Track  6  accurately ripped (confidence 1)  [57F8461C]
Track  7  accurately ripped (confidence 1)  [5A7AEA3A]
Track  8  accurately ripped (confidence 1)  [6F112F39]
Track  9  accurately ripped (confidence 1)  [5BC45176]
Track 10  accurately ripped (confidence 1)  [E4A14345]

No errors occurred

End of status report

  • prankstare
  • [*][*]
Exact Audio Copy V0.99 prebeta 3
Reply #23
Nice,

Besides the fact FLAC codec is now packed together with the new release, EAC will now store their log file into the extracting directory. Speaking of changes, the selective bitrate range now goes from 32 to 1024kBit/s in 'User Defined Encoder' parameter.

Slight changes but, Wow. Great job.

  • odyssey
  • [*][*][*][*][*]
Exact Audio Copy V0.99 prebeta 3
Reply #24
SERIOUS BUG FOUND!

When you tick "Eject CD after extraction", and performs a T/C image, it will eject the CD after the test is done, and proceed ripping as if the disc were present.
Can't wait for a HD-AAC encoder :P