Skip to main content

Topic: Exact Audio Copy V0.99 prebeta 3 (Read 95602 times) previous topic - next topic

0 Members and 1 Guest are viewing this topic.
  • Keykey
  • [*][*]
Exact Audio Copy V0.99 prebeta 3
Reply #75
Quote
If the option “Remove leading and trailing silence” is disabled, most probably not the full track is extracted and can not be checked against the AccurateRip database


I find this statement quite contradictory, isn't it?

  • bryanb
  • [*]
Exact Audio Copy V0.99 prebeta 3
Reply #76
Quote
If the option “Remove leading and trailing silence” is disabled, most probably not the full track is extracted and can not be checked against the AccurateRip database


I find this statement quite contradictory, isn't it?



I totally agree, I have always had it disabled, but after seeing the same problem you mention I turned it on and I did not see any AccurateRip errors. I have not tried this with too many discs, and based on this thread, I'm not too sure it it's a good idea or not to keep it on.

Below is an interesting thread on the setting:

http://www.hydrogenaudio.org/forums/index....c=54667&hl=



Bryan

Exact Audio Copy V0.99 prebeta 3
Reply #77
Well if it makes you feel better now that I am ripping a lot of discs myself with Accuraterip for the first time (other than testing drives) I am finding quite a bit of discs similarly flagged as inaccurate.  Though these are mostly pristine only played a few times and I verify the rip by doing it again in secure mode.  I just think for whatever reason I tend to get the 'other' pressings that nobody else has.
"Have you ever been with a woman? It's like death. You moan, you scream and then you start to beg for mercy, for salvation"

  • bryanb
  • [*]
Exact Audio Copy V0.99 prebeta 3
Reply #78
I was seeing similar behavior and when reading the AccurateRip page on the EAC site, one of the bullets says:
  • If the option “Remove leading and trailing silence” is disabled, most probably not the full track is extracted and can not be checked against the AccurateRip database
I see where you have it disabled in your config. I originally had it disabled too and after turning it back on, my results have been better.


Bryan


O.K. now I feel like a total idiot....

I should have looked a little closer at my log files. When selecting the option "Delete leading and trailing silent blocks" the log file does not even show AccurateRip results. That would explain why when turning it on, I did not see any errors. When unchecking the option, the log file shows the AccurateRip results once again.

So please disregard my previous post.


Bryan

  • greynol
  • [*][*][*][*][*]
  • Global Moderator
Exact Audio Copy V0.99 prebeta 3
Reply #79
I am starting to get tired of this "accuraterip" thingie 
AccurateRip 101:  AccurateRip can never prove that a rip is not accurate.

Anyhow this is already being addressed...
http://www.hydrogenaudio.org/forums/index....showtopic=55914
13 February 2016: The world was blessed with the passing of a truly vile and wretched person.

Your eyes cannot hear.

  • Fandango
  • [*][*][*][*][*]
Exact Audio Copy V0.99 prebeta 3
Reply #80
Anyhow this is already being addressed...

I'd say that the more people notice and complain (SPAM!) about this the more apparent it becomes that this is a real design flaw in the application interacting with the user.
  • Last Edit: 18 July, 2007, 02:52:37 PM by Fandango

  • greynol
  • [*][*][*][*][*]
  • Global Moderator
Exact Audio Copy V0.99 prebeta 3
Reply #81
Anyhow this is already being addressed...
I'd say that the more people notice and complain (SPAM!) about this the more apparent it becomes that this is a real design flaw in the application interacting with the user.
No need.  I can assure you that this is being taken care of.  Maybe you'd like to help; if so, send me a PM.


Just to tie up a loose end...
Code: [Select]
Track 1 accurately ripped (confidence 1) [945F87DF]

While the rip obviously went wrong, correct data was actually extracted at some point... wasn't it? Or did you manage to change your computer ID for AR somehow?
This was in response to Keykey's first post.

I think the problem AndersHu brought up in another thread answers the question:
Test & Copy Image & Create CUE Sheet Uncompressed uses the Test extraction, not the Copy extraction for AccurateRip.


Keykey,
If you're there, can you try to reproduce the problem again by selecting "Eject CD after extraction finished", but this time have EAC use "Native Win32 interface for Win NT/2000/XP"?

You'll need to run EAC with administrative rights in order to do this.
  • Last Edit: 22 July, 2007, 07:51:38 PM by greynol
13 February 2016: The world was blessed with the passing of a truly vile and wretched person.

Your eyes cannot hear.

  • dewey1973
  • [*][*][*][*]
Exact Audio Copy V0.99 prebeta 3
Reply #82
Has anyone else noticed that when you use test and copy image the percent complete in the status bar button only goes to 50% and not 100%.  I'm using REACT so it may be an issue with that.

  • dewey1973
  • [*][*][*][*]
Exact Audio Copy V0.99 prebeta 3
Reply #83
When I run a Test & Copy Image on an enhanced CD I get the following result:

Code: [Select]
Exact Audio Copy V0.99 prebeta 1 from 25. May 2007

EAC extraction logfile from 8. August 2007, 10:36

Billy Joel / Piano Man (1998 Re-Release)

Used drive  : Optiarc DVD RW AD-5540A  Adapter: 1  ID: 0

Read mode              : Secure
Utilize accurate stream : Yes
Defeat audio cache      : No
Make use of C2 pointers : No

Read offset correction                      : 48
Overread into Lead-In and Lead-Out          : No
Fill up missing offset samples with silence : Yes
Delete leading and trailing silent blocks  : No
Used interface                              : Native Win32 interface for Win NT & 2000

Used output format              : User Defined Encoder
Selected bitrate                : 128 kBit/s
Quality                        : High
Add ID3 tag                    : No
Command line compressor        : C:\Program Files\REACT2\REACT.exe
Additional command line options : REACT %o %s %d "%a" "%g" "%t" "%n" "%x" "%y" "%m" "%e" "%f" "%b" %r


TOC of the extracted CD

     Track |  Start  |  Length  | Start sector | End sector
   ---------------------------------------------------------
       1  |  0:00.00 |  4:16.24 |        0    |    19223 
       2  |  4:16.24 |  5:38.59 |    19224    |    44632 
       3  |  9:55.08 |  3:18.71 |    44633    |    59553 
       4  | 13:14.04 |  3:13.40 |    59554    |    74068 
       5  | 16:27.44 |  5:42.24 |    74069    |    99742 
       6  | 22:09.68 |  3:15.41 |    99743    |  114408 
       7  | 25:25.34 |  3:55.30 |    114409    |  132063 
       8  | 29:20.64 |  3:34.15 |    132064    |  148128 
       9  | 32:55.04 |  3:20.08 |    148129    |  163136 
       10  | 36:15.12 |  7:17.12 |    163137    |  195923 
       11  | 46:04.24 |  7:22.39 |    207324    |  240512 


Range status and errors

Selected range

     Filename C:\My Documents\My Music\CD Images\Billy Joel - Piano Man (1998 Re-Release) [1973].wav

     Peak level 99.8 %
     Range quality 100.0 %
     Test CRC 2AEAB7B6
     Copy CRC 2AEAB7B6
     Copy OK

 
AccurateRip summary
 
Track  1  accurately ripped (confidence 5)  [79DE2726]
Track  2  accurately ripped (confidence 5)  [D58625FD]
Track  3  accurately ripped (confidence 5)  [A01AC1C4]
Track  4  accurately ripped (confidence 5)  [78FE15F0]
Track  5  accurately ripped (confidence 5)  [A44277E1]
Track  6  accurately ripped (confidence 5)  [9BF7CF3B]
Track  7  accurately ripped (confidence 5)  [9D24C251]
Track  8  accurately ripped (confidence 5)  [D3DC56FF]
Track  9  accurately ripped (confidence 5)  [671A1933]
Track 10  not ripped completely
Track 11  not ripped completely
 
No errors occurred

End of status report

The last two tracks (one audio, one data) report as "not ripped completely" even though the rip occurred with no errors.  Do I have something set incorrectly or is this just due to the way AccurateRip for images works via the TOC to determine where the tracks begin and end?

  • greynol
  • [*][*][*][*][*]
  • Global Moderator
Exact Audio Copy V0.99 prebeta 3
Reply #84
This has been addressed already and should be fixed in the next version.
  • Last Edit: 08 August, 2007, 04:03:56 PM by greynol
13 February 2016: The world was blessed with the passing of a truly vile and wretched person.

Your eyes cannot hear.

  • dewey1973
  • [*][*][*][*]
Exact Audio Copy V0.99 prebeta 3
Reply #85
This has been addressed already and should be fixed in the next version.

Thanks.  Any idea about the 50% thing?  Also, why does the log file not automatically save for Test & Copy Image until after you hit the OK button?  This doesn't seem to be a problem with Copy Image.

  • ChesterB
  • [*]
Exact Audio Copy V0.99 prebeta 3
Reply #86
From www.exactaudiocopy.de

Quote
August 16, 2007

As the 0.99 prebeta 1 had some severe bugs and the accurate rip log output was not as clear as it could have been, so some wordings are now changed. I hope this version will be much more stable… Enjoy!

  • Jens Rex
  • [*][*][*][*][*]
  • Global Moderator
Exact Audio Copy V0.99 prebeta 3
Reply #87
Merged prebeta2 news submission into existing EAC news thread.

Edit: Download link is still this:

http://www.exactaudiocopy.de/en/index.php/...tive-servers-2/

I have no idea why André isn't updating the front page.
  • Last Edit: 17 August, 2007, 09:12:58 AM by JensRex

  • Fandango
  • [*][*][*][*][*]
Exact Audio Copy V0.99 prebeta 3
Reply #88
I think he can't...  someone else is maintaining the website for him.

Btw, anyone got a changelog? Would be nice to know what bugs were fixed.

  • greynol
  • [*][*][*][*][*]
  • Global Moderator
Exact Audio Copy V0.99 prebeta 3
Reply #89
I can tell you all the bugs that I tested that were fixed, but will have to do this a little later, ok?

Caveat:
Some changes were made to the last sub-version that I used to test before pb2 was released and I'm not sure what they are.  I was also not part of the group involved the last round of testing after the AR reporting and bug fixes (as shown in my next post) were ironed-out.
  • Last Edit: 18 August, 2007, 12:51:34 PM by greynol
13 February 2016: The world was blessed with the passing of a truly vile and wretched person.

Your eyes cannot hear.

  • qristus
  • [*][*][*]
  • Members (Donating)
Exact Audio Copy V0.99 prebeta 3
Reply #90
I just went to the link mentioned to upgrade and apparently prebeta 3 is already out. No idea what's changed.

Edit: Apparently the main page has also been updated now with some changes:
Quote
August 17, 2007

Bad luck, it is not possible to load the 0.99pb1 profiles anymore, this should be fixed now, please use 0.99 prebeta 3
August 16, 2007

As the 0.99 prebeta 1 had some severe bugs and the accurate rip log output was not as clear as it could have been, so some wordings are now changed. I hope this version will be much more stable… Enjoy!
  • Last Edit: 18 August, 2007, 07:41:06 AM by qristus

  • Dr. Oviri
  • [*][*][*]
  • Banned
Exact Audio Copy V0.99 prebeta 3
Reply #91
Great work Andre 

  • greynol
  • [*][*][*][*][*]
  • Global Moderator
Exact Audio Copy V0.99 prebeta 3
Reply #92
pb3 was released because people were unable to use profiles created in pb1, but now it appears pb3 can't read profiles from pb2 (I haven't verified this and probably won't bother trying).  Hopefully no one is reverting back to pb1 because of this!

At the risk of repeating myself in this thread, Andre hosts a forum in both German and English over at
http://www.digital-inn.de/forum271

As for the bug fixes, and these are off the top of my head (I will come back and revise this post later if need be):
  • When using test & copy (tracks or images), the copy pass is now used to generate AR results.
  • The "Eject CD after extraction finished" bug was fixed.
  • AR lookup of the last track on an enhanced disc now works correctly.
  • AR lookup of tracks with pregaps prepended (test or copy passes) now works correctly.
  • AR lookup of individual indices now works correctly.
  • AR lookup of ranges now works correctly.
  • AR lookup of short tracks now works correctly.
  • Range rips (F7) immediately following a test pass operation (F8) are no longer done in test mode.
  • Information from a previous rip is no longer included in the log for a rip that gets cancelled.
The very first bugfix listed is (IMO) major, and for this reason I don't think anyone should be using V0.99pb1.
  • Last Edit: 18 August, 2007, 01:06:54 PM by greynol
13 February 2016: The world was blessed with the passing of a truly vile and wretched person.

Your eyes cannot hear.

Exact Audio Copy V0.99 prebeta 3
Reply #93
Anyone else having problems with pb3 crashing?  I've been able to rip a few cds, but about half the time it crashes when I load a disc.

  • greynol
  • [*][*][*][*][*]
  • Global Moderator
Exact Audio Copy V0.99 prebeta 3
Reply #94
Anyone else having problems with pb3 crashing?  I've been able to rip a few cds, but about half the time it crashes when I load a disc.
From the looks of the other thread you started, pb3 isn't the only version that is crashing.

On another note, Andre has elaborated more on the change from pb2 to pb3:
http://www.digital-inn.de/exact-audio-copy...3-released.html
13 February 2016: The world was blessed with the passing of a truly vile and wretched person.

Your eyes cannot hear.

  • Rain
  • [*][*][*]
Exact Audio Copy V0.99 prebeta 3
Reply #95
Hope unicode is supported soon.

  • NightOwl
  • [*][*]
Exact Audio Copy V0.99 prebeta 3
Reply #96
Can someone do the following test. Submit your accuraterip results to clear any stored.

Then rip 5 common cds as single tracks, then another 5 different cds as image. After this do the submission by email, and give the email a title:

EAC .99 pb1 ar test

Then post here to stop 100's of submissions , that way I can check this new version is working correctly.

spoon,

It doesn't appear that anyone has responded to your request yet. As you requested, here are the log files from 5 CDs ripped as tracks, and another 5 CDs ripped as images. I skipped EAC 0.99 prebeta 1 because of the reported problems, so everything here is from EAC 0.99 prebeta 3.

And I sent you an e-mail as requested.

5 CDs ripped as tracks:

Code: [Select]
Exact Audio Copy V0.99 prebeta 3 from 28. July 2007

EAC extraction logfile from 30. August 2007, 10:00

The Beatles / Abbey Road

Used drive  : SONY    DVD RW DRU-810A  Adapter: 3  ID: 0

Read mode              : Secure
Utilize accurate stream : Yes
Defeat audio cache      : Yes
Make use of C2 pointers : No

Read offset correction                      : 618
Overread into Lead-In and Lead-Out          : No
Fill up missing offset samples with silence : Yes
Delete leading and trailing silent blocks  : No
Null samples used in CRC calculations      : Yes
Used interface                              : Installed external ASPI interface
Gap handling                                : Not detected, thus appended to previous track

Used output format : Internal WAV Routines
Sample format      : 44.100 Hz; 16 Bit; Stereo


TOC of the extracted CD

     Track |  Start  |  Length  | Start sector | End sector
   ---------------------------------------------------------
       1  |  0:00.33 |  4:20.47 |        33    |    19579 
       2  |  4:21.05 |  3:03.00 |    19580    |    33304 
       3  |  7:24.05 |  3:27.20 |    33305    |    48849 
       4  | 10:51.25 |  3:26.53 |    48850    |    64352 
       5  | 14:18.03 |  2:51.12 |    64353    |    77189 
       6  | 17:09.15 |  7:47.13 |    77190    |  112227 
       7  | 24:56.28 |  3:05.42 |    112228    |  126144 
       8  | 28:01.70 |  2:45.40 |    126145    |  138559 
       9  | 30:47.35 |  4:02.30 |    138560    |  156739 
       10  | 34:49.65 |  2:26.23 |    156740    |  167712 
       11  | 37:16.13 |  1:06.22 |    167713    |  172684 
       12  | 38:22.35 |  1:12.55 |    172685    |  178139 
       13  | 39:35.15 |  1:57.55 |    178140    |  186969 
       14  | 41:32.70 |  1:31.43 |    186970    |  193837 
       15  | 43:04.38 |  1:36.65 |    193838    |  201102 
       16  | 44:41.28 |  2:19.62 |    201103    |  211589 
       17  | 47:01.15 |  0:23.20 |    211590    |  213334 


Track  1

     Filename C:\Temp\The Beatles\Abbey Road\01 - Come Together.wav

     Peak level 63.3 %
     Track quality 100.0 %
     Copy CRC B1A081D5
     Accurately ripped (confidence 134)  [C4962893]
     Copy OK

Track  2

     Filename C:\Temp\The Beatles\Abbey Road\02 - Something.wav

     Peak level 63.8 %
     Track quality 100.0 %
     Copy CRC 25B3CA39
     Accurately ripped (confidence 134)  [0EDD3279]
     Copy OK

Track  3

     Filename C:\Temp\The Beatles\Abbey Road\03 - Maxwell's Silver Hammer.wav

     Peak level 61.0 %
     Track quality 100.0 %
     Copy CRC AB9CF5F8
     Accurately ripped (confidence 132)  [CA819ECA]
     Copy OK

Track  4

     Filename C:\Temp\The Beatles\Abbey Road\04 - Oh! Darling.wav

     Peak level 64.5 %
     Track quality 100.0 %
     Copy CRC 4D46094A
     Accurately ripped (confidence 134)  [7E0A8C68]
     Copy OK

Track  5

     Filename C:\Temp\The Beatles\Abbey Road\05 - Octopus's Garden.wav

     Peak level 63.8 %
     Track quality 100.0 %
     Copy CRC D6F3BFF1
     Accurately ripped (confidence 133)  [23A0758B]
     Copy OK

Track  6

     Filename C:\Temp\The Beatles\Abbey Road\06 - I Want You (She's So Heavy).wav

     Peak level 66.8 %
     Track quality 100.0 %
     Copy CRC 66230CD2
     Accurately ripped (confidence 132)  [7B0D72D8]
     Copy OK

Track  7

     Filename C:\Temp\The Beatles\Abbey Road\07 - Here Comes the Sun.wav

     Peak level 72.4 %
     Track quality 100.0 %
     Copy CRC 3AC77312
     Accurately ripped (confidence 133)  [442DD3D1]
     Copy OK

Track  8

     Filename C:\Temp\The Beatles\Abbey Road\08 - Because.wav

     Peak level 65.2 %
     Track quality 100.0 %
     Copy CRC D2041A67
     Accurately ripped (confidence 131)  [E34884B2]
     Copy OK

Track  9

     Filename C:\Temp\The Beatles\Abbey Road\09 - You Never Give Me Your Money.wav

     Peak level 77.2 %
     Track quality 99.9 %
     Copy CRC C9130B8E
     Accurately ripped (confidence 132)  [6D372AD6]
     Copy OK

Track 10

     Filename C:\Temp\The Beatles\Abbey Road\10 - Sun King.wav

     Peak level 61.1 %
     Track quality 100.0 %
     Copy CRC F34302C8
     Accurately ripped (confidence 130)  [0340DAE2]
     Copy OK

Track 11

     Filename C:\Temp\The Beatles\Abbey Road\11 - Mean Mr. Mustard.wav

     Peak level 89.4 %
     Track quality 100.0 %
     Copy CRC 42708A22
     Accurately ripped (confidence 132)  [77DC0635]
     Copy OK

Track 12

     Filename C:\Temp\The Beatles\Abbey Road\12 - Polythene Pam.wav

     Peak level 79.9 %
     Track quality 99.8 %
     Copy CRC 5ABA5D21
     Accurately ripped (confidence 131)  [BCE3FBB7]
     Copy OK

Track 13

     Filename C:\Temp\The Beatles\Abbey Road\13 - She Came in Through the Bathroom Window.wav

     Peak level 75.8 %
     Track quality 100.0 %
     Copy CRC 316BE04F
     Accurately ripped (confidence 132)  [6E912649]
     Copy OK

Track 14

     Filename C:\Temp\The Beatles\Abbey Road\14 - Golden Slumbers.wav

     Peak level 77.2 %
     Track quality 100.0 %
     Copy CRC 8DA82C25
     Accurately ripped (confidence 127)  [8F8283D0]
     Copy OK

Track 15

     Filename C:\Temp\The Beatles\Abbey Road\15 - Carry That Weight.wav

     Peak level 77.0 %
     Track quality 100.0 %
     Copy CRC 0410F19C
     Accurately ripped (confidence 127)  [4984B8C6]
     Copy OK

Track 16

     Filename C:\Temp\The Beatles\Abbey Road\16 - The End.wav

     Peak level 88.3 %
     Track quality 99.9 %
     Copy CRC 4B71A94C
     Accurately ripped (confidence 129)  [E6D37BC5]
     Copy OK

Track 17

     Filename C:\Temp\The Beatles\Abbey Road\17 - Her Majesty.wav

     Peak level 54.2 %
     Track quality 99.5 %
     Copy CRC B04FA230
     Accurately ripped (confidence 131)  [2A53610A]
     Copy OK


All tracks accurately ripped

No errors occurred

End of status report

Code: [Select]
Exact Audio Copy V0.99 prebeta 3 from 28. July 2007

EAC extraction logfile from 30. August 2007, 9:28

Evanescence / Fallen

Used drive  : SONY    DVD RW DRU-810A  Adapter: 3  ID: 0

Read mode              : Secure
Utilize accurate stream : Yes
Defeat audio cache      : Yes
Make use of C2 pointers : No

Read offset correction                      : 618
Overread into Lead-In and Lead-Out          : No
Fill up missing offset samples with silence : Yes
Delete leading and trailing silent blocks  : No
Null samples used in CRC calculations      : Yes
Used interface                              : Installed external ASPI interface
Gap handling                                : Not detected, thus appended to previous track

Used output format : Internal WAV Routines
Sample format      : 44.100 Hz; 16 Bit; Stereo


TOC of the extracted CD

     Track |  Start  |  Length  | Start sector | End sector
   ---------------------------------------------------------
       1  |  0:00.00 |  3:35.00 |        0    |    16124 
       2  |  3:35.00 |  3:57.13 |    16125    |    33912 
       3  |  7:32.13 |  3:16.00 |    33913    |    48612 
       4  | 10:48.13 |  4:24.07 |    48613    |    68419 
       5  | 15:12.20 |  3:06.58 |    68420    |    82427 
       6  | 18:19.03 |  4:38.05 |    82428    |  103282 
       7  | 22:57.08 |  4:17.40 |    103283    |  122597 
       8  | 27:14.48 |  3:49.62 |    122598    |  139834 
       9  | 31:04.35 |  3:40.38 |    139835    |  156372 
       10  | 34:44.73 |  4:07.27 |    156373    |  174924 
       11  | 38:52.25 |  5:27.43 |    174925    |  199492 


Track  1

     Filename C:\Temp\Evanescence\Fallen\01 - Going Under.wav

     Peak level 99.8 %
     Track quality 100.0 %
     Copy CRC 0A5D7FD7
     Accurately ripped (confidence 25)  [8F535557]
     Copy OK

Track  2

     Filename C:\Temp\Evanescence\Fallen\02 - Bring Me to Life.wav

     Peak level 98.8 %
     Track quality 100.0 %
     Copy CRC 7BD5686D
     Accurately ripped (confidence 23)  [1750257E]
     Copy OK

Track  3

     Filename C:\Temp\Evanescence\Fallen\03 - Everybody's Fool.wav

     Peak level 99.8 %
     Track quality 100.0 %
     Copy CRC 3C47E62C
     Accurately ripped (confidence 22)  [E6CD1A8E]
     Copy OK

Track  4

     Filename C:\Temp\Evanescence\Fallen\04 - My Immortal.wav

     Peak level 96.5 %
     Track quality 100.0 %
     Copy CRC 5E440F68
     Accurately ripped (confidence 21)  [97FCA5B3]
     Copy OK

Track  5

     Filename C:\Temp\Evanescence\Fallen\05 - Haunted.wav

     Peak level 99.8 %
     Track quality 100.0 %
     Copy CRC FC5D40F2
     Accurately ripped (confidence 21)  [CFC95545]
     Copy OK

Track  6

     Filename C:\Temp\Evanescence\Fallen\06 - Tourniquet.wav

     Peak level 99.8 %
     Track quality 100.0 %
     Copy CRC 7F01C505
     Accurately ripped (confidence 22)  [955CFF00]
     Copy OK

Track  7

     Filename C:\Temp\Evanescence\Fallen\07 - Imaginary.wav

     Peak level 99.8 %
     Track quality 100.0 %
     Copy CRC 5560BECB
     Accurately ripped (confidence 22)  [ACB018DA]
     Copy OK

Track  8

     Filename C:\Temp\Evanescence\Fallen\08 - Taking Over Me.wav

     Peak level 99.8 %
     Track quality 100.0 %
     Copy CRC 1A882020
     Accurately ripped (confidence 22)  [775017CA]
     Copy OK

Track  9

     Filename C:\Temp\Evanescence\Fallen\09 - Hello.wav

     Peak level 98.1 %
     Track quality 99.9 %
     Copy CRC 31D8A32D
     Accurately ripped (confidence 21)  [E29E8A6B]
     Copy OK

Track 10

     Filename C:\Temp\Evanescence\Fallen\10 - My Last Breath.wav

     Peak level 99.8 %
     Track quality 99.9 %
     Copy CRC 258CA6F1
     Accurately ripped (confidence 21)  [FD64AEE0]
     Copy OK

Track 11

     Filename C:\Temp\Evanescence\Fallen\11 - Whisper.wav

     Peak level 99.8 %
     Track quality 100.0 %
     Copy CRC 6695FA1E
     Accurately ripped (confidence 18)  [CECBB17F]
     Copy OK


All tracks accurately ripped

No errors occurred

End of status report

Code: [Select]
Exact Audio Copy V0.99 prebeta 3 from 28. July 2007

EAC extraction logfile from 29. August 2007, 19:29

Seal / Best - 1991-2004 - CD 1, Original Version of the Hits

Used drive  : SONY    DVD RW DRU-810A  Adapter: 3  ID: 0

Read mode              : Secure
Utilize accurate stream : Yes
Defeat audio cache      : Yes
Make use of C2 pointers : No

Read offset correction                      : 618
Overread into Lead-In and Lead-Out          : No
Fill up missing offset samples with silence : Yes
Delete leading and trailing silent blocks  : No
Null samples used in CRC calculations      : Yes
Used interface                              : Installed external ASPI interface
Gap handling                                : Not detected, thus appended to previous track

Used output format : Internal WAV Routines
Sample format      : 44.100 Hz; 16 Bit; Stereo


TOC of the extracted CD

     Track |  Start  |  Length  | Start sector | End sector
   ---------------------------------------------------------
       1  |  0:00.00 |  5:56.62 |        0    |    26761 
       2  |  5:56.62 |  4:48.50 |    26762    |    48411 
       3  | 10:45.37 |  6:23.03 |    48412    |    77139 
       4  | 17:08.40 |  5:30.55 |    77140    |  101944 
       5  | 22:39.20 |  3:43.37 |    101945    |  118706 
       6  | 26:22.57 |  6:19.38 |    118707    |  147169 
       7  | 32:42.20 |  3:44.20 |    147170    |  163989 
       8  | 36:26.40 |  4:38.00 |    163990    |  184839 
       9  | 41:04.40 |  3:18.27 |    184840    |  199716 
       10  | 44:22.67 |  3:58.25 |    199717    |  217591 
       11  | 48:21.17 |  4:14.15 |    217592    |  236656 
       12  | 52:35.32 |  5:02.05 |    236657    |  259311 
       13  | 57:37.37 |  4:35.48 |    259312    |  279984 
       14  | 62:13.10 |  4:19.32 |    279985    |  299441 


Track  1

     Filename C:\Temp\Seal\Best - 1991-2004 - CD 1, Original Version of the Hits\01 - Crazy.wav

     Peak level 98.8 %
     Track quality 100.0 %
     Copy CRC 9A09DC9D
     Accurately ripped (confidence 24)  [FCF54520]
     Copy OK

Track  2

     Filename C:\Temp\Seal\Best - 1991-2004 - CD 1, Original Version of the Hits\02 - Kiss from a Rose.wav

     Peak level 98.1 %
     Track quality 100.0 %
     Copy CRC A8E0D10E
     Accurately ripped (confidence 24)  [748E7E47]
     Copy OK

Track  3

     Filename C:\Temp\Seal\Best - 1991-2004 - CD 1, Original Version of the Hits\03 - Killer.wav

     Peak level 98.8 %
     Track quality 100.0 %
     Copy CRC D7501DE9
     Accurately ripped (confidence 24)  [8BADC9FF]
     Copy OK

Track  4

     Filename C:\Temp\Seal\Best - 1991-2004 - CD 1, Original Version of the Hits\04 - Prayer for the Dying.wav

     Peak level 98.8 %
     Track quality 99.9 %
     Copy CRC 696C3EBA
     Accurately ripped (confidence 25)  [8D9BCE26]
     Copy OK

Track  5

     Filename C:\Temp\Seal\Best - 1991-2004 - CD 1, Original Version of the Hits\05 - Waiting for You.wav

     Peak level 98.7 %
     Track quality 99.9 %
     Copy CRC A4A355E1
     Accurately ripped (confidence 25)  [C81370ED]
     Copy OK

Track  6

     Filename C:\Temp\Seal\Best - 1991-2004 - CD 1, Original Version of the Hits\06 - Don't Cry.wav

     Peak level 98.8 %
     Track quality 100.0 %
     Copy CRC 9B6F4E02
     Accurately ripped (confidence 25)  [66DD7112]
     Copy OK

Track  7

     Filename C:\Temp\Seal\Best - 1991-2004 - CD 1, Original Version of the Hits\07 - My Vision (feat. Jakatta).wav

     Peak level 98.8 %
     Track quality 100.0 %
     Copy CRC CB363440
     Accurately ripped (confidence 25)  [8ED72E78]
     Copy OK

Track  8

     Filename C:\Temp\Seal\Best - 1991-2004 - CD 1, Original Version of the Hits\08 - Love's Divine.wav

     Peak level 96.0 %
     Track quality 100.0 %
     Copy CRC 6C99AAC8
     Accurately ripped (confidence 25)  [47957393]
     Copy OK

Track  9

     Filename C:\Temp\Seal\Best - 1991-2004 - CD 1, Original Version of the Hits\09 - Walk On By.wav

     Peak level 98.8 %
     Track quality 100.0 %
     Copy CRC 2151D9B2
     Accurately ripped (confidence 25)  [F053DDBB]
     Copy OK

Track 10

     Filename C:\Temp\Seal\Best - 1991-2004 - CD 1, Original Version of the Hits\10 - Get It Together.wav

     Peak level 100.0 %
     Track quality 100.0 %
     Copy CRC 6DE7AF7C
     Accurately ripped (confidence 25)  [EBC5B6E4]
     Copy OK

Track 11

     Filename C:\Temp\Seal\Best - 1991-2004 - CD 1, Original Version of the Hits\11 - Fly Like an Eagle.wav

     Peak level 98.8 %
     Track quality 100.0 %
     Copy CRC 50E97707
     Accurately ripped (confidence 25)  [0F8CBA14]
     Copy OK

Track 12

     Filename C:\Temp\Seal\Best - 1991-2004 - CD 1, Original Version of the Hits\12 - Lips Like Sugar (feat. Mikey Dread).wav

     Peak level 97.3 %
     Track quality 100.0 %
     Copy CRC 30200E7F
     Accurately ripped (confidence 25)  [5891D004]
     Copy OK

Track 13

     Filename C:\Temp\Seal\Best - 1991-2004 - CD 1, Original Version of the Hits\13 - Human Beings.wav

     Peak level 98.8 %
     Track quality 100.0 %
     Copy CRC 12F4E777
     Accurately ripped (confidence 25)  [4EDCF3C9]
     Copy OK

Track 14

     Filename C:\Temp\Seal\Best - 1991-2004 - CD 1, Original Version of the Hits\14 - Future Love Paradise.wav

     Peak level 98.8 %
     Track quality 100.0 %
     Copy CRC D02965FA
     Accurately ripped (confidence 24)  [6E9DF9EF]
     Copy OK


All tracks accurately ripped

No errors occurred

End of status report

Code: [Select]
Exact Audio Copy V0.99 prebeta 3 from 28. July 2007

EAC extraction logfile from 29. August 2007, 19:59

Seal / Best - 1991-2004 - CD 2, Acoustic Album

Used drive  : SONY    DVD RW DRU-810A  Adapter: 3  ID: 0

Read mode              : Secure
Utilize accurate stream : Yes
Defeat audio cache      : Yes
Make use of C2 pointers : No

Read offset correction                      : 618
Overread into Lead-In and Lead-Out          : No
Fill up missing offset samples with silence : Yes
Delete leading and trailing silent blocks  : No
Null samples used in CRC calculations      : Yes
Used interface                              : Installed external ASPI interface
Gap handling                                : Not detected, thus appended to previous track

Used output format : Internal WAV Routines
Sample format      : 44.100 Hz; 16 Bit; Stereo


TOC of the extracted CD

     Track |  Start  |  Length  | Start sector | End sector
   ---------------------------------------------------------
       1  |  0:00.00 |  4:46.20 |        0    |    21469 
       2  |  4:46.20 |  5:39.35 |    21470    |    46929 
       3  | 10:25.55 |  4:04.65 |    46930    |    65294 
       4  | 14:30.45 |  5:34.57 |    65295    |    90401 
       5  | 20:05.27 |  5:25.23 |    90402    |  114799 
       6  | 25:30.50 |  5:19.32 |    114800    |  138756 
       7  | 30:50.07 |  4:45.65 |    138757    |  160196 
       8  | 35:35.72 |  4:36.25 |    160197    |  180921 
       9  | 40:12.22 |  5:13.58 |    180922    |  204454 
       10  | 45:26.05 |  6:03.45 |    204455    |  231724 
       11  | 51:29.50 |  3:51.62 |    231725    |  249111 
       12  | 55:21.37 |  6:27.30 |    249112    |  278166 
       13  | 61:48.67 |  3:05.13 |    278167    |  292054 


Track  1

     Filename C:\Temp\Seal\Best - 1991-2004 - CD 2, Acoustic Album\01 - Bring It On.wav

     Peak level 98.8 %
     Track quality 99.9 %
     Copy CRC E24D3231
     Accurately ripped (confidence 11)  [A410DFE3]
     Copy OK

Track  2

     Filename C:\Temp\Seal\Best - 1991-2004 - CD 2, Acoustic Album\02 - Killer.wav

     Peak level 98.8 %
     Track quality 100.0 %
     Copy CRC 6EA5982A
     Accurately ripped (confidence 11)  [ED7F8907]
     Copy OK

Track  3

     Filename C:\Temp\Seal\Best - 1991-2004 - CD 2, Acoustic Album\03 - Crazy.wav

     Peak level 98.8 %
     Track quality 100.0 %
     Copy CRC D92F6397
     Accurately ripped (confidence 11)  [3BE4135A]
     Copy OK

Track  4

     Filename C:\Temp\Seal\Best - 1991-2004 - CD 2, Acoustic Album\04 - Colour.wav

     Peak level 98.8 %
     Track quality 100.0 %
     Copy CRC CA74F0E1
     Accurately ripped (confidence 11)  [025581D7]
     Copy OK

Track  5

     Filename C:\Temp\Seal\Best - 1991-2004 - CD 2, Acoustic Album\05 - Kiss from a Rose.wav

     Peak level 98.8 %
     Track quality 100.0 %
     Copy CRC 6DB8FE8C
     Accurately ripped (confidence 11)  [7757AD41]
     Copy OK

Track  6

     Filename C:\Temp\Seal\Best - 1991-2004 - CD 2, Acoustic Album\06 - Prayer for the Dying.wav

     Peak level 98.8 %
     Track quality 99.9 %
     Copy CRC E48963E4
     Accurately ripped (confidence 11)  [5FB78ADB]
     Copy OK

Track  7

     Filename C:\Temp\Seal\Best - 1991-2004 - CD 2, Acoustic Album\07 - Love's Divine.wav

     Peak level 98.8 %
     Track quality 100.0 %
     Copy CRC 4A085372
     Accurately ripped (confidence 11)  [2AE56A39]
     Copy OK

Track  8

     Filename C:\Temp\Seal\Best - 1991-2004 - CD 2, Acoustic Album\08 - Get It Together.wav

     Peak level 98.8 %
     Track quality 100.0 %
     Copy CRC 640A24E6
     Accurately ripped (confidence 11)  [ACC9C76F]
     Copy OK

Track  9

     Filename C:\Temp\Seal\Best - 1991-2004 - CD 2, Acoustic Album\09 - Just Like You Said.wav

     Peak level 98.8 %
     Track quality 100.0 %
     Copy CRC 463F2672
     Accurately ripped (confidence 11)  [23B36E72]
     Copy OK

Track 10

     Filename C:\Temp\Seal\Best - 1991-2004 - CD 2, Acoustic Album\10 - Touch.wav

     Peak level 98.8 %
     Track quality 99.9 %
     Copy CRC E56EAEDE
     Accurately ripped (confidence 11)  [4F31BF05]
     Copy OK

Track 11

     Filename C:\Temp\Seal\Best - 1991-2004 - CD 2, Acoustic Album\11 - Waiting for You.wav

     Peak level 98.8 %
     Track quality 100.0 %
     Copy CRC 3CDE76FB
     Accurately ripped (confidence 11)  [2BBE3C77]
     Copy OK

Track 12

     Filename C:\Temp\Seal\Best - 1991-2004 - CD 2, Acoustic Album\12 - Don't Cry.wav

     Peak level 98.8 %
     Track quality 100.0 %
     Copy CRC 2E10D4A6
     Accurately ripped (confidence 11)  [3C78739A]
     Copy OK

Track 13

     Filename C:\Temp\Seal\Best - 1991-2004 - CD 2, Acoustic Album\13 - Walk On By.wav

     Peak level 99.8 %
     Track quality 100.0 %
     Copy CRC 19020FE4
     Accurately ripped (confidence 10)  [0483DEC4]
     Copy OK


All tracks accurately ripped

No errors occurred

End of status report

Code: [Select]
Exact Audio Copy V0.99 prebeta 3 from 28. July 2007

EAC extraction logfile from 30. August 2007, 11:12

Supertramp / Crime of the Century

Used drive  : SONY    DVD RW DRU-810A  Adapter: 3  ID: 0

Read mode              : Secure
Utilize accurate stream : Yes
Defeat audio cache      : Yes
Make use of C2 pointers : No

Read offset correction                      : 618
Overread into Lead-In and Lead-Out          : No
Fill up missing offset samples with silence : Yes
Delete leading and trailing silent blocks  : No
Null samples used in CRC calculations      : Yes
Used interface                              : Installed external ASPI interface
Gap handling                                : Not detected, thus appended to previous track

Used output format : Internal WAV Routines
Sample format      : 44.100 Hz; 16 Bit; Stereo


TOC of the extracted CD

     Track |  Start  |  Length  | Start sector | End sector
   ---------------------------------------------------------
       1  |  0:00.00 |  5:33.72 |        0    |    25046 
       2  |  5:33.72 |  4:31.48 |    25047    |    45419 
       3  | 10:05.45 |  6:48.37 |    45420    |    76056 
       4  | 16:54.07 |  6:45.23 |    76057    |  106454 
       5  | 23:39.30 |  3:24.65 |    106455    |  121819 
       6  | 27:04.20 |  7:26.50 |    121820    |  155319 
       7  | 34:30.70 |  4:05.00 |    155320    |  173694 
       8  | 38:35.70 |  5:39.35 |    173695    |  199154 


Track  1

     Filename C:\Temp\Supertramp\Crime of the Century\01 - School.wav

     Peak level 79.3 %
     Track quality 100.0 %
     Copy CRC 94C78791
     Accurately ripped (confidence 6)  [F0F4FDCD]
     Copy OK

Track  2

     Filename C:\Temp\Supertramp\Crime of the Century\02 - Bloody Well Right.wav

     Peak level 85.1 %
     Track quality 99.9 %
     Copy CRC C3F9D6A2
     Accurately ripped (confidence 6)  [F9309F5B]
     Copy OK

Track  3

     Filename C:\Temp\Supertramp\Crime of the Century\03 - Hide in Your Shell.wav

     Peak level 66.3 %
     Track quality 100.0 %
     Copy CRC 8E388D50
     Accurately ripped (confidence 6)  [CD6D2E05]
     Copy OK

Track  4

     Filename C:\Temp\Supertramp\Crime of the Century\04 - Asylum.wav

     Peak level 64.6 %
     Track quality 100.0 %
     Copy CRC 70AF4ED9
     Accurately ripped (confidence 6)  [0E93E8B9]
     Copy OK

Track  5

     Filename C:\Temp\Supertramp\Crime of the Century\05 - Dreamer.wav

     Peak level 67.5 %
     Track quality 99.9 %
     Copy CRC 542D005F
     Accurately ripped (confidence 6)  [6E59606C]
     Copy OK

Track  6

     Filename C:\Temp\Supertramp\Crime of the Century\06 - Rudy.wav

     Peak level 86.2 %
     Track quality 100.0 %
     Copy CRC B1FE182F
     Accurately ripped (confidence 6)  [80969677]
     Copy OK

Track  7

     Filename C:\Temp\Supertramp\Crime of the Century\07 - If Everyone Was Listening.wav

     Peak level 94.3 %
     Track quality 100.0 %
     Copy CRC 8CA4E091
     Accurately ripped (confidence 6)  [02FF2059]
     Copy OK

Track  8

     Filename C:\Temp\Supertramp\Crime of the Century\08 - Crime of the Century.wav

     Peak level 70.6 %
     Track quality 100.0 %
     Copy CRC AD5BC3A3
     Accurately ripped (confidence 3)  [DAB93468]
     Copy OK


All tracks accurately ripped

No errors occurred

End of status report

And here are the 5 CD images:

Code: [Select]
Exact Audio Copy V0.99 prebeta 3 from 28. July 2007

EAC extraction logfile from 24. August 2007, 20:33

Rolling Stones / Forty Licks (CD 1)

Used drive  : SONY    DVD RW DRU-810A  Adapter: 3  ID: 0

Read mode              : Secure
Utilize accurate stream : Yes
Defeat audio cache      : Yes
Make use of C2 pointers : No

Read offset correction                      : 618
Overread into Lead-In and Lead-Out          : No
Fill up missing offset samples with silence : Yes
Delete leading and trailing silent blocks  : No
Null samples used in CRC calculations      : Yes
Used interface                              : Installed external ASPI interface

Used output format : Internal WAV Routines
Sample format      : 44.100 Hz; 16 Bit; Stereo


TOC of the extracted CD

     Track |  Start  |  Length  | Start sector | End sector
   ---------------------------------------------------------
       1  |  0:00.00 |  3:16.32 |        0    |    14731 
       2  |  3:16.32 |  4:32.63 |    14732    |    35194 
       3  |  7:49.20 |  3:44.00 |    35195    |    51994 
       4  | 11:33.20 |  3:42.10 |    51995    |    68654 
       5  | 15:15.30 |  3:43.05 |    68655    |    85384 
       6  | 18:58.35 |  7:29.60 |    85385    |  119119 
       7  | 26:28.20 |  3:57.65 |    119120    |  136959 
       8  | 30:26.10 |  3:42.20 |    136960    |  153629 
       9  | 34:08.30 |  1:49.10 |    153630    |  161814 
       10  | 35:57.40 |  2:36.57 |    161815    |  173571 
       11  | 38:34.22 |  6:18.38 |    173572    |  201959 
       12  | 44:52.60 |  2:47.72 |    201960    |  214556 
       13  | 47:40.57 |  4:13.08 |    214557    |  233539 
       14  | 51:53.65 |  2:56.52 |    233540    |  246791 
       15  | 54:50.42 |  5:45.00 |    246792    |  272666 
       16  | 60:35.42 |  3:15.30 |    272667    |  287321 
       17  | 63:50.72 |  3:45.73 |    287322    |  304269 
       18  | 67:36.70 |  3:01.25 |    304270    |  317869 
       19  | 70:38.20 |  3:28.00 |    317870    |  333469 
       20  | 74:06.20 |  3:27.60 |    333470    |  349054 


Range status and errors

Selected range

     Filename G:\CD Images\Rolling Stones - Forty Licks (CD 1) - 2002.wav

     Peak level 99.8 %
     Range quality 100.0 %
     Copy CRC 22471B44
     Copy OK

No errors occurred

 
AccurateRip summary
 
Track  1  accurately ripped (confidence 30)  [EA2F04F9]
Track  2  accurately ripped (confidence 28)  [AC03CE73]
Track  3  accurately ripped (confidence 28)  [D4733314]
Track  4  accurately ripped (confidence 29)  [D38D5CB0]
Track  5  accurately ripped (confidence 29)  [1F517501]
Track  6  accurately ripped (confidence 28)  [CE8645DE]
Track  7  accurately ripped (confidence 29)  [C5CFD06C]
Track  8  accurately ripped (confidence 29)  [5BC37E18]
Track  9  accurately ripped (confidence 29)  [8803DE9D]
Track 10  accurately ripped (confidence 28)  [9ABA04B9]
Track 11  accurately ripped (confidence 29)  [60A212EA]
Track 12  accurately ripped (confidence 29)  [998DD647]
Track 13  accurately ripped (confidence 29)  [EA005CBA]
Track 14  accurately ripped (confidence 29)  [5E4BCC21]
Track 15  accurately ripped (confidence 28)  [F2DC797D]
Track 16  accurately ripped (confidence 28)  [4F7915C1]
Track 17  accurately ripped (confidence 29)  [168C81B8]
Track 18  accurately ripped (confidence 28)  [A80F2005]
Track 19  accurately ripped (confidence 28)  [B4622446]
Track 20  accurately ripped (confidence 28)  [1B2FDC9F]
 
All tracks accurately ripped

End of status report

Code: [Select]
Exact Audio Copy V0.99 prebeta 3 from 28. July 2007

EAC extraction logfile from 24. August 2007, 20:55

Rolling Stones / Forty Licks (CD 2)

Used drive  : SONY    DVD RW DRU-810A  Adapter: 3  ID: 0

Read mode              : Secure
Utilize accurate stream : Yes
Defeat audio cache      : Yes
Make use of C2 pointers : No

Read offset correction                      : 618
Overread into Lead-In and Lead-Out          : No
Fill up missing offset samples with silence : Yes
Delete leading and trailing silent blocks  : No
Null samples used in CRC calculations      : Yes
Used interface                              : Installed external ASPI interface

Used output format : Internal WAV Routines
Sample format      : 44.100 Hz; 16 Bit; Stereo


TOC of the extracted CD

     Track |  Start  |  Length  | Start sector | End sector
   ---------------------------------------------------------
       1  |  0:00.00 |  3:33.10 |        0    |    15984 
       2  |  3:33.10 |  3:49.50 |    15985    |    33209 
       3  |  7:22.60 |  3:35.20 |    33210    |    49354 
       4  | 10:58.05 |  3:27.70 |    49355    |    64949 
       5  | 14:26.00 |  3:58.60 |    64950    |    82859 
       6  | 18:24.60 |  3:05.10 |    82860    |    96744 
       7  | 21:29.70 |  4:31.70 |    96745    |  117139 
       8  | 26:01.65 |  3:33.70 |    117140    |  133184 
       9  | 29:35.60 |  3:46.37 |    133185    |  150171 
       10  | 33:22.22 |  4:07.60 |    150172    |  168756 
       11  | 37:30.07 |  3:48.30 |    168757    |  185886 
       12  | 41:18.37 |  4:01.25 |    185887    |  203986 
       13  | 45:19.62 |  4:12.08 |    203987    |  222894 
       14  | 49:31.70 |  4:07.52 |    222895    |  241471 
       15  | 53:39.47 |  3:42.23 |    241472    |  258144 
       16  | 57:21.70 |  3:46.60 |    258145    |  275154 
       17  | 61:08.55 |  4:13.22 |    275155    |  294151 
       18  | 65:22.02 |  3:42.05 |    294152    |  310806 
       19  | 69:04.07 |  4:10.08 |    310807    |  329564 
       20  | 73:14.15 |  5:06.00 |    329565    |  352514 


Range status and errors

Selected range

     Filename G:\CD Images\Rolling Stones - Forty Licks (CD 2) - 2002.wav

     Peak level 99.8 %
     Range quality 100.0 %
     Copy CRC FFE947C8
     Copy OK

No errors occurred

 
AccurateRip summary
 
Track  1  accurately ripped (confidence 79)  [CB54D835]
Track  2  accurately ripped (confidence 82)  [6C72D636]
Track  3  accurately ripped (confidence 82)  [BD79229D]
Track  4  accurately ripped (confidence 81)  [F2FD602C]
Track  5  accurately ripped (confidence 80)  [829D3B7B]
Track  6  accurately ripped (confidence 82)  [7C7E0A7C]
Track  7  accurately ripped (confidence 82)  [D4400E1E]
Track  8  accurately ripped (confidence 81)  [CE680CCA]
Track  9  accurately ripped (confidence 81)  [4E51D780]
Track 10  accurately ripped (confidence 80)  [9878A8AF]
Track 11  accurately ripped (confidence 82)  [CD0EF4B0]
Track 12  accurately ripped (confidence 81)  [B9954114]
Track 13  accurately ripped (confidence 79)  [3DEE0F67]
Track 14  accurately ripped (confidence 78)  [E21BE270]
Track 15  accurately ripped (confidence 79)  [EDD88C51]
Track 16  accurately ripped (confidence 81)  [6B9B50F5]
Track 17  accurately ripped (confidence 78)  [13E02DC4]
Track 18  accurately ripped (confidence 78)  [5FC3AF4F]
Track 19  accurately ripped (confidence 78)  [CE0845CC]
Track 20  accurately ripped (confidence 70)  [24EE51D8]
 
All tracks accurately ripped

End of status report

Code: [Select]
Exact Audio Copy V0.99 prebeta 3 from 28. July 2007

EAC extraction logfile from 27. August 2007, 18:43

Foo Fighters / In Your Honor (CD 1)

Used drive  : SONY    DVD RW DRU-810A  Adapter: 3  ID: 0

Read mode              : Secure
Utilize accurate stream : Yes
Defeat audio cache      : Yes
Make use of C2 pointers : No

Read offset correction                      : 618
Overread into Lead-In and Lead-Out          : No
Fill up missing offset samples with silence : Yes
Delete leading and trailing silent blocks  : No
Null samples used in CRC calculations      : Yes
Used interface                              : Installed external ASPI interface

Used output format : Internal WAV Routines
Sample format      : 44.100 Hz; 16 Bit; Stereo


TOC of the extracted CD

     Track |  Start  |  Length  | Start sector | End sector
   ---------------------------------------------------------
       1  |  0:00.00 |  3:50.07 |        0    |    17256 
       2  |  3:50.07 |  3:16.43 |    17257    |    31999 
       3  |  7:06.50 |  4:15.47 |    32000    |    51171 
       4  | 11:22.22 |  4:12.08 |    51172    |    70079 
       5  | 15:34.30 |  1:57.00 |    70080    |    78854 
       6  | 17:31.30 |  3:19.32 |    78855    |    93811 
       7  | 20:50.62 |  4:38.45 |    93812    |  114706 
       8  | 25:29.32 |  4:48.48 |    114707    |  136354 
       9  | 30:18.05 |  3:58.25 |    136355    |  154229 
       10  | 34:16.30 |  5:52.00 |    154230    |  180629 
       11  | 42:40.30 |  4:42.67 |    192030    |  213246 


Range status and errors

Selected range

     Filename G:\CD Images\Foo Fighters - In Your Honor (CD 1) - 2005.wav

     Peak level 98.9 %
     Range quality 100.0 %
     Copy CRC FF709279
     Copy OK

No errors occurred

 
AccurateRip summary
 
Track  1  accurately ripped (confidence 56)  [EFD2E9DA]
Track  2  accurately ripped (confidence 56)  [9A38D132]
Track  3  accurately ripped (confidence 47)  [E12DF514]
Track  4  accurately ripped (confidence 56)  [E817586C]
Track  5  accurately ripped (confidence 56)  [DAFB06C2]
Track  6  accurately ripped (confidence 56)  [8031E267]
Track  7  accurately ripped (confidence 56)  [7BE1C10B]
Track  8  accurately ripped (confidence 56)  [51781BFE]
Track  9  accurately ripped (confidence 56)  [05D4E6A4]
Track 10  accurately ripped (confidence 55)  [ADA89339]
 
All tracks accurately ripped

End of status report

Code: [Select]
Exact Audio Copy V0.99 prebeta 3 from 28. July 2007

EAC extraction logfile from 27. August 2007, 19:13

Foo Fighters / In Your Honor (CD 2)

Used drive  : SONY    DVD RW DRU-810A  Adapter: 3  ID: 0

Read mode              : Secure
Utilize accurate stream : Yes
Defeat audio cache      : Yes
Make use of C2 pointers : No

Read offset correction                      : 618
Overread into Lead-In and Lead-Out          : No
Fill up missing offset samples with silence : Yes
Delete leading and trailing silent blocks  : No
Null samples used in CRC calculations      : Yes
Used interface                              : Installed external ASPI interface

Used output format : Internal WAV Routines
Sample format      : 44.100 Hz; 16 Bit; Stereo


TOC of the extracted CD

     Track |  Start  |  Length  | Start sector | End sector
   ---------------------------------------------------------
       1  |  0:00.00 |  5:13.07 |        0    |    23481 
       2  |  5:13.07 |  5:02.68 |    23482    |    46199 
       3  | 10:16.00 |  3:29.45 |    46200    |    61919 
       4  | 13:45.45 |  4:25.57 |    61920    |    81851 
       5  | 18:11.27 |  3:13.15 |    81852    |    96341 
       6  | 21:24.42 |  5:16.13 |    96342    |  120054 
       7  | 26:40.55 |  4:31.62 |    120055    |  140441 
       8  | 31:12.42 |  3:49.08 |    140442    |  157624 
       9  | 35:01.50 |  3:20.47 |    157625    |  172671 
       10  | 38:22.22 |  4:53.13 |    172672    |  194659 
       11  | 45:47.35 |  5:02.70 |    206060    |  228779 


Range status and errors

Selected range

     Filename G:\CD Images\Foo Fighters - In Your Honor (CD 2) - 2005.wav

     Peak level 98.8 %
     Range quality 100.0 %
     Copy CRC C27806D2
     Copy OK

No errors occurred

 
AccurateRip summary
 
Track  1  accurately ripped (confidence 52)  [8097A5D4]
Track  2  accurately ripped (confidence 52)  [09373D80]
Track  3  accurately ripped (confidence 51)  [18AF886F]
Track  4  accurately ripped (confidence 52)  [7861C3FF]
Track  5  accurately ripped (confidence 52)  [B779C2E6]
Track  6  accurately ripped (confidence 52)  [0027CD4B]
Track  7  accurately ripped (confidence 52)  [5E8F58E1]
Track  8  accurately ripped (confidence 51)  [45AE4EB9]
Track  9  accurately ripped (confidence 52)  [8FEB7FDD]
Track 10  accurately ripped (confidence 51)  [927B9874]
 
All tracks accurately ripped

End of status report

Code: [Select]
Exact Audio Copy V0.99 prebeta 3 from 28. July 2007

EAC extraction logfile from 28. August 2007, 21:00

Dire Straits & Mark Knopfler / The Best Of (Private Investigations)

Used drive  : SONY    DVD RW DRU-810A  Adapter: 3  ID: 0

Read mode              : Secure
Utilize accurate stream : Yes
Defeat audio cache      : Yes
Make use of C2 pointers : No

Read offset correction                      : 618
Overread into Lead-In and Lead-Out          : No
Fill up missing offset samples with silence : Yes
Delete leading and trailing silent blocks  : No
Null samples used in CRC calculations      : Yes
Used interface                              : Installed external ASPI interface

Used output format : Internal WAV Routines
Sample format      : 44.100 Hz; 16 Bit; Stereo


TOC of the extracted CD

     Track |  Start  |  Length  | Start sector | End sector
   ---------------------------------------------------------
       1  |  0:00.00 |  5:48.64 |        0    |    26163 
       2  |  5:48.64 |  6:18.43 |    26164    |    54556 
       3  | 12:07.32 |  6:00.43 |    54557    |    81599 
       4  | 18:08.00 |  8:10.43 |    81600    |  118392 
       5  | 26:18.43 |  5:59.14 |    118393    |  145331 
       6  | 32:17.57 |  4:07.25 |    145332    |  163881 
       7  | 36:25.07 |  6:59.32 |    163882    |  195338 
       8  | 43:24.39 |  4:08.48 |    195339    |  213986 
       9  | 47:33.12 |  5:04.51 |    213987    |  236837 
       10  | 52:37.63 |  5:02.21 |    236838    |  259508 
       11  | 57:40.09 |  4:09.23 |    259509    |  278206 
       12  | 61:49.32 |  5:49.06 |    278207    |  304387 
       13  | 67:38.38 |  4:56.54 |    304388    |  326641 
       14  | 72:35.17 |  4:49.30 |    326642    |  348346 


Range status and errors

Selected range

     Filename G:\CD Images\Dire Straits & Mark Knopfler - The Best Of (Private Investigations) - 2005.wav

     Peak level 100.0 %
     Range quality 99.9 %
     Copy CRC C0AC98AE
     Copy OK

No errors occurred

 
AccurateRip summary
 
Track  1  accurately ripped (confidence 5)  [7EBA8B43]
Track  2  accurately ripped (confidence 5)  [2575AFDB]
Track  3  accurately ripped (confidence 5)  [B838FE5F]
Track  4  accurately ripped (confidence 5)  [61D45074]
Track  5  accurately ripped (confidence 5)  [6DFECCC0]
Track  6  accurately ripped (confidence 5)  [2C820276]
Track  7  accurately ripped (confidence 5)  [68C9FDF7]
Track  8  accurately ripped (confidence 5)  [F8A76665]
Track  9  accurately ripped (confidence 5)  [3CDB2B40]
Track 10  accurately ripped (confidence 4)  [CD952C81]
Track 11  accurately ripped (confidence 4)  [8A5A503F]
Track 12  accurately ripped (confidence 4)  [EB0D668B]
Track 13  accurately ripped (confidence 4)  [315D57FF]
Track 14  accurately ripped (confidence 4)  [788C1EBF]
 
All tracks accurately ripped

End of status report

George

EDIT: spoon, my e-mail to you just bounced. I'll try again using the e-mail address provided at http://www.dbpoweramp.com/email.htm.
  • Last Edit: 30 August, 2007, 12:10:18 PM by NightOwl

  • spoon
  • [*][*][*][*][*]
  • Administrator
Exact Audio Copy V0.99 prebeta 3
Reply #97
I have the test results needed now, thanks