Skip to main content

Notice

Please note that most of the software linked on this forum is likely to be safe to use. If you are unsure, feel free to ask in the relevant topics, or send a private message to an administrator or moderator. To help curb the problems of false positives, or in the event that you do find actual malware, you can contribute through the article linked here.
Topic: Is there a guide on how to use the repair function? (Read 1758 times) previous topic - next topic
0 Members and 1 Guest are viewing this topic.

Is there a guide on how to use the repair function?


I'm trying to repair some rips from EAC. Is there any guide on how to use the functionality. I think I know how to set it up, but how do you use it? for example,

- what do I choose below?
- can cuetools fix multiple errors? - how?


Re: Is there a guide on how to use the repair function?

Reply #1
I've explained basic steps several times here on this board but never wrote a guide.

You should analyze the verify results and use the AccurateRip values to help determine which recovery record is the best to match your rip. Detailed log is helpful also.
When all else fails use the highest confidence first and work from there to match your rip to AccurateRip.
You should not use a confidence 1 recovery record unless it is the only one available different from your rip and only if AccurateRip results exist to check the repair against. Even then your rip should be rechecked occasionally.

How many errors can a rip contain and still be repairable?
The repair script works similar to parchive using a recovery record.
korth

Re: Is there a guide on how to use the repair function?

Reply #2
I’ve been trying repair on a cd and running it several times taking the output from each stage and using it as the input to the next iteration. After several times, I seem to have a .wav file that has each track verified. Is this possible? expected?
Thanks

Re: Is there a guide on how to use the repair function?

Reply #3
The best practice is to always run the repair on the original rip and discard the output if you chose the wrong recovery record to match AccurateRip properly.
The repair script is run once. You cannot repair the result using the same recovery record again on the output (the rip was already repaired to and matches that recovery record).
Running repair again on the output using a different recovery record changes the output file(s) to match that recovery record instead of the first one.
It is possible the first recovery record you tried was incorrect and the second was the correct one for your rip.
korth

Re: Is there a guide on how to use the repair function?

Reply #4
Thanks, your clarifications were helpful.
I ran a repair on a CD with errors and picked one of the choices (see attached)
The result is below.  I think it worked  - the top set of Accurate Rips are all good?
I don't understand what the different offset's mean, but some didn't pass AR.
Sorry, if this is basic, but I want to make sure I'm reading the results correctly.



Code: [Select]
[CUETools log; Date: 11/03/2023 17:03:02; Version: 2.2.3]
CUETools DB: corrected 113 errors.
[AccurateRip ID: 00364222-02ff49b7-f3129113] found.
Track   [  CRC   |   V2   ] Status
 01     [1d7b1bbf|718bc4e6] (025+053/176) Accurately ripped
 02     [1e7b543f|9276c293] (025+054/179) Accurately ripped
 03     [ef1c0389|38bd1d24] (027+052/180) Accurately ripped
 04     [f0123f16|e3e66ec2] (028+052/178) Accurately ripped
 05     [f9cfe7d0|d1395602] (027+053/182) Accurately ripped
 06     [7232da1c|687fc61b] (028+053/183) Accurately ripped
 07     [24f26aac|7a7e145a] (026+053/178) Accurately ripped
 08     [891c50cc|190db1cb] (027+052/183) Accurately ripped
 09     [779bf7a8|5892a5aa] (028+052/181) Accurately ripped
 10     [9f1b115d|23374c6d] (028+052/179) Accurately ripped
 11     [110a7de7|495d0b6c] (029+052/186) Accurately ripped
 12     [8283b1db|c6b05e6e] (028+052/182) Accurately ripped
 13     [f0eeff77|534e2608] (027+053/178) Accurately ripped
 14     [88743991|39dcb851] (028+052/183) Accurately ripped
 15     [92cb6b89|d7e112a6] (026+053/181) Accurately ripped
 16     [e0f83ee3|ff32dd32] (028+051/185) Accurately ripped
 17     [42ea3750|4dc3490c] (028+050/176) Accurately ripped
 18     [0f0731d1|db1a1d74] (025+051/173) Accurately ripped
 19     [9d405372|6d38eb95] (025+045/164) Accurately ripped
Offsetted by -2:
 01     [0d98d293] (005/176) Accurately ripped
 02     [5bd399b1] (006/179) Accurately ripped
 03     [a995cb43] (005/180) Accurately ripped
 04     [fda51e20] (005/178) Accurately ripped
 05     [11d3133e] (005/182) Accurately ripped
 06     [6b68a324] (005/183) Accurately ripped
 07     [f59b35ca] (005/178) Accurately ripped
 08     [4d41e784] (006/183) Accurately ripped
 09     [0c1eceaa] (006/181) Accurately ripped
 10     [db24ea5d] (005/179) Accurately ripped
 11     [4fb82ce9] (006/186) Accurately ripped
 12     [6483df51] (006/182) Accurately ripped
 13     [a16ea5bf] (005/178) Accurately ripped
 14     [fb790c11] (006/183) Accurately ripped
 15     [791d4241] (005/181) Accurately ripped
 16     [addb01f3] (006/185) Accurately ripped
 17     [a8d512f0] (006/176) Accurately ripped
 18     [62762491] (005/173) Accurately ripped
 19     [9536b026] (005/164) Accurately ripped
Offsetted by 94:
 01     [08068ad3] (009/176) Accurately ripped
 02     [db469451] (009/179) Accurately ripped
 03     [b2c05863] (009/180) Accurately ripped
 04     [721b4c40] (009/178) Accurately ripped
 05     [913aee9e] (009/182) Accurately ripped
 06     [b152f1a4] (009/183) Accurately ripped
 07     [d5f5202a] (009/178) Accurately ripped
 08     [8635a504] (009/183) Accurately ripped
 09     [33967e4a] (009/181) Accurately ripped
 10     [994c3a5d] (008/179) Accurately ripped
 11     [8f275c89] (009/186) Accurately ripped
 12     [047b5931] (009/182) Accurately ripped
 13     [897f783f] (009/178) Accurately ripped
 14     [6a919411] (009/183) Accurately ripped
 15     [49c4ffc1] (009/181) Accurately ripped
 16     [43566ef3] (009/185) Accurately ripped
 17     [8ccbe4f0] (009/176) Accurately ripped
 18     [bda8a091] (009/173) Accurately ripped
 19     [17054e66] (008/164) Accurately ripped
Offsetted by 95:
 01     [0ff7af69] (012/176) Accurately ripped
 02     [bc9a7198] (012/179) Accurately ripped
 03     [55837486] (013/180) Accurately ripped
 04     [6b51dcbb] (010/178) Accurately ripped
 05     [053958e7] (013/182) Accurately ripped
 06     [b4b80d20] (012/183) Accurately ripped
 07     [eda0ba9b] (012/178) Accurately ripped
 08     [a422d9a8] (012/183) Accurately ripped
 09     [695512c9] (011/181) Accurately ripped
 10     [7b474ddd] (012/179) Accurately ripped
 11     [6fd08508] (013/186) Accurately ripped
 12     [937b4276] (012/182) Accurately ripped
 13     [313fa51b] (012/178) Accurately ripped
 14     [b10f2ad1] (012/183) Accurately ripped
 15     [569c1465] (013/181) Accurately ripped
 16     [dce50d6b] (012/185) Accurately ripped
 17     [d9d67720] (012/176) Accurately ripped
 18     [93f12731] (012/173) Accurately ripped
 19     [1b0a200c] (012/164) Accurately ripped
Offsetted by 108:
 01     [77368b07] (009/176) Accurately ripped
 02     [2ddcae33] (010/179) Accurately ripped
 03     [996be24d] (010/180) Accurately ripped
 04     [131732fa] (010/178) Accurately ripped
 05     [e924be9c] (010/182) Accurately ripped
 06     [e0da726c] (010/183) Accurately ripped
 07     [21579258] (010/178) Accurately ripped
 08     [292e85fc] (010/183) Accurately ripped
 09     [24029d3c] (010/181) Accurately ripped
 10     [f5074b5d] (010/179) Accurately ripped
 11     [d867937b] (010/186) Accurately ripped
 12     [d67a1af7] (010/182) Accurately ripped
 13     [b601ec47] (010/178) Accurately ripped
 14     [456fd291] (010/183) Accurately ripped
 15     [fd8820b9] (010/181) Accurately ripped
 16     [a9231983] (010/185) Accurately ripped
 17     [c35fe390] (009/176) Accurately ripped
 18     [759ffd51] (009/173) Accurately ripped
 19     [4f48c57a] (008/164) Accurately ripped
Offsetted by 1534:
 01     [b4745693] (003/176) Accurately ripped
 02     [530343b1] (003/179) Accurately ripped
 03     [3c3e9d43] (003/180) Accurately ripped
 04     [45080020] (003/178) Accurately ripped
 05     [0850c93e] (003/182) Accurately ripped
 06     [ca0d8b24] (003/183) Accurately ripped
 07     [fb39dbca] (003/178) Accurately ripped
 08     [dc7dbf84] (003/183) Accurately ripped
 09     [8399c8aa] (003/181) Accurately ripped
 10     [bd99ea5d] (003/179) Accurately ripped
 11     [46ab26e9] (003/186) Accurately ripped
 12     [63fb7d51] (003/182) Accurately ripped
 13     [227bcdbf] (003/178) Accurately ripped
 14     [ed018c11] (003/183) Accurately ripped
 15     [83991a41] (003/181) Accurately ripped
 16     [0591d1f3] (003/185) Accurately ripped
 17     [e84232f0] (003/176) Accurately ripped
 18     [159de491] (003/173) Accurately ripped
 19     [b2209426] (003/164) Accurately ripped
Offsetted by 1:
 01     [256c4055] (000/176) No match (V2 was not tested)
 02     [ffcf3186] (000/179) No match (V2 was not tested)
 03     [91df1fac] (000/180) No match (V2 was not tested)
 04     [e948cf91] (000/178) No match (V2 was not tested)
 05     [6dce5219] (000/182) No match (V2 was not tested)
 06     [7597f598] (000/183) No match (V2 was not tested)
 07     [3c9e051d] (000/178) No match (V2 was not tested)
 08     [a7098570] (000/183) No match (V2 was not tested)
 09     [ad5a8c27] (000/181) No match (V2 was not tested)
 10     [811624dd] (000/179) No match (V2 was not tested)
 11     [f1b3a666] (000/186) No match (V2 was not tested)
 12     [11839b20] (000/182) No match (V2 was not tested)
 13     [98af2c53] (000/178) No match (V2 was not tested)
 14     [cef1d051] (000/183) No match (V2 was not tested)
 15     [9fa2802d] (000/181) No match (V2 was not tested)
 16     [7a86dd5b] (000/185) No match (V2 was not tested)
 17     [8ff4c980] (000/176) No match (V2 was not tested)
 18     [e54fb871] (000/173) No match (V2 was not tested)
 19     [a1452518] (000/164) No match (V2 was not tested)
Offsetted by 719:
 01     [6bc0dd09] (000/176) No match
 02     [f905cea8] (000/179) No match
 03     [111809d6] (000/180) No match
 04     [e052088b] (000/178) No match
 05     [c15c6ad7] (000/182) No match
 06     [fb2b0b60] (000/183) No match
 07     [9fe92e0b] (000/178) No match
 08     [96532968] (002/183) Accurately ripped
 09     [69df0859] (000/181) No match
 10     [4f46d5dd] (000/179) No match
 11     [0c233a98] (000/186) No match (V2 was not tested)
 12     [2343daa6] (002/182) Accurately ripped
 13     [15acfd5b] (000/178) No match
 14     [832e9ed1] (002/183) Accurately ripped
 15     [a2de6425] (000/181) No match
 16     [288751eb] (002/185) Accurately ripped
 17     [a39acc20] (000/176) No match
 18     [e4b94d31] (002/173) Accurately ripped
 19     [e6c924ac] (002/164) Accurately ripped
Offsetted by 955:
 01     [be0e9751] (000/176) No match (V2 was not tested)
 02     [b255cc1c] (002/179) Accurately ripped
 03     [1cf5fa1a] (002/180) Accurately ripped
 04     [9e9f39ef] (002/178) Accurately ripped
 05     [afe66623] (002/182) Accurately ripped
 06     [1c6061b0] (002/183) Accurately ripped
 07     [721b8e37] (002/178) Accurately ripped
 08     [2cffb098] (002/183) Accurately ripped
 09     [f58fed6d] (002/181) Accurately ripped
 10     [a2bccfdd] (002/179) Accurately ripped
 11     [28148fac] (002/186) Accurately ripped
 12     [f72ee642] (002/182) Accurately ripped
 13     [bad6582b] (002/178) Accurately ripped
 14     [7ef597d1] (002/183) Accurately ripped
 15     [79256b55] (002/181) Accurately ripped
 16     [b801688b] (002/185) Accurately ripped
 17     [a9599060] (002/176) Accurately ripped
 18     [6f9568b1] (002/173) Accurately ripped
 19     [9b3a69b4] (002/164) Accurately ripped
Offsetted by 1973:
 01     [52fa13cd] (000/176) No match (V2 was not tested)
 02     [b9d3b872] (000/179) No match (V2 was not tested)
 03     [58d3dd48] (000/180) No match (V2 was not tested)
 04     [a199c30d] (000/178) No match (V2 was not tested)
 05     [f1990c6d] (000/182) No match (V2 was not tested)
 06     [9c6facc8] (000/183) No match (V2 was not tested)
 07     [927fb391] (000/178) No match (V2 was not tested)
 08     [2e4304c0] (000/183) No match (V2 was not tested)
 09     [ad6a6e73] (000/181) No match (V2 was not tested)
 10     [43285add] (000/179) No match (V2 was not tested)
 11     [88bf98b2] (000/186) No match (V2 was not tested)
 12     [9cd482a4] (000/182) No match (V2 was not tested)
 13     [cd08bb03] (000/178) No match (V2 was not tested)
 14     [ce5f0f51] (000/183) No match (V2 was not tested)
 15     [886d7f7d] (000/181) No match (V2 was not tested)
 16     [592391bb] (000/185) No match (V2 was not tested)
 17     [0562e340] (000/176) No match (V2 was not tested)
 18     [8bfcc0f1] (000/173) No match (V2 was not tested)
 19     [966417d0] (000/164) No match (V2 was not tested)

Track Peak [ CRC32  ] [W/O NULL] [  LOG   ]
 --  100.0 [C665E564] [5EA74927] [94B5CA5A]
 01   78.4 [D73DA746] [D9C6D5F7]          
 02   88.0 [A8052DC0] [C9BD583B]          
 03   84.8 [5361AD6D] [73B9CE63]          
 04   93.9 [944C9564] [1F4ED2D1]          
 05   92.5 [0CA3DD8C] [2392AFF2]          
 06   80.8 [572B73A5] [C8EB4092]          
 07   92.8 [92CA7237] [FD8D5AD7]          
 08   85.4 [B7663559] [C53B7ED5]          
 09   96.9 [7384B28B] [F1C3C34E]          
 10   78.1 [0F401383] [CD1868EE]          
 11   72.0 [3B42D488] [F2677E22]          
 12  100.0 [8E74305B] [0CE386CE]          
 13   82.9 [36232438] [696F728B]          
 14   84.1 [4EA915C3] [1FA13CFB]          
 15   91.4 [416CDE96] [D63283E6]          
 16  100.0 [B2FB01D0] [0C84B621]          
 17   72.8 [82CAE4E8] [23BC1084]          
 18   79.3 [548335E6] [46CA314C]          
 19   88.9 [BF3A667B] [3B562B88]


MOD edit: move log to code

Re: Is there a guide on how to use the repair function?

Reply #5
Rip is repaired.
Top section is your CD.
Other sections are possible alternate pressings.
korth

Re: Is there a guide on how to use the repair function?

Reply #6
Thanks for the prompt response.
Is there a way to get a log file of some sort to record the output from the main window that I pasted above?

Re: Is there a guide on how to use the repair function?

Reply #7
http://cue.tools/wiki/CUETools_Advanced_Settings:_AccurateRip
Check 'Write AccurateRip log" under 'Encode and verify'

The default Name format is %filename%.accurip
The file is text
korth

Re: Is there a guide on how to use the repair function?

Reply #8
http://cue.tools/wiki/CUETools_Advanced_Settings:_AccurateRip
Check 'Write AccurateRip log" under 'Encode and verify'

The default Name format is %filename%.accurip
The file is text

Thanks. I had that turned on, but was thinking that there should be an updated EAC .log file created as well. Looking at the contents of the  .accurip file this is not a big deal. It would be helpful if repair would copy all the other files from the source directory to the output just to make this process more automated.

I have a second repair.
The top of the file says the it corrected 11411 errors:
Code: [Select]
[CUETools log; Date: 12/03/2023 09:13:29; Version: 2.2.3]
CUETools DB: corrected 11411 errors.
AccurateRip ID: 001c27ce-010c99a7-ab10440c] found.
Track   [  CRC   |   V2   ] Status
 01     [e3f97aaf|5d1da195] (000+000/534) No match
 02     [5c1b347c|2d64c301] (000+000/530) No match
 03     [0297c6a5|36f73eff] (000+000/532) No match
 04     [17a5c230|5e4be451] (000+000/532) No match
 05     [c7b1586d|084d50e2] (000+000/530) No match
 06     [9201dc3b|108e514d] (000+000/527) No match
 07     [bd2d0bd4|3ff6dfb0] (000+000/531) No match
 08     [f35b121c|2cce2201] (000+000/527) No match
 09     [8a9d28d7|a28d9319] (000+000/530) No match
 10     [b6c53535|172d8892] (000+000/531) No match
 11     [a9195045|bf302e43] (000+000/522) No match
 12     [90973549|153551be] (000+000/520) No match
Offsetted by 667:
 01     [df8ffb14] (049/534) Accurately ripped
 02     [a6364754] (050/530) Accurately ripped
 03     [074f0b82] (049/532) Accurately ripped
 04     [675406eb] (050/532) Accurately ripped
 05     [a6f2664c] (049/530) Accurately ripped
 06     [c3932e7d] (050/527) Accurately ripped
 07     [d73723dc] (049/531) Accurately ripped
 08     [3dde26d7] (049/527) Accurately ripped
 09     [cd8a1cdc] (048/530) Accurately ripped
 10     [27368502] (049/531) Accurately ripped
 11     [5e783402] (047/522) Accurately ripped
 12     [2db7d6d2] (046/520) Accurately ripped

etc
repeated for various offsets..
The log file part of the wiki explains the correct offset has been detected, but it doesn't actually say the rip is now fixed. It sort of implies it, but it's vague to me. Is this rip now fixed?

Re: Is there a guide on how to use the repair function?

Reply #9
It is repaired to a pressing match (which is okay).
korth

Re: Is there a guide on how to use the repair function?

Reply #10
Thanks for answering my questions

Re: Is there a guide on how to use the repair function?

Reply #11
Based on the title of this thread this seems like a good place for this.

DO NOT try to repair and change the offset simultaneously.
Adding any value other than zero to the Extra: Offset box will break the repair.

X

korth

Re: Is there a guide on how to use the repair function?

Reply #12
I'm working with another CD. When I run an encode, with repair selected. There's no output wav file created.
Is this because there is nothing to repair?

Another question, only AR entries for two tracks are found - and one entry of 146.
Code: [Select]
[CUETools log; Date: 15/03/2023 10:14:36; Version: 2.2.3]
Pregap length 00:00:37.
[CTDB TOCID: 1dGCunyYUZob3yZEXWL7SKXUNiI-] found.
Track | CTDB Status
  1   | (  0/146) No match
  2   | (  0/146) No match
  3   | (  0/146) No match
  4   | (  0/146) No match
  5   | (  0/146) No match
  6   | (  0/146) No match
  7   | (  1/146) Accurately ripped
  8   | (  1/146) Accurately ripped
[AccurateRip ID: 000e1141-005ddbb5-550aad08] found.
Track   [  CRC   |   V2   ] Status
 01     [00000000|00000000] (000+000/137) No match
 02     [00000000|00000000] (000+000/133) No match
 03     [00000000|00000000] (000+000/129) No match
 04     [00000000|00000000] (000+000/127) No match
 05     [00000000|00000000] (000+000/125) No match
 06     [00000000|00000000] (000+000/124) No match
 07     [00000000|00000000] (000+000/122) No match
 08     [00000000|00000000] (000+000/120) No match

Track Peak [ CRC32  ] [W/O NULL] [  LOG   ]
 --    0.0 [3880B151] [00000000]   CRC32  
 01    0.0 [187208B5] [00000000]          
 02    0.0 [6823AA61] [00000000]          
 03    0.0 [143D317A] [00000000]          
 04    0.0 [324603B8] [00000000]          
 05    0.0 [EF599F51] [00000000]          
 06    0.0 [F53E7885] [00000000]          
 07    0.0 [37E1DB4E] [00000000]          
 08    0.0 [CE1F5DDA] [00000000]          

When I first ripped this disc with EAC in Oct 2007(!) the results were a little better:
Code: [Select]
AccurateRip summary
 
Track  1  accurately ripped (confidence 4)  [403EEAC2]
Track  2  accurately ripped (confidence 4)  [89362E78]
Track  3  cannot be verified as accurate (confidence 3)  [A1800AD8], AccurateRip returned [90247500]
Track  4  cannot be verified as accurate (confidence 3)  [BA32DDFA], AccurateRip returned [B6AF40E9]
Track  5  cannot be verified as accurate (confidence 3)  [69C1D6EE], AccurateRip returned [2EA85EC8]
Track  6  cannot be verified as accurate (confidence 3)  [CBAB9CEC], AccurateRip returned [3E07CF03]
Track  7  cannot be verified as accurate (confidence 3)  [4918B56D], AccurateRip returned [65A22466]
Track  8  cannot be verified as accurate (confidence 3)  [82F4D12B], AccurateRip returned [4413A7DA]
 
 2 track(s) accurately ripped
 6 track(s) could not be verified as accurate
Confidence level of 4 indicating 4 entries? So, there are now fewer entries? Is this an AR v1 vs AR v2 result?

Re: Is there a guide on how to use the repair function?

Reply #13
Try verifying the original rip with CUETools (Detailed log = True) and post.
korth

Re: Is there a guide on how to use the repair function?

Reply #14
Well, I ran the repair on the original rip and everything got fixed!  :)
Thanks!
Code: [Select]
[CUETools log; Date: 15/03/2023 11:33:50; Version: 2.2.3]
Pregap length 00:00:37.
CUETools DB: corrected 156 errors.
[AccurateRip ID: 000e1141-005ddbb5-550aad08] found.
Track   [  CRC   |   V2   ] Status
 01     [403eeac2|d1b6fbcd] (020+022/137) Accurately ripped
 02     [89362e78|c034a751] (020+022/133) Accurately ripped
 03     [dcc4563a|c9a3d021] (019+019/129) Accurately ripped
 04     [fa3572bf|8844a5b9] (019+018/127) Accurately ripped
 05     [676e6c56|faeeff96] (019+016/125) Accurately ripped
 06     [bf012359|60586a8d] (019+017/124) Accurately ripped
 07     [7942fc0a|6fea3836] (018+017/122) Accurately ripped
 08     [bc5f25ae|f2e9ee80] (018+016/120) Accurately ripped
Offsetted by 4:
 01     [3e53a05e] (004/137) Accurately ripped
 02     [cd59cc74] (003/133) Accurately ripped
 03     [4eda3e96] (003/129) Accurately ripped
 04     [719224c3] (003/127) Accurately ripped
 05     [c6e250aa] (003/125) Accurately ripped
 06     [ddeae45d] (003/124) Accurately ripped
 07     [8be5c3e2] (003/122) Accurately ripped
 08     [f004caa6] (003/120) Accurately ripped
Offsetted by 298:
 01     [3145c4a8] (013/137) Accurately ripped
 02     [5d93a84e] (013/133) Accurately ripped
 03     [90247500] (013/129) Accurately ripped
 04     [b6af40e9] (013/127) Accurately ripped
 05     [2ea85ec8] (013/125) Accurately ripped
 06     [3e07cf03] (013/124) Accurately ripped
 07     [65a22466] (012/122) Accurately ripped
 08     [4413a7da] (012/120) Accurately ripped
Offsetted by 317:
 01     [6828234d] (003/137) Accurately ripped
 02     [213cd6bb] (003/133) Accurately ripped
 03     [6e0c84b5] (004/129) Accurately ripped
 04     [6da78e7c] (004/127) Accurately ripped
 05     [740edb57] (004/125) Accurately ripped
 06     [90de23d6] (004/124) Accurately ripped
 07     [fe2759a8] (003/122) Accurately ripped
 08     [f9667774] (002/120) Accurately ripped
Offsetted by 352:
 01     [975d5862] (005/137) Accurately ripped
 02     [f5747d18] (005/133) Accurately ripped
 03     [144c35da] (005/129) Accurately ripped
 04     [0212a41f] (005/127) Accurately ripped
 05     [3744e936] (005/125) Accurately ripped
 06     [5f5b7cb9] (005/124) Accurately ripped
 07     [e137ae4a] (005/122) Accurately ripped
 08     [7d4fdaee] (005/120) Accurately ripped
Offsetted by 443:
 01     [abb47bff] (008/137) Accurately ripped
 02     [839ec73d] (008/133) Accurately ripped
 03     [f7be9c07] (008/129) Accurately ripped
 04     [1d8f75fa] (008/127) Accurately ripped
 05     [32d173ad] (008/125) Accurately ripped
 06     [dea163d4] (007/124) Accurately ripped
 07     [c92ef0bc] (008/122) Accurately ripped
 08     [d44843f8] (007/120) Accurately ripped

Track Peak [ CRC32  ] [W/O NULL]
 --   93.6 [32A72774] [97880CE9]          
 01   79.4 [3A814F12] [AAB09B64]          
 02   79.4 [D100001D] [162A92EC]          
 03   79.4 [06AA2E4B] [D8821666]          
 04   79.4 [A2A23B28] [EDD208D5]          
 05   79.4 [D365BC0E] [3D827457]          
 06   79.4 [FACE12C6] [C44C40C5]          
 07   93.6 [68785B8B] [918A486D]          
 08   71.3 [47AA9E08] [279727C5]          

Re: Is there a guide on how to use the repair function?

Reply #15
Yeah there was some issue with the other run.  All the AccurateRip hashes were zeroed.
Code: [Select]
[AccurateRip ID: 000e1141-005ddbb5-550aad08] found.
Track   [  CRC   |   V2   ] Status
 01     [00000000|00000000] (000+000/137) No match
 02     [00000000|00000000] (000+000/133) No match
 03     [00000000|00000000] (000+000/129) No match
 04     [00000000|00000000] (000+000/127) No match
 05     [00000000|00000000] (000+000/125) No match
 06     [00000000|00000000] (000+000/124) No match
 07     [00000000|00000000] (000+000/122) No match
 08     [00000000|00000000] (000+000/120) No match
korth

Re: Is there a guide on how to use the repair function?

Reply #16
is there any hope for this disc?

Code: [Select]
Exact Audio Copy V1.6 from 23. October 2020

EAC extraction logfile from 17. March 2023, 10:02

Eric Clapton / 24 Nights

Used drive  : PLEXTOR CD-ROM PX-40TS   Adapter: 1  ID: 2

Read mode               : Secure
Utilize accurate stream : Yes
Defeat audio cache      : No
Make use of C2 pointers : Yes

Read offset correction                      : 676
Overread into Lead-In and Lead-Out          : No
Fill up missing offset samples with silence : Yes
Delete leading and trailing silent blocks   : No
Null samples used in CRC calculations       : Yes
Used interface                              : Native Win32 interface for Win NT & 2000

Used output format : Internal WAV Routines
Sample format      : 44.100 Hz; 16 Bit; Stereo


TOC of the extracted CD

     Track |   Start  |  Length  | Start sector | End sector
    ---------------------------------------------------------
        1  |  0:00.00 |  7:08.12 |         0    |    32111  
        2  |  7:08.12 |  6:24.45 |     32112    |    60956  
        3  | 13:32.57 | 13:01.18 |     60957    |   119549  
        4  | 26:34.00 |  9:10.60 |    119550    |   160859  
        5  | 35:44.60 |  6:38.15 |    160860    |   190724  
        6  | 42:23.00 |  3:45.32 |    190725    |   207631  
        7  | 46:08.32 |  6:29.55 |    207632    |   236861  


Range status and errors

Selected range

     Filename E:\inprogress\ec secure 2\Eric Clapton - 24 Nights.wav

     Suspicious position 0:13:38
     Suspicious position 0:13:50 - 0:13:56
     Suspicious position 0:14:01 - 0:14:11
     Suspicious position 0:14:13 - 0:14:22
     Suspicious position 0:14:24
     Suspicious position 0:14:59 - 0:15:02
     Suspicious position 0:15:05
     Suspicious position 0:15:07
     Suspicious position 0:15:09
     Suspicious position 0:15:21
     Suspicious position 0:15:30 - 0:15:32
     Suspicious position 0:15:39 - 0:15:43
     Suspicious position 0:15:45 - 0:15:46
     Suspicious position 0:15:48 - 0:15:50
     Suspicious position 0:16:00 - 0:16:02
     Suspicious position 0:16:42 - 0:16:46
     Suspicious position 0:16:51 - 0:16:53
     Suspicious position 0:16:55 - 0:17:21
     Suspicious position 0:17:33 - 0:17:34
     Suspicious position 0:17:37 - 0:17:38
     Suspicious position 0:17:40 - 0:17:45
     Suspicious position 0:17:48 - 0:17:52
     Suspicious position 0:17:54 - 0:17:56
     Suspicious position 0:17:58 - 0:18:00
     Suspicious position 0:18:13 - 0:18:15
     Suspicious position 0:19:20 - 0:19:22
     Suspicious position 0:19:24
     Suspicious position 0:20:11
     Suspicious position 0:20:18
     Suspicious position 0:20:31 - 0:20:32
     Suspicious position 0:31:37 - 0:31:38
     Suspicious position 0:31:40
     Suspicious position 0:31:43
     Suspicious position 0:31:46
     Suspicious position 0:32:37
     Suspicious position 0:32:40
     Suspicious position 0:32:42 - 0:32:44
     Suspicious position 0:32:46 - 0:32:50
     Suspicious position 0:34:54 - 0:34:58
     Suspicious position 0:35:00
     Suspicious position 0:35:05
     Suspicious position 0:35:07 - 0:35:09
     Suspicious position 0:35:46 - 0:35:47
     Suspicious position 0:47:02
     Suspicious position 0:47:04
     Suspicious position 0:47:07
     Suspicious position 0:47:11 - 0:47:18
     Suspicious position 0:47:20 - 0:47:21
     Suspicious position 0:47:23 - 0:47:25
     Suspicious position 0:47:27
     Suspicious position 0:47:40 - 0:48:00
     Suspicious position 0:48:06
     Suspicious position 0:48:09 - 0:48:14
     Suspicious position 0:48:34 - 0:48:40
     Suspicious position 0:48:47 - 0:48:53
     Suspicious position 0:49:05 - 0:49:08
     Suspicious position 0:49:14 - 0:49:15
     Suspicious position 0:49:22 - 0:49:24
     Suspicious position 0:49:27 - 0:49:29
     Suspicious position 0:49:31 - 0:49:36

     Peak level 100.0 %
     Extraction speed 1.8 X
     Range quality 91.9 %
     Test CRC CBE4EB81
     Copy CRC 9E68AD3C
     Copy finished

There were errors

 
AccurateRip summary
 
Track  1  accurately ripped (confidence 26)  [B7B8FBDE]  (AR v2)
Track  2  accurately ripped (confidence 28)  [A2110921]  (AR v2)
Track  3  cannot be verified as accurate (confidence 27)  [E409A9A0], AccurateRip returned [0D90C2A7]  (AR v2)
Track  4  cannot be verified as accurate (confidence 27)  [A1018D55], AccurateRip returned [352B75F2]  (AR v2)
Track  5  cannot be verified as accurate (confidence 28)  [767C2D47], AccurateRip returned [4767F936]  (AR v2)
Track  6  accurately ripped (confidence 26)  [A1BDA74A]  (AR v2)
Track  7  cannot be verified as accurate (confidence 24)  [E2E98452], AccurateRip returned [256E914C]  (AR v2)
 
 3 track(s) accurately ripped
 4 track(s) could not be verified as accurate

Some tracks could not be verified as accurate

End of status report

---- CUETools DB Plugin V2.1.6

[CTDB TOCID: sgkqegll7I8WTC1EmhK8e4DmO_M-] found
Submit result: insufficient quality
Track | CTDB Status
  1   | (93/96) Accurately ripped
  2   | (95/96) Accurately ripped
  3   | ( 0/96) No match
  4   | ( 0/96) No match
  5   | ( 0/96) No match
  6   | (94/96) Accurately ripped
  7   | ( 0/96) No match


==== Log checksum F8389693E16654C32675BE686B2970BAF331F0830EC3495D6AC7C72C31B6D42E ====

 

Re: Is there a guide on how to use the repair function?

Reply #17
Too many errors to repair to rip.
A few normal suggestions on the re-rip of damaged tracks.
Try cleaning the CD.
Try disabling C2.
Try burst mode.
Try a different drive.
Try a different ripping program.
korth

Re: Is there a guide on how to use the repair function?

Reply #18
Too many errors to repair to rip.
A few normal suggestions on the re-rip of damaged tracks.
Try cleaning the CD.
Try disabling C2.
Try burst mode.
Try a different drive.
Try a different ripping program.

Yep, done all of that…
Thanks for the list!