Skip to main content

Topic: EAC: how to get a cue sheet text info (Read 888 times) previous topic - next topic

0 Members and 1 Guest are viewing this topic.
  • blaby
  • [*]
EAC: how to get a cue sheet text info
Hello everyone,

Although I manage to get a cue sheet from my rips on EAC I don't know how to get this sort of file:

REM DATE 2006
REM DISCID 8B0A880B
REM COMMENT "ExactAudioCopy v1.0b1"
PERFORMER "TV Rock"
TITLE "Sunshine City"
FILE "01 - It Ain't Easy feat Nancy Vice.wav" WAVE
TRACK 01 AUDIO
TITLE "It Ain't Easy feat Nancy Vice"
PERFORMER "TV Rock"
INDEX 01 00:00:00
FILE "02 - Bimbo Nation feat Nancy Vice.wav" WAVE
TRACK 02 AUDIO
TITLE "Bimbo Nation feat Nancy Vice"
PERFORMER "TV Rock"
INDEX 01 00:00:00
FILE "03 - Hip House Is Back feat Seany B.wav" WAVE
TRACK 03 AUDIO
TITLE "Hip House Is Back feat Seany B"
PERFORMER "TV Rock"
INDEX 01 00:00:00


Can someone help me ?

Thanks in advance

  • JunkieXL
  • [*][*][*][*]
Re: EAC: how to get a cue sheet text info
Reply #1
Open a text editor, like Notepad.  Paste your info into it and then save it as a .cue file.
JXL

  • blaby
  • [*]
Re: EAC: how to get a cue sheet text info
Reply #2
But the question is how do I get the info?, I mean the text info from the EAC rip, like the one in blue in my previous message.
I saw these cue texts on a forum and i want the same:

REM GENRE Trance
REM DATE 2004
REM DISCID 250A6805
REM COMMENT "ExactAudioCopy v0.99pb4"
FILE "01 - Marrakech (Airplay Mix).wav" WAVE
 TRACK 01 AUDIO
 INDEX 01 00:00:00
FILE "02 - Marrakech (A&T Remix).wav" WAVE
 TRACK 02 AUDIO
 INDEX 01 00:00:00
FILE "03 - Marrakech (Clubb Mix).wav" WAVE
 TRACK 03 AUDIO
 INDEX 01 00:00:00
FILE "04 - Marrakech (Live @ Nowhere Mix).wav" WAVE
 TRACK 04 AUDIO
 INDEX 01 00:00:00
FILE "05 - Marrakech (Revolution Mix).wav" WAVE
 TRACK 05 AUDIO
 INDEX 01 00:00:00


Thanks   ;D  but my problem has not been solved

  • Porcus
  • [*][*][*][*][*]
Re: EAC: how to get a cue sheet text info
Reply #3
So you have a cuesheet, but you do not have the artist etc. metadata - or, you have the metadata in the file(s) but want it in the cuesheet?

  • blaby
  • [*]
Re: EAC: how to get a cue sheet text info
Reply #4
I know how to get an EAC extraction logfile, no problem.
What I want is the index cue sheet of the rip, as shown in the blue examples in my previous posts.

here's a page where you can find what i mean:

https://rutracker.org/forum/viewtopic.php?t=356198

then click on the "+cue" spoiler.

  • Porcus
  • [*][*][*][*][*]
Re: EAC: how to get a cue sheet text info
Reply #5
I know how to get an EAC extraction logfile, no problem.
What I want is the index cue sheet of the rip, as shown in the blue examples in my previous posts.

I don't get it. You write "Although I manage to get a cue sheet from my rips on EAC" - so what is wrong with that cuesheet? Missing indices? Missing metadata?

  • blaby
  • [*]
Re: EAC: how to get a cue sheet text info
Reply #6
There's nothing wrong with the cue sheet. The cue sheet will only be opened with an audio player. What i want is to open the contents of the tracks index as a text after the ripping.

Click on the internet link in my previous message (or below in this post)
On that page, you have a presentation of a Sparks record upload
In that presentation, there are 2 spoilers:

Отчёт EAC
and
CUE

Click on the spoilers:

The first one is an EAC extraction logfile. That's what you get when you rip a cd, and that's not a problem for me, i know how to get it.

The second one is a text of the cue index of the tracklisting: that's the one I don't know how to get. It's a text from the cue sheet.

Please see the link to understand what I mean. Here it is again https://rutracker.org/forum/viewtopic.php?t=356198

How do you get this text with EAC ?

Thanks in advance.
  • Last Edit: 26 October, 2017, 05:00:00 AM by blaby

  • Porcus
  • [*][*][*][*][*]
Re: EAC: how to get a cue sheet text info
Reply #7
the contents of the tracks index as a text

Not easy to help as long as you still refuse to answer whether you mean "metadata" ...

  • Pashketan
  • [*]
Re: EAC: how to get a cue sheet text info
Reply #8
It is necessary to fill in the fields in the program
http://s014.radikal.ru/i327/1710/26/25e41f9d023e.jpg

REM GENRE Rock
REM DATE 2000

REM DISCID 0610DB13
REM COMMENT "ExactAudioCopy v1.3"
PERFORMER "Smokie"
TITLE "Best Ballads"
REM COMPOSER ""
FILE "01 I'll Seet You At Midnight.wav" WAVE
  TRACK 01 AUDIO
    TITLE "I'll Seet You At Midnight"
    PERFORMER "Smokie"
    REM COMPOSER ""
    PREGAP 00:01:00
    INDEX 01 00:00:00

http://s008.radikal.ru/i306/1710/5f/fa499dc3cc16.jpg

REM GENRE Speech
REM DATE 1111

REM DISCID 0610DB13
REM COMMENT "ExactAudioCopy v1.3"
PERFORMER "Smokie"
TITLE "Best Ballads"
REM COMPOSER ""
FILE "01 I'll Seet You At Midnight.wav" WAVE
  TRACK 01 AUDIO
    TITLE "I'll Seet You At Midnight"
    PERFORMER "Smokie"
    REM COMPOSER ""
    PREGAP 00:01:00
    INDEX 01 00:00:00

You need to open CUE with any text editor, you can use simple Notepad
  • Last Edit: 26 October, 2017, 07:44:53 AM by Pashketan

  • blaby
  • [*]
Re: EAC: how to get a cue sheet text info
Reply #9
You need to open CUE with any text editor, you can use simple Notepad

Pashketan, that's it !

Problem solved.

Thank you very much !

  • Last Edit: 26 October, 2017, 08:27:17 AM by blaby